  0
SECTION
  2
HEADER
  9
$ACADVER
  1
AC1015
  9
$ACADMAINTVER
 70
     6
  9
$DWGCODEPAGE
  3
ANSI_1252
  9
$INSBASE
 10
0.0
 20
0.0
 30
0.0
  9
$EXTMIN
 10
-82.64186932287964
 20
-38.73223044234203
 30
-0.0015258207003583
  9
$EXTMAX
 10
56.06053539045001
 20
60.289772235501
 30
0.0000000349246037
  9
$LIMMIN
 10
0.0
 20
0.0
  9
$LIMMAX
 10
420.0
 20
297.0
  9
$ORTHOMODE
 70
     0
  9
$REGENMODE
 70
     1
  9
$FILLMODE
 70
     1
  9
$QTEXTMODE
 70
     0
  9
$MIRRTEXT
 70
     1
  9
$LTSCALE
 40
1.0
  9
$ATTMODE
 70
     1
  9
$TEXTSIZE
 40
2.5
  9
$TRACEWID
 40
1.0
  9
$TEXTSTYLE
  7
STANDARD
  9
$CLAYER
  8
DIMENSION2_BEMAßUNG2
  9
$CELTYPE
  6
ByLayer
  9
$CECOLOR
 62
   256
  9
$CELTSCALE
 40
1.0
  9
$DISPSILH
 70
     1
  9
$DIMSCALE
 40
1.0
  9
$DIMASZ
 40
2.5
  9
$DIMEXO
 40
1.0
  9
$DIMDLI
 40
10.0
  9
$DIMRND
 40
0.0
  9
$DIMDLE
 40
0.0
  9
$DIMEXE
 40
1.0
  9
$DIMTP
 40
0.1
  9
$DIMTM
 40
0.1
  9
$DIMTXT
 40
3.5
  9
$DIMCEN
 40
0.0
  9
$DIMTSZ
 40
0.0
  9
$DIMTOL
 70
     0
  9
$DIMLIM
 70
     0
  9
$DIMTIH
 70
     0
  9
$DIMTOH
 70
     0
  9
$DIMSE1
 70
     0
  9
$DIMSE2
 70
     0
  9
$DIMTAD
 70
     1
  9
$DIMZIN
 70
     8
  9
$DIMBLK
  1

  9
$DIMASO
 70
     1
  9
$DIMSHO
 70
     1
  9
$DIMPOST
  1

  9
$DIMAPOST
  1
"
  9
$DIMALT
 70
     0
  9
$DIMALTD
 70
     2
  9
$DIMALTF
 40
0.0393701
  9
$DIMLFAC
 40
1.0
  9
$DIMTOFL
 70
     1
  9
$DIMTVP
 40
0.0
  9
$DIMTIX
 70
     0
  9
$DIMSOXD
 70
     0
  9
$DIMSAH
 70
     0
  9
$DIMBLK1
  1

  9
$DIMBLK2
  1

  9
$DIMSTYLE
  2
AM_DIN
  9
$DIMCLRD
 70
   256
  9
$DIMCLRE
 70
   256
  9
$DIMCLRT
 70
     1
  9
$DIMTFAC
 40
0.71
  9
$DIMGAP
 40
1.5
  9
$DIMJUST
 70
     0
  9
$DIMSD1
 70
     0
  9
$DIMSD2
 70
     0
  9
$DIMTOLJ
 70
     0
  9
$DIMTZIN
 70
     0
  9
$DIMALTZ
 70
     0
  9
$DIMALTTZ
 70
     0
  9
$DIMUPT
 70
     0
  9
$DIMDEC
 70
     2
  9
$DIMTDEC
 70
     2
  9
$DIMALTU
 70
     2
  9
$DIMALTTD
 70
     2
  9
$DIMTXSTY
  7
STANDARD
  9
$DIMAUNIT
 70
     0
  9
$DIMADEC
 70
     0
  9
$DIMALTRND
 40
0.0
  9
$DIMAZIN
 70
     2
  9
$DIMDSEP
 70
    46
  9
$DIMATFIT
 70
     3
  9
$DIMFRAC
 70
     0
  9
$DIMLDRBLK
  1

  9
$DIMLUNIT
 70
     2
  9
$DIMLWD
 70
    -1
  9
$DIMLWE
 70
    -1
  9
$DIMTMOVE
 70
     0
  9
$LUNITS
 70
     2
  9
$LUPREC
 70
     2
  9
$SKETCHINC
 40
1.0
  9
$FILLETRAD
 40
2.5
  9
$AUNITS
 70
     0
  9
$AUPREC
 70
     0
  9
$MENU
  1
.
  9
$ELEVATION
 40
0.0
  9
$PELEVATION
 40
0.0
  9
$THICKNESS
 40
0.0
  9
$LIMCHECK
 70
     0
  9
$CHAMFERA
 40
2.5
  9
$CHAMFERB
 40
2.5
  9
$CHAMFERC
 40
20.0
  9
$CHAMFERD
 40
0.0
  9
$SKPOLY
 70
     0
  9
$TDCREATE
 40
2452390.598370717
  9
$TDUCREATE
 40
2452390.515037384
  9
$TDUPDATE
 40
2452499.456618148
  9
$TDUUPDATE
 40
2452499.373284815
  9
$TDINDWG
 40
0.0298077778
  9
$TDUSRTIMER
 40
0.0298076620
  9
$USRTIMER
 70
     1
  9
$ANGBASE
 50
0.0
  9
$ANGDIR
 70
     0
  9
$PDMODE
 70
     0
  9
$PDSIZE
 40
0.0
  9
$PLINEWID
 40
0.0
  9
$SPLFRAME
 70
     0
  9
$SPLINETYPE
 70
     6
  9
$SPLINESEGS
 70
     8
  9
$HANDSEED
  5
C95B
  9
$SURFTAB1
 70
     6
  9
$SURFTAB2
 70
     6
  9
$SURFTYPE
 70
     6
  9
$SURFU
 70
     6
  9
$SURFV
 70
     6
  9
$UCSBASE
  2

  9
$UCSNAME
  2

  9
$UCSORG
 10
0.0
 20
0.0
 30
0.0
  9
$UCSXDIR
 10
1.0
 20
0.0
 30
0.0
  9
$UCSYDIR
 10
0.0
 20
1.0
 30
0.0
  9
$UCSORTHOREF
  2

  9
$UCSORTHOVIEW
 70
     0
  9
$UCSORGTOP
 10
0.0
 20
0.0
 30
0.0
  9
$UCSORGBOTTOM
 10
0.0
 20
0.0
 30
0.0
  9
$UCSORGLEFT
 10
0.0
 20
0.0
 30
0.0
  9
$UCSORGRIGHT
 10
0.0
 20
0.0
 30
0.0
  9
$UCSORGFRONT
 10
0.0
 20
0.0
 30
0.0
  9
$UCSORGBACK
 10
0.0
 20
0.0
 30
0.0
  9
$PUCSBASE
  2

  9
$PUCSNAME
  2

  9
$PUCSORG
 10
0.0
 20
0.0
 30
0.0
  9
$PUCSXDIR
 10
1.0
 20
0.0
 30
0.0
  9
$PUCSYDIR
 10
0.0
 20
1.0
 30
0.0
  9
$PUCSORTHOREF
  2

  9
$PUCSORTHOVIEW
 70
     0
  9
$PUCSORGTOP
 10
0.0
 20
0.0
 30
0.0
  9
$PUCSORGBOTTOM
 10
0.0
 20
0.0
 30
0.0
  9
$PUCSORGLEFT
 10
0.0
 20
0.0
 30
0.0
  9
$PUCSORGRIGHT
 10
0.0
 20
0.0
 30
0.0
  9
$PUCSORGFRONT
 10
0.0
 20
0.0
 30
0.0
  9
$PUCSORGBACK
 10
0.0
 20
0.0
 30
0.0
  9
$USERI1
 70
     0
  9
$USERI2
 70
     0
  9
$USERI3
 70
     0
  9
$USERI4
 70
     0
  9
$USERI5
 70
     0
  9
$USERR1
 40
0.0
  9
$USERR2
 40
0.0
  9
$USERR3
 40
0.0
  9
$USERR4
 40
0.0
  9
$USERR5
 40
0.0
  9
$WORLDVIEW
 70
     1
  9
$SHADEDGE
 70
     3
  9
$SHADEDIF
 70
    70
  9
$TILEMODE
 70
     1
  9
$MAXACTVP
 70
    64
  9
$PINSBASE
 10
0.0
 20
0.0
 30
0.0
  9
$PLIMCHECK
 70
     0
  9
$PEXTMIN
 10
1.000000000000000E+20
 20
1.000000000000000E+20
 30
1.000000000000000E+20
  9
$PEXTMAX
 10
-1.000000000000000E+20
 20
-1.000000000000000E+20
 30
-1.000000000000000E+20
  9
$PLIMMIN
 10
-7.14373779296875
 20
-7.143749713897705
  9
$PLIMMAX
 10
412.8452453613281
 20
289.8245730400085
  9
$UNITMODE
 70
     0
  9
$VISRETAIN
 70
     1
  9
$PLINEGEN
 70
     0
  9
$PSLTSCALE
 70
     1
  9
$TREEDEPTH
 70
  3020
  9
$CMLSTYLE
  2
Standard
  9
$CMLJUST
 70
     0
  9
$CMLSCALE
 40
20.0
  9
$PROXYGRAPHICS
 70
     1
  9
$MEASUREMENT
 70
     1
  9
$CELWEIGHT
370
    -1
  9
$ENDCAPS
280
     0
  9
$JOINSTYLE
280
     0
  9
$LWDISPLAY
290
     0
  9
$INSUNITS
 70
     4
  9
$HYPERLINKBASE
  1

  9
$STYLESHEET
  1
Paletti_4V.ctb
  9
$XEDIT
290
     1
  9
$CEPSNTYPE
380
     0
  9
$PSTYLEMODE
290
     1
  9
$FINGERPRINTGUID
  2
{B0374B50-15BD-11D4-9A1F-0050BAC17A03}
  9
$VERSIONGUID
  2
{D44D671C-BA39-4BA8-B0F7-7FCD37075DE9}
  9
$EXTNAMES
290
     1
  9
$PSVPSCALE
 40
0.0
  9
$OLESTARTUP
290
     0
  0
ENDSEC
  0
SECTION
  2
CLASSES
  0
CLASS
  1
ACDBDICTIONARYWDFLT
  2
AcDbDictionaryWithDefault
  3
AutoCAD 2000
 90
        0
280
     0
281
     0
  0
CLASS
  1
ACDBPLACEHOLDER
  2
AcDbPlaceHolder
  3
AutoCAD 2000
 90
        0
280
     0
281
     0
  0
CLASS
  1
LAYOUT
  2
AcDbLayout
  3
AutoCAD 2000
 90
        0
280
     0
281
     0
  0
CLASS
  1
ACME_DOCUMENT
  2
AcMeDbDoc
  3
AcMeServices
 90
        0
280
     0
281
     0
  0
CLASS
  1
ACMESCOPE
  2
AcMeScope
  3
AcMeServices
 90
        0
280
     0
281
     0
  0
CLASS
  1
ACMECOMMANDHISTORY
  2
AcMeCommandHistory
  3
AcMeServices
 90
        0
280
     0
281
     0
  0
CLASS
  1
DICTIONARYVAR
  2
AcDbDictionaryVar
  3
AutoCAD 2000
 90
        0
280
     0
281
     0
  0
CLASS
  1
ACIMSYSVARMAN
  2
AcImSysVarManager
  3
AcMeServices
 90
        0
280
     0
281
     0
  0
CLASS
  1
ACIMREALSYSVAR
  2
AcImRealSysVar
  3
AcMeServices
 90
        0
280
     0
281
     0
  0
CLASS
  1
ACIMINTSYSVAR
  2
AcImIntSysVar
  3
AcMeServices
 90
        0
280
     0
281
     0
  0
CLASS
  1
ACMEDRAWINGMAN
  2
AcMeDrawingMan
  3
AcMeServices
 90
        0
280
     0
281
     0
  0
CLASS
  1
ACMEVIEW
  2
AcMeView
  3
AcMeServices
 90
        0
280
     0
281
     0
  0
CLASS
  1
ACDBENTITYCACHE
  2
AcMeEntityCache
  3
AcMeServices
 90
        0
280
     0
281
     0
  0
CLASS
  1
GSMANAGER
  2
AcMeGSManager
  3
AcMeServices
 90
        0
280
     0
281
     0
  0
CLASS
  1
AmdtInternalReactor
  2
AmdtInternalReactor
  3
AcMeServices
 90
        0
280
     0
281
     0
  0
CLASS
  1
ACMESTATEMGR
  2
AcMeStateMgr
  3
AcMeServices
 90
        0
280
     0
281
     0
  0
CLASS
  1
ACME_DATABASE
  2
AcMeDbDatabase
  3
AcMeServices
 90
        0
280
     0
281
     0
  0
CLASS
  1
ACRFINSADJUSTERMGR
  2
AcRfInsAdjusterMgr
  3
AcMeServices
 90
        0
280
     0
281
     0
  0
CLASS
  1
AMGSETTINGSOBJ
  2
AmgSettingsObj
  3
"AcadM|Product Description: AutoCAD Mechanical 2000|Company: Autodesk"
 90
        0
280
     0
281
     0
  0
CLASS
  1
AMGOBJPROPCFG
  2
AmgObjPropCfg
  3
"AmgLay|Product Description: AutoCAD Mechanical 2000|Company: Autodesk"
 90
        1
280
     0
281
     0
  0
CLASS
  1
ACMDATADICTIONARY
  2
AcmDataDictionary
  3
"AcmSymBB|Product Description: AutoCAD Mechanical 2000|Company: Autodesk"
 90
        0
280
     0
281
     0
  0
CLASS
  1
ACMDATAENTRYBLOCK
  2
AcmDataEntryBlock
  3
"AcmSymBB|Product Description: AutoCAD Mechanical 2000|Company: Autodesk"
 90
        0
280
     0
281
     0
  0
CLASS
  1
ACIMSTRSYSVAR
  2
AcImStrSysVar
  3
AcMeServices
 90
        0
280
     0
281
     0
  0
CLASS
  1
ACAMGFILTERDAT
  2
AcAmgFilterDat
  3
"AcadM|Product Description: AutoCAD Mechanical 2000|Company: Autodesk"
 90
        0
280
     0
281
     0
  0
CLASS
  1
LAYER_INDEX
  2
AcDbLayerIndex
  3
AutoCAD 2000
 90
        0
280
     0
281
     0
  0
CLASS
  1
IDBUFFER
  2
AcDbIdBuffer
  3
AutoCAD 2000
 90
        0
280
     0
281
     0
  0
CLASS
  1
ACGREFMASTER
  2
AcGrefMaster
  3
AcAttribServices
 90
        0
280
     0
281
     0
  0
CLASS
  1
AM_DRAWING_MGR
  2
AcDmDwgMgr
  3
AcMechDwgViewMgmt
 90
        0
280
     0
281
     0
  0
CLASS
  1
AM_DWG_DOCUMENT
  2
AcDmDwgDocument
  3
AcMechDwgViewMgmt
 90
        0
280
     0
281
     0
  0
CLASS
  1
AM_DWG_SHEET
  2
AcDmSheet
  3
AcMechDwgViewMgmt
 90
        0
280
     0
281
     0
  0
CLASS
  1
AM_VIEWDIMPARMAP
  2
AcDmViewDimParMap
  3
AcMechDwgViewMgmt
 90
        0
280
     0
281
     0
  0
CLASS
  1
AM_DWGMGR_NAME
  2
AcDmDwgMgrName
  3
AcMechDwgViewMgmt
 90
        0
280
     0
281
     0
  0
CLASS
  1
ACGREFMASTER
  2
AcGrefacadMaster
  3
AcGrefServices
 90
        0
280
     0
281
     0
  0
CLASS
  1
AMDTMENUSTATEMGR
  2
AmdtMenuStateMgr
  3
McadcomServices
 90
        0
280
     0
281
     0
  0
CLASS
  1
AMDTMCOMMENUSTATE
  2
AmdtMcomMenuState
  3
McadcomServices
 90
        0
280
     0
281
     0
  0
CLASS
  1
ASAPP
  2
AcAsAppObject
  3
AutoSurfServices
 90
        0
280
     0
281
     0
  0
CLASS
  1
IM_STATIC_MAN
  2
AcImStaticVarManager
  3
AcMeServices
 90
        0
280
     0
281
     0
  0
CLASS
  1
ACIMDBLSTATICVAR
  2
AcImDblStaticVar
  3
AcMeServices
 90
        0
280
     0
281
     0
  0
CLASS
  1
ACIMSTRSTATICVAR
  2
AcImStrStaticVar
  3
AcMeServices
 90
        0
280
     0
281
     0
  0
CLASS
  1
ACIMINTSTATICVAR
  2
AcImIntStaticVar
  3
AcMeServices
 90
        0
280
     0
281
     0
  0
CLASS
  1
ACADGREFMODULE
  2
AcAdGrefModule
  3
AdGrefServices
 90
        0
280
     0
281
     0
  0
CLASS
  1
AMIMASTER
  2
AmiMaster
  3
AmiServices
 90
        0
280
     0
281
     0
  0
CLASS
  1
ACASGREFMASTER
  2
AcAsGrefMaster
  3
AutoSurfResolverServices
 90
        0
280
     0
281
     0
  0
CLASS
  1
MAPIAMMOUDLE
  2
MApiAmModule
  3
MApiAmServices
 90
        0
280
     0
281
     0
  0
CLASS
  1
AMDTDMMENUSTATE
  2
AmdtDmMenuState
  3
AcMechDwgViewMgmt
 90
        0
280
     0
281
     0
  0
CLASS
  1
AMDTADMENUSTATE
  2
AmdtAdMenuState
  3
DesignerServices
 90
        0
280
     0
281
     0
  0
CLASS
  1
ADAPPL
  2
AcAdAppl
  3
DesignerServices
 90
        0
280
     0
281
     0
  0
CLASS
  1
DEPMGR
  2
AcAdDepMgr
  3
DesignerServices
 90
        0
280
     0
281
     0
  0
CLASS
  1
PARAMMGR
  2
AcAdParamMgr
  3
DesignerServices
 90
        0
280
     0
281
     0
  0
CLASS
  1
PARAMSCOPE
  2
AcAdParamScope
  3
DesignerServices
 90
        0
280
     0
281
     0
  0
CLASS
  1
NAMEDAPPL
  2
AcAdNamedAppl
  3
DesignerServices
 90
        0
280
     0
281
     0
  0
CLASS
  1
ADHNTMPLT
  2
AdHoleNoteTemplateMgr
  3
DesignerServices
 90
        0
280
     0
281
     0
  0
CLASS
  1
AM_HNTEMPLATE_MGR_NAME
  2
AdHoleNoteTemplateMgrName
  3
DesignerServices
 90
        0
280
     0
281
     0
  0
CLASS
  1
AMDTAMMENUSTATE
  2
AmdtAmMenuState
  3
DesignerAssemblies
 90
        0
280
     0
281
     0
  0
CLASS
  1
ACAMPROJECT
  2
AcAmProject
  3
DesignerAssemblies
 90
        0
280
     0
281
     0
  0
CLASS
  1
ACAMGRCOMPDEF
  2
AcAmGrCompDef
  3
DesignerAssemblies
 90
        0
280
     0
281
     0
  0
CLASS
  1
ACCMCONTEXT
  2
AcCmContext
  3
DesignerAssemblies
 90
        0
280
     0
281
     0
  0
CLASS
  1
ACAMCOMPDEF
  2
AcAmCompDef
  3
DesignerAssemblies
 90
        0
280
     0
281
     0
  0
CLASS
  1
ACAMCOMPDEFMGR
  2
AcAmCompDefMgr
  3
DesignerAssemblies
 90
        0
280
     0
281
     0
  0
CLASS
  1
AMCONTEXTMGR
  2
AcAmContextMgr
  3
DesignerAssemblies
 90
        0
280
     0
281
     0
  0
CLASS
  1
ACAMCONTEXTMODELER
  2
AcAmContextModeler
  3
DesignerAssemblies
 90
        0
280
     0
281
     0
  0
CLASS
  1
MAPIADMODULE
  2
MApiAdModule
  3
MApiAdServices
 90
        0
280
     0
281
     0
  0
CLASS
  1
AMDTBROWSERDBTAB
  2
AmdtBrowserDbTab
  3
McadcomServices
 90
        0
280
     0
281
     0
  0
CLASS
  1
CBROWSERAPPOBJECT
  2
CBrowserAppObject
  3
McadcomServices
 90
        0
280
     0
281
     0
  0
CLASS
  1
DM_PLACEHOLDER
  2
AcDmSelsetPlaceholder
  3
AcMechDwgViewMgmt
 90
        0
280
     0
281
     0
  0
CLASS
  1
CATALOGSTATE
  2
AcAmCatalogState
  3
DesignerAssemblies
 90
        0
280
     0
281
     0
  0
CLASS
  1
ACAMGRCOMPDEFSET
  2
AcAmGrCompDefSet
  3
DesignerAssemblies
 90
        0
280
     0
281
     0
  0
CLASS
  1
ADPART
  2
AcAdPart
  3
DesignerServices
 90
    32768
280
     0
281
     1
  0
CLASS
  1
ADBASE
  2
AcAdBase
  3
DesignerServices
 90
    32768
280
     0
281
     0
  0
CLASS
  1
BODYID
  2
AcAdBodyId
  3
DesignerServices
 90
    32768
280
     0
281
     0
  0
CLASS
  1
WORKPLANEDISPLAYMGR
  2
AcAdDisplayMgr
  3
DesignerServices
 90
    32768
280
     0
281
     0
  0
CLASS
  1
ACCMBODY
  2
AcCmBody
  3
DesignerAssemblies
 90
    32768
280
     0
281
     0
  0
CLASS
  1
ACAMCOMPENT
  2
AcAmCompEnt
  3
DesignerAssemblies
 90
    32768
280
     0
281
     1
  0
CLASS
  1
ACAMCOMPFEEDBACK
  2
AcAmCompFeedback
  3
DesignerAssemblies
 90
    32768
280
     0
281
     0
  0
CLASS
  1
ACAMCOMP
  2
AcAmComp
  3
DesignerAssemblies
 90
    32768
280
     0
281
     0
  0
CLASS
  1
ACAMCOMPENTCLONE
  2
AcAmCompEntClone
  3
DesignerAssemblies
 90
    32768
280
     0
281
     1
  0
CLASS
  1
ACAMCLONEREACTOR
  2
AcAmGrCompCloneReactor
  3
DesignerAssemblies
 90
    32768
280
     0
281
     0
  0
CLASS
  1
ADDATUMPLANEABS
  2
AcAdDatumPlaneAbs
  3
DesignerServices
 90
    32768
280
     0
281
     0
  0
CLASS
  1
ADDATUMAXISABS
  2
AcAdDatumAxisAbs
  3
DesignerServices
 90
    32768
280
     0
281
     0
  0
CLASS
  1
ADDATUMORIENTEDPLANE
  2
AcAdDatumOrientedPlane
  3
DesignerServices
 90
    32768
280
     0
281
     0
  0
CLASS
  1
ACAD_LINE
  2
AcAdLine
  3
DesignerServices
 90
    32768
280
     0
281
     1
  0
CLASS
  1
ACADLINEACAD
  2
AcAdVirtualBoundedLineAcad
  3
DesignerServices
 90
    32768
280
     0
281
     0
  0
CLASS
  1
ACADREFLINEACAD
  2
AcAdVirtualReferenceLine
  3
DesignerServices
 90
    32768
280
     0
281
     0
  0
CLASS
  1
ACADCONSLINE
  2
AcAdConstrainedLine
  3
DesignerServices
 90
    32768
280
     0
281
     0
  0
CLASS
  1
ACADCONSGROUP
  2
AcAdConstraintGroup
  3
DesignerServices
 90
    32768
280
     0
281
     0
  0
CLASS
  1
ACADIMPPTACAD
  2
AcAdVirtualImplicitPoint
  3
DesignerServices
 90
    32768
280
     0
281
     0
  0
CLASS
  1
ACADCONSPOINT
  2
AcAdConstrainedPoint
  3
DesignerServices
 90
    32768
280
     0
281
     0
  0
CLASS
  1
ADPCURCNS
  2
AcAdPointCurveConstr
  3
DesignerServices
 90
    32768
280
     0
281
     0
  0
CLASS
  1
ADHORCNS
  2
AcAdHorizontalConstr
  3
DesignerServices
 90
    32768
280
     0
281
     0
  0
CLASS
  1
ADVERCNS
  2
AcAdVerticalConstr
  3
DesignerServices
 90
    32768
280
     0
281
     0
  0
CLASS
  1
ADCLPROF2D
  2
AcAdClosedProfile2d
  3
DesignerServices
 90
    32768
280
     0
281
     0
  0
CLASS
  1
ACAD_FIXCONSTRAINT
  2
AcAdFixedConstraint
  3
DesignerServices
 90
    32768
280
     0
281
     0
  0
CLASS
  1
ADCONSDISP
  2
AcAdConstraintDisplay
  3
DesignerServices
 90
    32768
280
     0
281
     1
  0
CLASS
  1
ADCONSTDSP
  2
AcAdConstraintDisplayTag
  3
DesignerServices
 90
    32768
280
     0
281
     1
  0
CLASS
  1
PARAM
  2
AcAdParam
  3
DesignerServices
 90
    32768
280
     0
281
     0
  0
CLASS
  1
ADHDISTCNS
  2
AcAdHorizontalDistanceConstr
  3
DesignerServices
 90
    32768
280
     0
281
     0
  0
CLASS
  1
ADVDISTCNS
  2
AcAdVerticalDistanceConstr
  3
DesignerServices
 90
    32768
280
     0
281
     0
  0
CLASS
  1
ACMELINEARARROW
  2
AcImLinearArrowDisplay
  3
AcMeServices
 90
    32768
280
     0
281
     1
  0
CLASS
  1
ACADVOLFEATWITHTRIM
  2
AcAdVolFeatWithTrim
  3
DesignerServices
 90
    32768
280
     0
281
     0
  0
CLASS
  1
DEPEDGEFEATUREORDERING
  2
AcAdDepEdgeFeatureOrdering
  3
DesignerServices
 90
    32768
280
     0
281
     0
  0
CLASS
  1
EDGEID
  2
AcAdEdgeId
  3
DesignerServices
 90
    32768
280
     0
281
     0
  0
CLASS
  1
ADFILLET
  2
AcAdFillet
  3
DesignerServices
 90
    32768
280
     0
281
     0
  0
CLASS
  1
FACEID
  2
AcAdFaceId
  3
DesignerServices
 90
    32768
280
     0
281
     0
  0
CLASS
  1
DEPEDGESECONDARYDEPID
  2
AcAdDepEdgeSecondaryDepId
  3
DesignerServices
 90
    32768
280
     0
281
     0
  0
CLASS
  1
ACADPARTPLANARFACERES
  2
AcAdPartPlanarFaceRes
  3
AdGrefServices
 90
    32768
280
     0
281
     0
  0
CLASS
  1
ACRFINSADJ
  2
AcRfInsAdjuster
  3
AcMeServices
 90
    32768
280
     0
281
     0
  0
CLASS
  1
ACADPARTLINEDGRES
  2
AcAdPartLinEdgRes
  3
AdGrefServices
 90
    32768
280
     0
281
     0
  0
CLASS
  1
ADPLANEID
  2
AcAdPlaneId
  3
DesignerServices
 90
    32768
280
     0
281
     0
  0
CLASS
  1
ADDATUMPLANEFACE
  2
AcAdDatumPlaneFace
  3
DesignerServices
 90
    32768
280
     0
281
     0
  0
CLASS
  1
ADWORKPOINTDISPLAY
  2
AcAdWorkPointDisplay
  3
DesignerServices
 90
    32768
280
     0
281
     1
  0
CLASS
  1
ADVIRTUALPOINTWORKPOINTFREE
  2
AcAdVirtualPointWorkPointFree
  3
DesignerServices
 90
    32768
280
     0
281
     0
  0
CLASS
  1
ADWORKPOINTSKETCH
  2
AcAdWorkPointSketch
  3
DesignerServices
 90
    32768
280
     0
281
     0
  0
CLASS
  1
ACADPARTDATUMPOINTRES
  2
AcAdPartDatumPointRes
  3
AdGrefServices
 90
    32768
280
     0
281
     0
  0
CLASS
  1
RAYREFID
  2
AcAdRayRefId
  3
DesignerServices
 90
    32768
280
     0
281
     0
  0
CLASS
  1
ACADLINEDEPID
  2
AcAdVirtualLineDepId
  3
DesignerServices
 90
    32768
280
     0
281
     0
  0
CLASS
  1
ADPDISTCNS
  2
AcAdParallelDistanceConstr
  3
DesignerServices
 90
    32768
280
     0
281
     0
  0
CLASS
  1
ACADSKETCHPOINTRES
  2
AcAdSketchPointRes
  3
DesignerServices
 90
    32768
280
     0
281
     0
  0
CLASS
  1
ACADSKETCHLINERES
  2
AcAdSketchLineRes
  3
DesignerServices
 90
    32768
280
     0
281
     0
  0
CLASS
  1
ADHOLEFEAT
  2
AcAdHoleFeat
  3
DesignerServices
 90
    32768
280
     0
281
     0
  0
CLASS
  1
AM_VIEW_SELECT_FILTER
  2
AcDmActivePartViewEntFilter
  3
DesignerServices
 90
    32768
280
     0
281
     0
  0
CLASS
  1
AM_GREF_PLANE
  2
AcDmGrefPlnDef
  3
AcMechDwgViewMgmt
 90
    32768
280
     0
281
     0
  0
CLASS
  1
AM_GREF_AXIS
  2
AcDmGrefAxisDef
  3
AcMechDwgViewMgmt
 90
    32768
280
     0
281
     0
  0
CLASS
  1
AM_BASE_VIEW_ORIENT
  2
AcDmBaseViewOr
  3
AcMechDwgViewMgmt
 90
    32768
280
     0
281
     0
  0
CLASS
  1
AM_DWG_VIEWPORT
  2
AcDmViewport
  3
AcMechDwgViewMgmt
 90
    32768
280
     0
281
     0
  0
CLASS
  1
AM_VIEW_DISPLAY
  2
AcDmDwgViewDisplay
  3
AcMechDwgViewMgmt
 90
    32768
280
     0
281
     0
  0
CLASS
  1
AM_CLDFLTS
  2
AcDmClDflts
  3
AcMechDwgViewMgmt
 90
    32768
280
     0
281
     0
  0
CLASS
  1
AM_BASE_VIEW
  2
AcDmBaseView
  3
AcMechDwgViewMgmt
 90
    32768
280
     0
281
     0
  0
CLASS
  1
ACDMVWEDCIRC
  2
AcDmViewEdgeCircle
  3
AcMechDwgViewMgmt
 90
    32768
280
     0
281
     1
  0
CLASS
  1
ACDMVWEDLINE
  2
AcDmViewEdgeLine
  3
AcMechDwgViewMgmt
 90
    32768
280
     0
281
     1
  0
CLASS
  1
AM_VIEWDIMLINEAR
  2
AcDmViewDimLinear
  3
AcMechDwgViewMgmt
 90
    32768
280
     0
281
     0
  0
CLASS
  1
AMDTDMPARMAPDATA
  2
AmdtDmDimParMapData
  3
AcMechDwgViewMgmt
 90
    32768
280
     0
281
     0
  0
CLASS
  1
AM_ORTHO_VIEW_ORIENT
  2
AcDmOrthoViewOr
  3
AcMechDwgViewMgmt
 90
    32768
280
     0
281
     0
  0
CLASS
  1
AM_ORTHO_VIEW
  2
AcDmOrthoView
  3
AcMechDwgViewMgmt
 90
    32768
280
     0
281
     0
  0
CLASS
  1
ACADPARTCIRCEDGRES
  2
AcAdPartCircEdgRes
  3
AdGrefServices
 90
    32768
280
     0
281
     0
  0
CLASS
  1
CIRREFID
  2
AcAdCircleRefId
  3
DesignerServices
 90
    32768
280
     0
281
     0
  0
CLASS
  1
AM_GREF_POINT
  2
AcDmGrefPntDef
  3
AcMechDwgViewMgmt
 90
    32768
280
     0
281
     0
  0
CLASS
  1
AM_FULLPOINTSECTION
  2
AcDmFullPointSection
  3
AcMechDwgViewMgmt
 90
    32768
280
     0
281
     0
  0
CLASS
  1
AM_SECTIONSYMBOL
  2
AcDmSectionSymbol
  3
AcMechDwgViewMgmt
 90
    32768
280
     0
281
     0
  0
CLASS
  1
AM_VIEWLABEL
  2
AcDmViewLabel
  3
AcMechDwgViewMgmt
 90
    32768
280
     0
281
     0
  0
CLASS
  1
ACDMVWEDELLIPSE
  2
AcDmViewEdgeEllipse
  3
AcMechDwgViewMgmt
 90
    32768
280
     0
281
     1
  0
CLASS
  1
ACDMVWEDARC
  2
AcDmViewEdgeArc
  3
AcMechDwgViewMgmt
 90
    32768
280
     0
281
     1
  0
CLASS
  1
AM_ADLINCTRLINE
  2
AcAdLineCl
  3
DesignerServices
 90
    32768
280
     0
281
     0
  0
CLASS
  1
AD_LINETAPH
  2
AcAdTapHoleLineDisp
  3
DesignerServices
 90
    32768
280
     0
281
     0
  0
CLASS
  1
ACMSTANDARDDIN
  2
AcmStandardDIN
  3
"AcmSymBB|Product Description: AutoCAD Mechanical 2000|Company: Autodesk"
 90
        0
280
     0
281
     0
  0
CLASS
  1
AMDTEDGESTANDARDDIN
  2
AmdtEdgeStdDIN
  3
"AcmSymBB|Product Description: AutoCAD Mechanical 2000|Company: Autodesk"
 90
        0
280
     0
281
     0
  0
CLASS
  1
ACMSURFSTANDARDDIN
  2
AcmSurfTextStdDIN
  3
"AcmSymBB|Product Description: AutoCAD Mechanical 2000|Company: Autodesk"
 90
        0
280
     0
281
     0
  0
CLASS
  1
ACMFCFSTANDARDDIN
  2
AcmFCFStdDIN
  3
"AcmSymBB|Product Description: AutoCAD Mechanical 2000|Company: Autodesk"
 90
        0
280
     0
281
     0
  0
CLASS
  1
ACMWELDSTANDARDDIN
  2
AcmWeldingStdDIN
  3
"AcmSymBB|Product Description: AutoCAD Mechanical 2000|Company: Autodesk"
 90
        0
280
     0
281
     0
  0
CLASS
  1
ACMIDSTANDARDDIN
  2
AcmIdStdDIN
  3
"AcmSymBB|Product Description: AutoCAD Mechanical 2000|Company: Autodesk"
 90
        0
280
     0
281
     0
  0
CLASS
  1
ACMDATUMSTANDARDDIN
  2
AcmDatumStdDIN
  3
"AcmSymBB|Product Description: AutoCAD Mechanical 2000|Company: Autodesk"
 90
        0
280
     0
281
     0
  0
CLASS
  1
ACMBOMSTANDARDDIN
  2
AcmBOMStdDIN
  3
"AcmSymBB|Product Description: AutoCAD Mechanical 2000|Company: Autodesk"
 90
        0
280
     0
281
     0
  0
CLASS
  1
ACMBOM
  2
AcmBom
  3
"AcmSymBB|Product Description: AutoCAD Mechanical 2000|Company: Autodesk"
 90
    32768
280
     0
281
     0
  0
CLASS
  1
ACMPARTLIST
  2
AcmPartList
  3
"AcmSymBB|Product Description: AutoCAD Mechanical 2000|Company: Autodesk"
 90
    33791
280
     0
281
     1
  0
CLASS
  1
ACRFATTGENMGR
  2
AcRfAttGeneralMgr
  3
AcAttribServices
 90
    32768
280
     0
281
     0
  0
ENDSEC
  0
SECTION
  2
TABLES
  0
TABLE
  2
VPORT
  5
8
330
0
100
AcDbSymbolTable
 70
     4
  0
VPORT
  5
C95A
330
8
100
AcDbSymbolTableRecord
100
AcDbViewportTableRecord
  2
*Active
 70
     0
 10
0.0
 20
0.0
 11
1.0
 21
1.0
 12
-12.74169114236062
 22
12.2709022250805
 13
0.0
 23
0.0
 14
2.5
 24
2.5
 15
10.0
 25
10.0
 16
0.0
 26
0.0
 36
1.0
 17
0.0
 27
0.0
 37
0.0
 40
126.6481087314889
 41
1.279857397504456
 42
50.0
 43
0.0
 44
0.0
 50
0.0
 51
0.0
 71
     0
 72
  2000
 73
     1
 74
     3
 75
     0
 76
     0
 77
     0
 78
     0
281
     0
 65
     1
110
0.0
120
0.0
130
0.0
111
1.0
121
0.0
131
0.0
112
0.0
122
1.0
132
0.0
 79
     0
146
0.0
  0
ENDTAB
  0
TABLE
  2
LTYPE
  5
5
330
0
100
AcDbSymbolTable
 70
    22
  0
LTYPE
  5
14
330
5
100
AcDbSymbolTableRecord
100
AcDbLinetypeTableRecord
  2
ByBlock
 70
     0
  3

 72
    65
 73
     0
 40
0.0
  0
LTYPE
  5
15
330
5
100
AcDbSymbolTableRecord
100
AcDbLinetypeTableRecord
  2
ByLayer
 70
     0
  3

 72
    65
 73
     0
 40
0.0
  0
LTYPE
  5
16
330
5
100
AcDbSymbolTableRecord
100
AcDbLinetypeTableRecord
  2
Continuous
 70
     0
  3
Solid line
 72
    65
 73
     0
 40
0.0
  0
LTYPE
  5
46
330
5
100
AcDbSymbolTableRecord
100
AcDbLinetypeTableRecord
  2
Amconstr
 70
     0
  3
_______________________
 72
    65
 73
     2
 40
9999.0
 49
9999.0
 74
     0
 49
0.0
 74
     0
  0
LTYPE
  5
4B
330
5
100
AcDbSymbolTableRecord
100
AcDbLinetypeTableRecord
  2
Amzigzag
 70
     0
  3
/\/-/\/-/\/-/\/-/\/-/\/
 72
    65
 73
     2
 40
11.00009999999999
 49
0.0001
 74
     4
 75
   135
340
4A
 46
0.04
 50
0.0
 44
0.0
 45
0.0
 49
-11.0
 74
     0
  0
LTYPE
  5
59
330
5
100
AcDbSymbolTableRecord
100
AcDbLinetypeTableRecord
  2
AM_DIN_F_W050
 70
     0
  3
__ __ __ __ __ __ __ __ __ __ __ __ __ __ __
 72
    65
 73
     2
 40
6.25
 49
4.75
 74
     0
 49
-1.5
 74
     0
  0
LTYPE
  5
5A
330
5
100
AcDbSymbolTableRecord
100
AcDbLinetypeTableRecord
  2
AM_DIN_G_W050
 70
     0
  3
____ . ____ . ____ . ____ . ____ . ____ . ____
 72
    65
 73
     4
 40
13.75
 49
9.75
 74
     0
 49
-1.5
 74
     0
 49
1.0
 74
     0
 49
-1.5
 74
     0
  0
LTYPE
  5
5B
330
5
100
AcDbSymbolTableRecord
100
AcDbLinetypeTableRecord
  2
AM_DIN_K_W050
 70
     0
  3
_____ . . _____ . . _____ . . ____ .. ____
 72
    65
 73
     6
 40
16.25
 49
9.75
 74
     0
 49
-1.5
 74
     0
 49
1.0
 74
     0
 49
-1.5
 74
     0
 49
1.0
 74
     0
 49
-1.5
 74
     0
  0
LTYPE
  5
5C
330
5
100
AcDbSymbolTableRecord
100
AcDbLinetypeTableRecord
  2
AM_DIN_F_W050x2
 70
     0
  3
 _ _ _ _ _ _ _ _ _ _ _ _
 72
    65
 73
     2
 40
3.125
 49
2.25
 74
     0
 49
-0.875
 74
     0
  0
LTYPE
  5
5D
330
5
100
AcDbSymbolTableRecord
100
AcDbLinetypeTableRecord
  2
AM_DIN_G_W050x2
 70
     0
  3
__ . __ . __ . __ . __ . __
 72
    65
 73
     4
 40
6.875
 49
4.75
 74
     0
 49
-0.875
 74
     0
 49
0.375
 74
     0
 49
-0.875
 74
     0
  0
LTYPE
  5
5991
330
5
100
AcDbSymbolTableRecord
100
AcDbLinetypeTableRecord
  2
HIDDEN
 70
     0
  3
Verdeckt
 72
    65
 73
     2
 40
9.525
 49
6.349999999999999
 74
     0
 49
-3.174999999999999
 74
     0
  0
LTYPE
  5
5992
330
5
100
AcDbSymbolTableRecord
100
AcDbLinetypeTableRecord
  2
PHANTOM2
 70
     0
  3
Phantom (.5x) ___ _ _ ___ _ _ ___ _ _ ___ _ _
 72
    65
 73
     6
 40
31.75
 49
15.875
 74
     0
 49
-3.174999999999999
 74
     0
 49
3.174999999999999
 74
     0
 49
-3.174999999999999
 74
     0
 49
3.174999999999999
 74
     0
 49
-3.174999999999999
 74
     0
  0
LTYPE
  5
5993
330
5
100
AcDbSymbolTableRecord
100
AcDbLinetypeTableRecord
  2
CENTER
 70
     0
  3
Mitte ____ _ ____ _ ____ _ ____ _ ____ _ ____
 72
    65
 73
     4
 40
50.8
 49
31.75
 74
     0
 49
-6.349999999999999
 74
     0
 49
6.349999999999999
 74
     0
 49
-6.349999999999999
 74
     0
  0
LTYPE
  5
5CAE
330
5
100
AcDbSymbolTableRecord
100
AcDbLinetypeTableRecord
  2
ACDINWELD
 70
     0
  3
_ _ _ _ _
 72
    65
 73
     2
 40
2.0
 49
2.0
 74
     0
 49
-1.0
 74
     0
  0
LTYPE
  5
5CAF
330
5
100
AcDbSymbolTableRecord
100
AcDbLinetypeTableRecord
  2
ACDINTGB
 70
     0
  3
__ . . __ . .
 72
    65
 73
     6
 40
9.0
 49
4.0
 74
     0
 49
-1.0
 74
     0
 49
1.0
 74
     0
 49
-1.0
 74
     0
 49
1.0
 74
     0
 49
-1.0
 74
     0
  0
LTYPE
  5
5CB0
330
5
100
AcDbSymbolTableRecord
100
AcDbLinetypeTableRecord
  2
ACDINTGL
 70
     0
  3
_ _ _ _ _
 72
    65
 73
     2
 40
3.0
 49
2.0
 74
     0
 49
-1.0
 74
     0
  0
ENDTAB
  0
TABLE
  2
LAYER
  5
2
330
0
100
AcDbSymbolTable
 70
    10
  0
LAYER
  5
10
330
2
100
AcDbSymbolTableRecord
100
AcDbLayerTableRecord
  2
0
 70
     0
 62
     7
  6
Continuous
370
    -3
390
F
  0
LAYER
  5
C70E
330
2
100
AcDbSymbolTableRecord
100
AcDbLayerTableRecord
  2
2D_Profile
 70
     0
 62
     5
  6
Continuous
370
    -3
390
F
  0
LAYER
  5
C70F
330
2
100
AcDbSymbolTableRecord
100
AcDbLayerTableRecord
  2
Center of gravity_Schwerpunkt
 70
     0
 62
     7
  6
AM_DIN_G_W050x2
370
    -3
390
F
  0
LAYER
  5
C7A8
330
2
100
AcDbSymbolTableRecord
100
AcDbLayerTableRecord
  2
DIMENSION2_BEMAßUNG2
 70
     0
 62
     1
  6
Continuous
370
    -3
390
F
  0
LAYER
  5
C7A9
330
2
100
AcDbSymbolTableRecord
100
AcDbLayerTableRecord
  2
Defpoints
 70
     0
 62
     6
  6
Continuous
290
     0
370
    -3
390
F
  0
LAYER
  5
C7AA
330
2
100
AcDbSymbolTableRecord
100
AcDbLayerTableRecord
  2
DIMENSION1_BEMAßUNG1
 70
     0
 62
     1
  6
Continuous
370
    -3
390
F
  0
ENDTAB
  0
TABLE
  2
STYLE
  5
3
330
0
100
AcDbSymbolTable
 70
     5
  0
STYLE
  5
11
330
3
100
AcDbSymbolTableRecord
100
AcDbTextStyleTableRecord
  2
STANDARD
 70
     0
 40
0.0
 41
1.0
 50
0.0
 71
     0
 42
2.5
  3
ISOCP.SHX
  4

  0
STYLE
  5
4A
330
3
100
AcDbSymbolTableRecord
100
AcDbTextStyleTableRecord
  2

 70
     1
 40
0.0
 41
1.0
 50
0.0
 71
     0
 42
2.5
  3
ltypeshp.shx
  4

  0
STYLE
  5
5CA5
330
3
100
AcDbSymbolTableRecord
100
AcDbTextStyleTableRecord
  2
ACDINTS
 70
     0
 40
1.0
 41
1.0
 50
0.0
 71
     0
 42
2.5
  3
isocp.shx
  4

  0
STYLE
  5
5CAD
330
3
100
AcDbSymbolTableRecord
100
AcDbTextStyleTableRecord
  2
ACDINGDT
 70
     0
 40
0.0
 41
1.0
 50
0.0
 71
     0
 42
2.5
  3
amgdt.shx
  4

  0
ENDTAB
  0
TABLE
  2
VIEW
  5
6
330
0
100
AcDbSymbolTable
 70
     6
  0
VIEW
  5
49D2
330
6
100
AcDbSymbolTableRecord
100
AcDbViewTableRecord
  2
AM_VIEW1
 70
     1
 40
442.4679870605468
 10
359.3625151589897
 20
631.7019805908203
 41
720.4384092242295
 11
0.0
 21
0.0
 31
1.0
 12
0.0
 22
0.0
 32
0.0
 42
50.0
 43
0.0
 44
0.0
 50
0.0
 71
     0
281
     0
 72
     0
  0
VIEW
  5
49D3
330
6
100
AcDbSymbolTableRecord
100
AcDbViewTableRecord
  2
AM_VIEW2
 70
     1
 40
442.4679870605468
 10
862.7807953878853
 20
631.7019805908203
 41
720.4384092242295
 11
0.0
 21
0.0
 31
1.0
 12
0.0
 22
0.0
 32
0.0
 42
50.0
 43
0.0
 44
0.0
 50
0.0
 71
     0
281
     0
 72
     0
  0
VIEW
  5
49D4
330
6
100
AcDbSymbolTableRecord
100
AcDbViewTableRecord
  2
AM_VIEW3
 70
     1
 40
442.4679870605468
 10
359.3625151589897
 20
189.2339935302734
 41
720.4384092242295
 11
0.0
 21
0.0
 31
1.0
 12
0.0
 22
0.0
 32
0.0
 42
50.0
 43
0.0
 44
0.0
 50
0.0
 71
     0
281
     0
 72
     0
  0
VIEW
  5
49D5
330
6
100
AcDbSymbolTableRecord
100
AcDbViewTableRecord
  2
AM_VIEW4
 70
     1
 40
442.4679870605468
 10
862.7807953878853
 20
189.2339935302734
 41
720.4384092242295
 11
0.0
 21
0.0
 31
1.0
 12
0.0
 22
0.0
 32
0.0
 42
50.0
 43
0.0
 44
0.0
 50
0.0
 71
     0
281
     0
 72
     0
  0
VIEW
  5
49D6
330
6
100
AcDbSymbolTableRecord
100
AcDbViewTableRecord
  2
AM_VIEW5
 70
     1
 40
442.4679870605468
 10
611.0716552734374
 20
410.4679870605468
 41
720.4384092242293
 11
0.0
 21
0.0
 31
1.0
 12
0.0
 22
0.0
 32
0.0
 42
50.0
 43
0.0
 44
0.0
 50
0.0
 71
     0
281
     0
 72
     0
  0
VIEW
  5
49D7
330
6
100
AcDbSymbolTableRecord
100
AcDbViewTableRecord
  2
AM_VIEW6
 70
     1
 40
884.9271247613526
 10
611.0716552734374
 20
410.4679870605468
 41
1440.862409680274
 11
0.0
 21
0.0
 31
1.0
 12
0.0
 22
0.0
 32
0.0
 42
50.0
 43
0.0
 44
0.0
 50
0.0
 71
     0
281
     0
 72
     0
  0
ENDTAB
  0
TABLE
  2
UCS
  5
7
330
0
100
AcDbSymbolTable
 70
     0
  0
ENDTAB
  0
TABLE
  2
APPID
  5
9
330
0
100
AcDbSymbolTable
 70
    23
  0
APPID
  5
12
330
9
100
AcDbSymbolTableRecord
100
AcDbRegAppTableRecord
  2
ACAD
 70
     0
  0
APPID
  5
2C
330
9
100
AcDbSymbolTableRecord
100
AcDbRegAppTableRecord
  2
MCAD_NO_VIS
 70
     0
  0
APPID
  5
2D
330
9
100
AcDbSymbolTableRecord
100
AcDbRegAppTableRecord
  2
ACAD_TEMP_GRAPHIC
 70
     0
  0
APPID
  5
4988
330
9
100
AcDbSymbolTableRecord
100
AcDbRegAppTableRecord
  2
GENIUS_GENBLLY_14
 70
     0
  0
APPID
  5
57C9
330
9
100
AcDbSymbolTableRecord
100
AcDbRegAppTableRecord
  2
GENIUS_GENDIM_13
 70
     0
  0
APPID
  5
57CA
330
9
100
AcDbSymbolTableRecord
100
AcDbRegAppTableRecord
  2
GENIUS_GENDTOL_13
 70
     0
  0
APPID
  5
57CB
330
9
100
AcDbSymbolTableRecord
100
AcDbRegAppTableRecord
  2
GENIUS_GE3DTOL_13
 70
     0
  0
APPID
  5
57CC
330
9
100
AcDbSymbolTableRecord
100
AcDbRegAppTableRecord
  2
AD_DRAW
 70
     0
  0
APPID
  5
57CD
330
9
100
AcDbSymbolTableRecord
100
AcDbRegAppTableRecord
  2
ACATTRIBSERVICES
 70
     0
  0
APPID
  5
57CE
330
9
100
AcDbSymbolTableRecord
100
AcDbRegAppTableRecord
  2
ASURF_PCURVE_APPNAME
 70
     0
  0
APPID
  5
57CF
330
9
100
AcDbSymbolTableRecord
100
AcDbRegAppTableRecord
  2
DESIGNERASSEMBLIES
 70
     0
  0
APPID
  5
57D0
330
9
100
AcDbSymbolTableRecord
100
AcDbRegAppTableRecord
  2
ACADM_DIM_EDIT
 70
     0
  0
APPID
  5
582A
330
9
100
AcDbSymbolTableRecord
100
AcDbRegAppTableRecord
  2
GENIUS_GENODEF_13
 70
     0
  0
APPID
  5
582B
330
9
100
AcDbSymbolTableRecord
100
AcDbRegAppTableRecord
  2
GENIUS_GENOBJ-N-TIT_13
 70
     0
  0
APPID
  5
582C
330
9
100
AcDbSymbolTableRecord
100
AcDbRegAppTableRecord
  2
GENIUS_GENTITLE_13
 70
     0
  0
APPID
  5
582D
330
9
100
AcDbSymbolTableRecord
100
AcDbRegAppTableRecord
  2
GENIUS_GENOENT_13
 70
     0
  0
APPID
  5
582E
330
9
100
AcDbSymbolTableRecord
100
AcDbRegAppTableRecord
  2
GENIUS_GENOREF_13
 70
     0
  0
APPID
  5
582F
330
9
100
AcDbSymbolTableRecord
100
AcDbRegAppTableRecord
  2
GENIUS_GENOLIS_13
 70
     0
  0
APPID
  5
5830
330
9
100
AcDbSymbolTableRecord
100
AcDbRegAppTableRecord
  2
GENIUS_GENZVEED_13
 70
     0
  0
APPID
  5
5831
330
9
100
AcDbSymbolTableRecord
100
AcDbRegAppTableRecord
  2
GENIUS_GENSCREG_15
 70
     0
  0
APPID
  5
5832
330
9
100
AcDbSymbolTableRecord
100
AcDbRegAppTableRecord
  2
GENIUS_GENOBJ-N-SDF_13
 70
     0
  0
APPID
  5
6BA4
330
9
100
AcDbSymbolTableRecord
100
AcDbRegAppTableRecord
  2
GENIUS_GENTRA_14
 70
     0
  0
APPID
  5
C7A4
330
9
100
AcDbSymbolTableRecord
100
AcDbRegAppTableRecord
  2
RAK
 70
     0
  0
ENDTAB
  0
TABLE
  2
DIMSTYLE
  5
A
330
0
100
AcDbSymbolTable
 70
    15
100
AcDbDimStyleTable
 71
     3
340
60
340
5E
340
68
  0
DIMSTYLE
105
5E
102
{ACAD_REACTORS
330
C7B9
330
C7C6
330
C82F
330
C83C
330
C84B
330
C86C
330
C879
330
C886
330
C8A8
330
C8D0
102
}
330
A
100
AcDbSymbolTableRecord
100
AcDbDimStyleTableRecord
  2
AM_DIN
 70
     0
  4
"
 41
2.5
 42
1.0
 43
10.0
 44
1.0
 47
0.1
 48
0.1
 73
     0
 74
     0
 77
     1
 78
     8
 79
     2
140
3.5
141
0.0
143
0.0393701
146
0.71
147
1.5
172
     1
176
   256
177
   256
178
     1
271
     2
272
     2
283
     0
340
11
371
    -1
372
    -1
  0
DIMSTYLE
105
5F
330
A
100
AcDbSymbolTableRecord
100
AcDbDimStyleTableRecord
  2
AM_DIN$3
 70
     0
  4
"
 41
2.5
 42
1.0
 43
10.0
 44
1.0
 47
0.1
 48
0.1
 73
     0
 77
     1
 78
     8
 79
     2
140
3.5
141
0.0
143
0.0393701
146
0.71
147
1.5
176
   256
177
   256
178
     1
271
     2
272
     2
283
     0
288
     1
289
     0
340
11
371
    -1
372
    -1
  0
DIMSTYLE
105
60
102
{ACAD_REACTORS
330
C858
330
C862
330
C894
330
C89E
330
C8B7
330
C8E7
102
}
330
A
100
AcDbSymbolTableRecord
100
AcDbDimStyleTableRecord
  2
AM_DIN$4
 70
     0
  4
"
 41
2.5
 42
1.0
 43
10.0
 44
1.0
 47
0.1
 48
0.1
 73
     0
 77
     1
 78
     8
 79
     2
140
3.5
141
0.0
143
0.0393701
146
0.71
147
1.5
176
   256
177
   256
178
     1
271
     2
272
     2
283
     0
288
     1
289
     0
340
11
371
    -1
372
    -1
  0
DIMSTYLE
105
61
330
A
100
AcDbSymbolTableRecord
100
AcDbDimStyleTableRecord
  2
AM_DIN$6
 70
     0
  4
"
 41
2.5
 42
1.0
 43
10.0
 44
1.0
 47
0.1
 48
0.1
 73
     0
 74
     0
 78
     8
 79
     2
140
3.5
141
0.0
143
0.0393701
146
0.71
147
1.5
172
     1
176
   256
177
   256
178
     1
271
     2
272
     2
283
     0
340
11
371
    -1
372
    -1
  0
DIMSTYLE
105
62
330
A
100
AcDbSymbolTableRecord
100
AcDbDimStyleTableRecord
  2
AM_DIN$7
 70
     0
  4
"
 41
2.5
 42
1.0
 43
10.0
 44
1.0
 47
0.1
 48
0.1
 73
     0
 74
     0
 77
     1
 78
     8
 79
     2
140
5.0
141
0.0
143
0.0393701
146
0.71
147
1.5
172
     1
176
   256
177
   256
178
     1
271
     2
272
     2
283
     0
340
11
371
    -1
372
    -1
  0
DIMSTYLE
105
63
330
A
100
AcDbSymbolTableRecord
100
AcDbDimStyleTableRecord
  2
AM_DIN$SF
 70
     0
  4
"
 41
2.5
 42
1.0
 43
10.0
 44
1.0
 47
0.1
 48
0.1
 73
     0
 74
     0
 75
     1
 76
     1
 77
     1
 78
     8
 79
     2
140
3.5
141
0.0
143
0.0393701
146
0.71
147
1.5
172
     1
176
   256
177
   256
178
     2
271
     2
272
     3
274
     4
283
     0
340
11
371
    -1
372
    -1
  0
DIMSTYLE
105
68
330
A
100
AcDbSymbolTableRecord
100
AcDbDimStyleTableRecord
  2
AM_DIN$SH
 70
     0
  4
"
 41
2.5
 42
1.0
 43
10.0
 44
1.0
 47
0.1
 48
0.1
 73
     0
 74
     0
 75
     1
 76
     1
 77
     1
 78
     8
 79
     2
140
3.5
141
0.0
143
0.0393701
144
2.0
146
0.71
147
1.5
172
     1
173
     1
176
   256
177
   256
178
     2
271
     2
272
     3
274
     4
283
     0
340
11
343
64
371
    -1
372
    -1
  0
ENDTAB
  0
TABLE
  2
BLOCK_RECORD
  5
1
330
0
100
AcDbSymbolTable
 70
    22
  0
BLOCK_RECORD
  5
1F
102
{ACAD_XDICTIONARY
360
74
102
}
330
1
100
AcDbSymbolTableRecord
100
AcDbBlockTableRecord
  2
*Model_Space
340
22
  0
BLOCK_RECORD
  5
23
330
1
100
AcDbSymbolTableRecord
100
AcDbBlockTableRecord
  2
*Paper_Space
340
26
  0
BLOCK_RECORD
  5
58C7
330
1
100
AcDbSymbolTableRecord
100
AcDbBlockTableRecord
  2
*Paper_Space0
340
58C8
  0
BLOCK_RECORD
  5
64
330
1
100
AcDbSymbolTableRecord
100
AcDbBlockTableRecord
  2
GENAXEH
340
0
  0
BLOCK_RECORD
  5
5845
330
1
100
AcDbSymbolTableRecord
100
AcDbBlockTableRecord
  2
*Paper_Space2
340
5846
  0
BLOCK_RECORD
  5
1B
330
1
100
AcDbSymbolTableRecord
100
AcDbBlockTableRecord
  2
*Paper_Space3
340
1E
  0
BLOCK_RECORD
  5
497F
330
1
100
AcDbSymbolTableRecord
100
AcDbBlockTableRecord
  2
*Paper_Space4
340
4980
  0
BLOCK_RECORD
  5
5A08
330
1
100
AcDbSymbolTableRecord
100
AcDbBlockTableRecord
  2
*U5
340
0
  0
BLOCK_RECORD
  5
C7BA
330
1
100
AcDbSymbolTableRecord
100
AcDbBlockTableRecord
  2
*D6
340
0
  0
BLOCK_RECORD
  5
C7C7
330
1
100
AcDbSymbolTableRecord
100
AcDbBlockTableRecord
  2
*D7
340
0
  0
BLOCK_RECORD
  5
C830
330
1
100
AcDbSymbolTableRecord
100
AcDbBlockTableRecord
  2
*D8
340
0
  0
BLOCK_RECORD
  5
C83D
330
1
100
AcDbSymbolTableRecord
100
AcDbBlockTableRecord
  2
*D9
340
0
  0
BLOCK_RECORD
  5
C84C
330
1
100
AcDbSymbolTableRecord
100
AcDbBlockTableRecord
  2
*D10
340
0
  0
BLOCK_RECORD
  5
C859
330
1
100
AcDbSymbolTableRecord
100
AcDbBlockTableRecord
  2
*D11
340
0
  0
BLOCK_RECORD
  5
C863
330
1
100
AcDbSymbolTableRecord
100
AcDbBlockTableRecord
  2
*D12
340
0
  0
BLOCK_RECORD
  5
C86D
330
1
100
AcDbSymbolTableRecord
100
AcDbBlockTableRecord
  2
*D13
340
0
  0
BLOCK_RECORD
  5
C87A
330
1
100
AcDbSymbolTableRecord
100
AcDbBlockTableRecord
  2
*D14
340
0
  0
BLOCK_RECORD
  5
C887
330
1
100
AcDbSymbolTableRecord
100
AcDbBlockTableRecord
  2
*D15
340
0
  0
BLOCK_RECORD
  5
C895
330
1
100
AcDbSymbolTableRecord
100
AcDbBlockTableRecord
  2
*D16
340
0
  0
BLOCK_RECORD
  5
C89F
330
1
100
AcDbSymbolTableRecord
100
AcDbBlockTableRecord
  2
*D17
340
0
  0
BLOCK_RECORD
  5
C8A9
330
1
100
AcDbSymbolTableRecord
100
AcDbBlockTableRecord
  2
*D18
340
0
  0
BLOCK_RECORD
  5
C8B8
330
1
100
AcDbSymbolTableRecord
100
AcDbBlockTableRecord
  2
*D19
340
0
  0
BLOCK_RECORD
  5
C8D1
330
1
100
AcDbSymbolTableRecord
100
AcDbBlockTableRecord
  2
*D20
340
0
  0
BLOCK_RECORD
  5
C8E8
330
1
100
AcDbSymbolTableRecord
100
AcDbBlockTableRecord
  2
*D21
340
0
  0
ENDTAB
  0
ENDSEC
  0
SECTION
  2
BLOCKS
  0
BLOCK
  5
20
330
1F
100
AcDbEntity
  8
0
100
AcDbBlockBegin
  2
*Model_Space
 70
     0
 10
0.0
 20
0.0
 30
0.0
  3
*Model_Space
  1

  0
ENDBLK
  5
21
330
1F
100
AcDbEntity
  8
0
100
AcDbBlockEnd
  0
BLOCK
  5
24
330
23
100
AcDbEntity
 67
     1
  8
0
100
AcDbBlockBegin
  2
*Paper_Space
 70
     0
 10
0.0
 20
0.0
 30
0.0
  3
*Paper_Space
  1

  0
ENDBLK
  5
25
330
23
100
AcDbEntity
 67
     1
  8
0
100
AcDbBlockEnd
  0
BLOCK
  5
58C9
330
58C7
100
AcDbEntity
  8
0
100
AcDbBlockBegin
  2
*Paper_Space0
 70
     0
 10
0.0
 20
0.0
 30
0.0
  3
*Paper_Space0
  1

  0
VIEWPORT
  5
58CE
330
58C7
100
AcDbEntity
  8
0
100
AcDbViewport
 10
591.324951171875
 20
417.3250000476837
 30
0.0
 40
1257.962
 41
957.5975508274231
 69
     0
 12
591.324951171875
 22
417.3250000476837
 13
0.0
 23
0.0
 14
2.5
 24
2.5
 15
10.0
 25
10.0
 16
0.0
 26
0.0
 36
1.0
 17
0.0
 27
0.0
 37
0.0
 42
50.0
 43
0.0
 44
0.0
 45
957.5975508274231
 50
0.0
 51
0.0
 72
  2000
 90
    32800
  1

281
     0
 71
     1
 74
     0
110
0.0
120
0.0
130
0.0
111
1.0
121
0.0
131
0.0
112
0.0
122
1.0
132
0.0
 79
     0
146
0.0
  0
ENDBLK
  5
58CA
330
58C7
100
AcDbEntity
  8
0
100
AcDbBlockEnd
  0
BLOCK
  5
66
330
64
100
AcDbEntity
  8
0
100
AcDbBlockBegin
  2
GENAXEH
 70
     0
 10
0.0
 20
0.0
 30
0.0
  3
GENAXEH
  1

  0
LINE
  5
65
330
64
100
AcDbEntity
  8
0
100
AcDbLine
 10
-1.0
 20
0.0
 30
0.0
 11
1.0
 21
0.0
 31
0.0
  0
ENDBLK
  5
67
330
64
100
AcDbEntity
  8
0
100
AcDbBlockEnd
  0
BLOCK
  5
5847
330
5845
100
AcDbEntity
  8
0
100
AcDbBlockBegin
  2
*Paper_Space2
 70
     0
 10
0.0
 20
0.0
 30
0.0
  3
*Paper_Space2
  1

  0
VIEWPORT
  5
584C
330
5845
100
AcDbEntity
  8
0
100
AcDbViewport
 10
415.4593176841736
 20
279.9926891326904
 30
0.0
 40
889.6820412597657
 41
677.2520503206727
 69
     0
 12
415.4593176841736
 22
279.9926891326904
 13
0.0
 23
0.0
 14
10.0
 24
10.0
 15
10.0
 25
10.0
 16
0.0
 26
0.0
 36
1.0
 17
0.0
 27
0.0
 37
0.0
 42
50.0
 43
0.0
 44
0.0
 45
677.2520503206727
 50
0.0
 51
0.0
 72
  2000
 90
    32800
  1

281
     0
 71
     1
 74
     0
110
0.0
120
0.0
130
0.0
111
1.0
121
0.0
131
0.0
112
0.0
122
1.0
132
0.0
 79
     0
146
0.0
  0
ENDBLK
  5
5848
330
5845
100
AcDbEntity
  8
0
100
AcDbBlockEnd
  0
BLOCK
  5
1C
330
1B
100
AcDbEntity
  8
0
100
AcDbBlockBegin
  2
*Paper_Space3
 70
     0
 10
0.0
 20
0.0
 30
0.0
  3
*Paper_Space3
  1

  0
VIEWPORT
  5
8B
330
1B
100
AcDbEntity
  8
0
100
AcDbViewport
 10
98.9435806274414
 20
141.7214193344116
 30
0.0
 40
412.7435445818219
 41
314.1924854736328
 69
     0
 12
98.9435806274414
 22
141.7214193344116
 13
0.0
 23
0.0
 14
10.0
 24
10.0
 15
10.0
 25
10.0
 16
0.0
 26
0.0
 36
1.0
 17
0.0
 27
0.0
 37
0.0
 42
50.0
 43
0.0
 44
0.0
 45
314.1924854736328
 50
0.0
 51
0.0
 72
  2000
 90
    32800
  1

281
     0
 71
     1
 74
     0
110
0.0
120
0.0
130
0.0
111
1.0
121
0.0
131
0.0
112
0.0
122
1.0
132
0.0
 79
     0
146
0.0
  0
ENDBLK
  5
1D
330
1B
100
AcDbEntity
  8
0
100
AcDbBlockEnd
  0
BLOCK
  5
4981
330
497F
100
AcDbEntity
  8
0
100
AcDbBlockBegin
  2
*Paper_Space4
 70
     0
 10
0.0
 20
0.0
 30
0.0
  3
*Paper_Space4
  1

  0
VIEWPORT
  5
4986
330
497F
100
AcDbEntity
  8
0
100
AcDbViewport
 10
291.9729895591735
 20
192.9976634979247
 30
0.0
 40
628.3849709472656
 41
478.3450606265237
 69
     0
 12
291.9729895591735
 22
192.9976634979247
 13
0.0
 23
0.0
 14
2.5
 24
2.5
 15
10.0
 25
10.0
 16
0.0
 26
0.0
 36
1.0
 17
0.0
 27
0.0
 37
0.0
 42
50.0
 43
0.0
 44
0.0
 45
478.3450606265237
 50
0.0
 51
0.0
 72
  2000
 90
    32800
  1

281
     0
 71
     1
 74
     0
110
0.0
120
0.0
130
0.0
111
1.0
121
0.0
131
0.0
112
0.0
122
1.0
132
0.0
 79
     0
146
0.0
  0
ENDBLK
  5
4982
330
497F
100
AcDbEntity
  8
0
100
AcDbBlockEnd
  0
BLOCK
  5
5A09
330
5A08
100
AcDbEntity
  8
0
100
AcDbBlockBegin
  2
*U5
 70
     1
 10
0.0
 20
0.0
 30
0.0
  3
*U5
  1

  0
ENDBLK
  5
5A0A
330
5A08
100
AcDbEntity
  8
0
100
AcDbBlockEnd
  0
BLOCK
  5
C7C4
330
C7BA
100
AcDbEntity
  8
0
100
AcDbBlockBegin
  2
*D6
 70
     1
 10
0.0
 20
0.0
 30
0.0
  3
*D6
  1

  0
LINE
  5
C81C
330
C7BA
100
AcDbEntity
  8
DIMENSION1_BEMAßUNG1
100
AcDbLine
 10
-49.66436812523102
 20
17.34744430522906
 30
0.0
 11
-49.66436812523102
 21
56.28268194790519
 31
0.0
  0
LINE
  5
C81D
330
C7BA
100
AcDbEntity
  8
DIMENSION1_BEMAßUNG1
100
AcDbLine
 10
29.39487884836896
 20
-18.27450891417092
 30
0.0
 11
29.39487884836896
 21
56.28268194790519
 31
0.0
  0
LINE
  5
C81E
330
C7BA
100
AcDbEntity
  8
DIMENSION1_BEMAßUNG1
100
AcDbLine
 10
-47.16436812523101
 20
55.28268194790519
 30
0.0
 11
26.89487884836896
 21
55.28268194790519
 31
0.0
  0
SOLID
  5
C81F
330
C7BA
100
AcDbEntity
  8
DIMENSION1_BEMAßUNG1
100
AcDbTrace
 10
-47.16436812523101
 20
55.69934861457185
 30
0.0
 11
-47.16436812523101
 21
54.86601528123852
 31
0.0
 12
-49.66436812523102
 22
55.28268194790519
 32
0.0
 13
-49.66436812523102
 23
55.28268194790519
 33
0.0
  0
SOLID
  5
C820
330
C7BA
100
AcDbEntity
  8
DIMENSION1_BEMAßUNG1
100
AcDbTrace
 10
26.89487884836896
 20
55.69934861457185
 30
0.0
 11
26.89487884836896
 21
54.86601528123852
 31
0.0
 12
29.39487884836896
 22
55.28268194790519
 32
0.0
 13
29.39487884836896
 23
55.28268194790519
 33
0.0
  0
MTEXT
  5
C821
330
C7BA
100
AcDbEntity
  8
DIMENSION1_BEMAßUNG1
 62
     1
100
AcDbMText
 10
-10.13474463843102
 20
58.53268194790519
 30
0.0
 40
3.5
 41
0.0
 71
     5
 72
     1
  1
79.06
 73
     1
 44
1.0
  0
POINT
  5
C822
330
C7BA
100
AcDbEntity
  8
Defpoints
 62
     0
100
AcDbPoint
 10
-49.66436812523102
 20
16.34744430522906
 30
0.0
  0
POINT
  5
C823
330
C7BA
100
AcDbEntity
  8
Defpoints
 62
     0
100
AcDbPoint
 10
29.39487884836896
 20
-19.27450891417092
 30
0.0
  0
POINT
  5
C824
330
C7BA
100
AcDbEntity
  8
Defpoints
 62
     0
100
AcDbPoint
 10
29.39487884836896
 20
55.28268194790519
 30
0.0
  0
ENDBLK
  5
C7C5
330
C7BA
100
AcDbEntity
  8
0
100
AcDbBlockEnd
  0
BLOCK
  5
C7D1
330
C7C7
100
AcDbEntity
  8
0
100
AcDbBlockBegin
  2
*D7
 70
     1
 10
0.0
 20
0.0
 30
0.0
  3
*D7
  1

  0
LINE
  5
C8F1
330
C7C7
100
AcDbEntity
  8
DIMENSION1_BEMAßUNG1
100
AcDbLine
 10
-10.16436812523102
 20
20.34744430522906
 30
0.0
 11
56.04432324204289
 21
20.34744430522903
 31
0.0
  0
LINE
  5
C8F2
330
C7C7
100
AcDbEntity
  8
DIMENSION1_BEMAßUNG1
100
AcDbLine
 10
26.83379542583844
 20
-22.77397584721829
 30
0.0
 11
56.04432324204288
 21
-22.7739758472183
 31
0.0
  0
LINE
  5
C8F3
330
C7C7
100
AcDbEntity
  8
DIMENSION1_BEMAßUNG1
100
AcDbLine
 10
55.04432324204289
 20
17.84744430522904
 30
0.0
 11
55.04432324204287
 21
-20.2739758472183
 31
0.0
  0
SOLID
  5
C8F4
330
C7C7
100
AcDbEntity
  8
DIMENSION1_BEMAßUNG1
100
AcDbTrace
 10
54.62765657537623
 20
17.84744430522904
 30
0.0
 11
55.46098990870955
 21
17.84744430522904
 31
0.0
 12
55.04432324204289
 22
20.34744430522904
 32
0.0
 13
55.04432324204289
 23
20.34744430522904
 33
0.0
  0
SOLID
  5
C8F5
330
C7C7
100
AcDbEntity
  8
DIMENSION1_BEMAßUNG1
100
AcDbTrace
 10
54.62765657537621
 20
-20.2739758472183
 30
0.0
 11
55.46098990870954
 21
-20.2739758472183
 31
0.0
 12
55.04432324204287
 22
-22.7739758472183
 32
0.0
 13
55.04432324204287
 23
-22.7739758472183
 33
0.0
  0
MTEXT
  5
C8F6
330
C7C7
100
AcDbEntity
  8
DIMENSION1_BEMAßUNG1
 62
     1
100
AcDbMText
 10
51.53147875385391
 20
-1.21326577099462
 30
0.0
 40
3.5
 41
0.0
 71
     5
 72
     1
  1
43,2
 11
0.0000000000000001
 21
1.0
 31
0.0
 73
     1
 44
1.0
  0
POINT
  5
C8F7
330
C7C7
100
AcDbEntity
  8
Defpoints
 62
     0
100
AcDbPoint
 10
-11.16436812523102
 20
20.34744430522906
 30
0.0
  0
POINT
  5
C8F8
330
C7C7
100
AcDbEntity
  8
Defpoints
 62
     0
100
AcDbPoint
 10
25.83379542583844
 20
-22.77397584721829
 30
0.0
  0
POINT
  5
C8F9
330
C7C7
100
AcDbEntity
  8
Defpoints
 62
     0
100
AcDbPoint
 10
55.04432324204287
 20
-22.7739758472183
 30
0.0
  0
ENDBLK
  5
C7D2
330
C7C7
100
AcDbEntity
  8
0
100
AcDbBlockEnd
  0
BLOCK
  5
C83A
330
C830
100
AcDbEntity
  8
0
100
AcDbBlockBegin
  2
*D8
 70
     1
 10
0.0
 20
0.0
 30
0.0
  3
*D8
  1

  0
LINE
  5
C831
330
C830
100
AcDbEntity
  8
DIMENSION2_BEMAßUNG2
100
AcDbLine
 10
-32.16436812523102
 20
15.84744430522906
 30
0.0
 11
-32.49606036784132
 21
15.84744430522906
 31
0.0
  0
LINE
  5
C832
330
C830
100
AcDbEntity
  8
DIMENSION2_BEMAßUNG2
100
AcDbLine
 10
-11.16436812523103
 20
-14.15255569477094
 30
0.0
 11
-32.49606036784132
 21
-14.15255569477093
 31
0.0
  0
LINE
  5
C833
330
C830
100
AcDbEntity
  8
DIMENSION2_BEMAßUNG2
100
AcDbLine
 10
-31.49606036784132
 20
13.34744430522906
 30
0.0
 11
-31.49606036784132
 21
-11.65255569477093
 31
0.0
  0
SOLID
  5
C834
330
C830
100
AcDbEntity
  8
DIMENSION2_BEMAßUNG2
100
AcDbTrace
 10
-31.91272703450799
 20
13.34744430522906
 30
0.0
 11
-31.07939370117465
 21
13.34744430522906
 31
0.0
 12
-31.49606036784132
 22
15.84744430522906
 32
0.0
 13
-31.49606036784132
 23
15.84744430522906
 33
0.0
  0
SOLID
  5
C835
330
C830
100
AcDbEntity
  8
DIMENSION2_BEMAßUNG2
100
AcDbTrace
 10
-31.91272703450799
 20
-11.65255569477093
 30
0.0
 11
-31.07939370117466
 21
-11.65255569477093
 31
0.0
 12
-31.49606036784132
 22
-14.15255569477093
 32
0.0
 13
-31.49606036784132
 23
-14.15255569477093
 33
0.0
  0
MTEXT
  5
C836
330
C830
100
AcDbEntity
  8
DIMENSION2_BEMAßUNG2
 62
     1
100
AcDbMText
 10
-34.74606036784132
 20
0.8474443052290597
 30
0.0
 40
3.5
 41
0.0
 71
     5
 72
     1
  1
30
 11
0.0000000000000001
 21
1.0
 31
0.0
 73
     1
 44
1.0
  0
POINT
  5
C837
330
C830
100
AcDbEntity
  8
Defpoints
 62
     0
100
AcDbPoint
 10
-31.16436812523102
 20
15.84744430522906
 30
0.0
  0
POINT
  5
C838
330
C830
100
AcDbEntity
  8
Defpoints
 62
     0
100
AcDbPoint
 10
-10.16436812523102
 20
-14.15255569477094
 30
0.0
  0
POINT
  5
C839
330
C830
100
AcDbEntity
  8
Defpoints
 62
     0
100
AcDbPoint
 10
-31.49606036784132
 20
-14.15255569477093
 30
0.0
  0
ENDBLK
  5
C83B
330
C830
100
AcDbEntity
  8
0
100
AcDbBlockEnd
  0
BLOCK
  5
C849
330
C83D
100
AcDbEntity
  8
0
100
AcDbBlockBegin
  2
*D9
 70
     1
 10
0.0
 20
0.0
 30
0.0
  3
*D9
  1

  0
LINE
  5
C83E
330
C83D
100
AcDbEntity
  8
DIMENSION2_BEMAßUNG2
100
AcDbLine
 10
-7.664368125231021
 20
8.347444305229061
 30
0.0
 11
-25.26660591871063
 21
8.347444305229066
 31
0.0
  0
LINE
  5
C83F
330
C83D
100
AcDbEntity
  8
DIMENSION2_BEMAßUNG2
100
AcDbLine
 10
-7.664368125231021
 20
3.347444305229061
 30
0.0
 11
-25.26660591871064
 21
3.347444305229066
 31
0.0
  0
LINE
  5
C840
330
C83D
100
AcDbEntity
  8
DIMENSION2_BEMAßUNG2
100
AcDbLine
 10
-24.26660591871064
 20
10.84744430522906
 30
0.0
 11
-24.26660591871064
 21
13.34744430522906
 31
0.0
  0
LINE
  5
C841
330
C83D
100
AcDbEntity
  8
DIMENSION2_BEMAßUNG2
100
AcDbLine
 10
-24.26660591871064
 20
0.8474443052290659
 30
0.0
 11
-24.26660591871064
 21
-1.652555694770934
 31
0.0
  0
LINE
  5
C842
330
C83D
100
AcDbEntity
  8
DIMENSION2_BEMAßUNG2
100
AcDbLine
 10
-24.26660591871064
 20
8.347444305229066
 30
0.0
 11
-24.26660591871064
 21
3.347444305229065
 31
0.0
  0
SOLID
  5
C843
330
C83D
100
AcDbEntity
  8
DIMENSION2_BEMAßUNG2
100
AcDbTrace
 10
-24.6832725853773
 20
10.84744430522906
 30
0.0
 11
-23.84993925204397
 21
10.84744430522906
 31
0.0
 12
-24.26660591871064
 22
8.347444305229066
 32
0.0
 13
-24.26660591871064
 23
8.347444305229066
 33
0.0
  0
SOLID
  5
C844
330
C83D
100
AcDbEntity
  8
DIMENSION2_BEMAßUNG2
100
AcDbTrace
 10
-24.68327258537731
 20
0.8474443052290659
 30
0.0
 11
-23.84993925204397
 21
0.8474443052290659
 31
0.0
 12
-24.26660591871064
 22
3.347444305229065
 32
0.0
 13
-24.26660591871064
 23
3.347444305229065
 33
0.0
  0
MTEXT
  5
C845
330
C83D
100
AcDbEntity
  8
DIMENSION2_BEMAßUNG2
 62
     1
100
AcDbMText
 10
-27.51660591871064
 20
5.847444305229062
 30
0.0
 40
3.5
 41
0.0
 71
     5
 72
     1
  1
5
 11
0.0000000000000001
 21
1.0
 31
0.0
 73
     1
 44
1.0
  0
POINT
  5
C846
330
C83D
100
AcDbEntity
  8
Defpoints
 62
     0
100
AcDbPoint
 10
-6.664368125231021
 20
8.347444305229061
 30
0.0
  0
POINT
  5
C847
330
C83D
100
AcDbEntity
  8
Defpoints
 62
     0
100
AcDbPoint
 10
-6.664368125231021
 20
3.347444305229061
 30
0.0
  0
POINT
  5
C848
330
C83D
100
AcDbEntity
  8
Defpoints
 62
     0
100
AcDbPoint
 10
-24.26660591871064
 20
3.347444305229065
 30
0.0
  0
ENDBLK
  5
C84A
330
C83D
100
AcDbEntity
  8
0
100
AcDbBlockEnd
  0
BLOCK
  5
C856
330
C84C
100
AcDbEntity
  8
0
100
AcDbBlockBegin
  2
*D10
 70
     1
 10
0.0
 20
0.0
 30
0.0
  3
*D10
  1

  0
LINE
  5
C84D
330
C84C
100
AcDbEntity
  8
DIMENSION2_BEMAßUNG2
100
AcDbLine
 10
-2.523615098831015
 20
-20.27450891417092
 30
0.0
 11
-2.523615098831017
 21
-38.72198580206384
 31
0.0
  0
LINE
  5
C84E
330
C84C
100
AcDbEntity
  8
DIMENSION2_BEMAßUNG2
100
AcDbLine
 10
29.39487884836896
 20
-20.27450891417092
 30
0.0
 11
29.39487884836896
 21
-38.72198580206384
 31
0.0
  0
LINE
  5
C84F
330
C84C
100
AcDbEntity
  8
DIMENSION2_BEMAßUNG2
100
AcDbLine
 10
-0.0236150988310171
 20
-37.72198580206384
 30
0.0
 11
26.89487884836896
 21
-37.72198580206384
 31
0.0
  0
SOLID
  5
C850
330
C84C
100
AcDbEntity
  8
DIMENSION2_BEMAßUNG2
100
AcDbTrace
 10
-0.0236150988310171
 20
-37.30531913539717
 30
0.0
 11
-0.0236150988310171
 21
-38.1386524687305
 31
0.0
 12
-2.523615098831017
 22
-37.72198580206384
 32
0.0
 13
-2.523615098831017
 23
-37.72198580206384
 33
0.0
  0
SOLID
  5
C851
330
C84C
100
AcDbEntity
  8
DIMENSION2_BEMAßUNG2
100
AcDbTrace
 10
26.89487884836896
 20
-37.30531913539717
 30
0.0
 11
26.89487884836896
 21
-38.1386524687305
 31
0.0
 12
29.39487884836896
 22
-37.72198580206384
 32
0.0
 13
29.39487884836896
 23
-37.72198580206384
 33
0.0
  0
MTEXT
  5
C852
330
C84C
100
AcDbEntity
  8
DIMENSION2_BEMAßUNG2
 62
     1
100
AcDbMText
 10
13.43563187476897
 20
-34.4707954355904
 30
0.0
 40
3.5
 41
0.0
 71
     5
 72
     1
  1
31.92
 73
     1
 44
1.0
  0
POINT
  5
C853
330
C84C
100
AcDbEntity
  8
Defpoints
 62
     0
100
AcDbPoint
 10
-2.523615098831015
 20
-19.27450891417092
 30
0.0
  0
POINT
  5
C854
330
C84C
100
AcDbEntity
  8
Defpoints
 62
     0
100
AcDbPoint
 10
29.39487884836896
 20
-19.27450891417092
 30
0.0
  0
POINT
  5
C855
330
C84C
100
AcDbEntity
  8
Defpoints
 62
     0
100
AcDbPoint
 10
29.39487884836896
 20
-37.72198580206384
 30
0.0
  0
ENDBLK
  5
C857
330
C84C
100
AcDbEntity
  8
0
100
AcDbBlockEnd
  0
BLOCK
  5
C860
330
C859
100
AcDbEntity
  8
0
100
AcDbBlockBegin
  2
*D11
 70
     1
 10
0.0
 20
0.0
 30
0.0
  3
*D11
  1

  0
LINE
  5
C85A
330
C859
100
AcDbEntity
  8
DIMENSION2_BEMAßUNG2
100
AcDbLine
 10
-3.075698389993249
 20
-23.69950846236118
 30
0.0
 11
-15.71547087044288
 21
-37.50252866118195
 31
0.0
  0
LINE
  5
C85B
330
C859
100
AcDbEntity
  8
DIMENSION2_BEMAßUNG2
100
AcDbLine
 10
-15.71547087044288
 20
-37.50252866118195
 30
0.0
 11
-25.06044561727346
 21
-37.50252866118195
 31
0.0
  0
SOLID
  5
C85C
330
C859
100
AcDbEntity
  8
DIMENSION2_BEMAßUNG2
100
AcDbTrace
 10
-3.382990025284238
 20
-23.4181137893638
 30
0.0
 11
-2.768406754702263
 21
-23.98090313535856
 31
0.0
 12
-1.387330352008977
 22
-21.85575865061525
 32
0.0
 13
-1.387330352008977
 23
-21.85575865061525
 33
0.0
  0
MTEXT
  5
C85D
330
C859
100
AcDbEntity
  8
DIMENSION2_BEMAßUNG2
 62
     1
100
AcDbMText
 10
-21.13795824385818
 20
-34.25252866118194
 30
0.0
 40
3.5
 41
0.0
 71
     5
 72
     1
  1
R3.5
 73
     1
 44
1.0
  0
POINT
  5
C85E
330
C859
100
AcDbEntity
  8
Defpoints
 62
     0
100
AcDbPoint
 10
-1.387330352008977
 20
-21.85575865061525
 30
0.0
  0
POINT
  5
C85F
330
C859
100
AcDbEntity
  8
Defpoints
 62
     0
100
AcDbPoint
 10
0.9763849011689895
 20
-19.27450891417097
 30
0.0
  0
ENDBLK
  5
C861
330
C859
100
AcDbEntity
  8
0
100
AcDbBlockEnd
  0
BLOCK
  5
C86A
330
C863
100
AcDbEntity
  8
0
100
AcDbBlockBegin
  2
*D12
 70
     1
 10
0.0
 20
0.0
 30
0.0
  3
*D12
  1

  0
LINE
  5
C864
330
C863
100
AcDbEntity
  8
DIMENSION2_BEMAßUNG2
100
AcDbLine
 10
-12.90641811272926
 20
-15.720631067582
 30
0.0
 11
-19.1892885759656
 21
-23.89617690833779
 31
0.0
  0
LINE
  5
C865
330
C863
100
AcDbEntity
  8
DIMENSION2_BEMAßUNG2
100
AcDbLine
 10
-19.1892885759656
 20
-23.89617690833779
 30
0.0
 11
-25.09949526887899
 21
-23.89617690833779
 31
0.0
  0
SOLID
  5
C866
330
C863
100
AcDbEntity
  8
DIMENSION2_BEMAßUNG2
100
AcDbTrace
 10
-13.23679546206362
 20
-15.46673755022105
 30
0.0
 11
-12.5760407633949
 21
-15.97452458494295
 31
0.0
 12
-11.38305700856357
 22
-13.73836697157585
 32
0.0
 13
-11.38305700856357
 23
-13.73836697157585
 33
0.0
  0
MTEXT
  5
C867
330
C863
100
AcDbEntity
  8
DIMENSION2_BEMAßUNG2
 62
     1
100
AcDbMText
 10
-22.8943919224223
 20
-20.64583242014881
 30
0.0
 40
3.5
 41
0.0
 71
     5
 72
     1
  1
R2
 73
     1
 44
1.0
  0
POINT
  5
C868
330
C863
100
AcDbEntity
  8
Defpoints
 62
     0
100
AcDbPoint
 10
-11.38305700856357
 20
-13.73836697157585
 30
0.0
  0
POINT
  5
C869
330
C863
100
AcDbEntity
  8
Defpoints
 62
     0
100
AcDbPoint
 10
-10.16436812523102
 20
-12.15255569477094
 30
0.0
  0
ENDBLK
  5
C86B
330
C863
100
AcDbEntity
  8
0
100
AcDbBlockEnd
  0
BLOCK
  5
C877
330
C86D
100
AcDbEntity
  8
0
100
AcDbBlockBegin
  2
*D13
 70
     1
 10
0.0
 20
0.0
 30
0.0
  3
*D13
  1

  0
LINE
  5
C8C1
330
C86D
100
AcDbEntity
  8
DIMENSION2_BEMAßUNG2
100
AcDbLine
 10
9.335631874768978
 20
6.891658214129051
 30
0.0
 11
9.33563187476898
 21
35.16565717226797
 31
0.0
  0
LINE
  5
C8C2
330
C86D
100
AcDbEntity
  8
DIMENSION2_BEMAßUNG2
100
AcDbLine
 10
-7.664368125231021
 20
17.84744430522906
 30
0.0
 11
-7.66436812523102
 21
35.16565717226797
 31
0.0
  0
LINE
  5
C8C3
330
C86D
100
AcDbEntity
  8
DIMENSION2_BEMAßUNG2
100
AcDbLine
 10
6.83563187476898
 20
34.16565717226797
 30
0.0
 11
-5.16436812523102
 21
34.16565717226797
 31
0.0
  0
SOLID
  5
C8C4
330
C86D
100
AcDbEntity
  8
DIMENSION2_BEMAßUNG2
100
AcDbTrace
 10
6.83563187476898
 20
34.58232383893463
 30
0.0
 11
6.83563187476898
 21
33.7489905056013
 31
0.0
 12
9.33563187476898
 22
34.16565717226797
 32
0.0
 13
9.33563187476898
 23
34.16565717226797
 33
0.0
  0
SOLID
  5
C8C5
330
C86D
100
AcDbEntity
  8
DIMENSION2_BEMAßUNG2
100
AcDbTrace
 10
-5.16436812523102
 20
34.58232383893463
 30
0.0
 11
-5.16436812523102
 21
33.7489905056013
 31
0.0
 12
-7.66436812523102
 22
34.16565717226797
 32
0.0
 13
-7.66436812523102
 23
34.16565717226797
 33
0.0
  0
MTEXT
  5
C8C6
330
C86D
100
AcDbEntity
  8
DIMENSION2_BEMAßUNG2
 62
     1
100
AcDbMText
 10
0.8356318747689799
 20
37.41565717226797
 30
0.0
 40
3.5
 41
0.0
 71
     5
 72
     1
  1
17
 73
     1
 44
1.0
  0
POINT
  5
C8C7
330
C86D
100
AcDbEntity
  8
Defpoints
 62
     0
100
AcDbPoint
 10
9.335631874768978
 20
5.891658214129051
 30
0.0
  0
POINT
  5
C8C8
330
C86D
100
AcDbEntity
  8
Defpoints
 62
     0
100
AcDbPoint
 10
-7.664368125231021
 20
16.84744430522906
 30
0.0
  0
POINT
  5
C8C9
330
C86D
100
AcDbEntity
  8
Defpoints
 62
     0
100
AcDbPoint
 10
-7.66436812523102
 20
34.16565717226797
 30
0.0
  0
ENDBLK
  5
C878
330
C86D
100
AcDbEntity
  8
0
100
AcDbBlockEnd
  0
BLOCK
  5
C884
330
C87A
100
AcDbEntity
  8
0
100
AcDbBlockBegin
  2
*D14
 70
     1
 10
0.0
 20
0.0
 30
0.0
  3
*D14
  1

  0
LINE
  5
C87B
330
C87A
100
AcDbEntity
  8
DIMENSION2_BEMAßUNG2
100
AcDbLine
 10
-7.664368125231021
 20
17.84744430522906
 30
0.0
 11
-7.664368125231019
 21
42.75339345461373
 31
0.0
  0
LINE
  5
C87C
330
C87A
100
AcDbEntity
  8
DIMENSION2_BEMAßUNG2
100
AcDbLine
 10
13.43563187476897
 20
-3.258341785870925
 30
0.0
 11
13.43563187476897
 21
42.75339345461373
 31
0.0
  0
LINE
  5
C87D
330
C87A
100
AcDbEntity
  8
DIMENSION2_BEMAßUNG2
100
AcDbLine
 10
-5.164368125231019
 20
41.75339345461373
 30
0.0
 11
10.93563187476897
 21
41.75339345461373
 31
0.0
  0
SOLID
  5
C87E
330
C87A
100
AcDbEntity
  8
DIMENSION2_BEMAßUNG2
100
AcDbTrace
 10
-5.164368125231019
 20
42.17006012128039
 30
0.0
 11
-5.164368125231019
 21
41.33672678794706
 31
0.0
 12
-7.664368125231019
 22
41.75339345461373
 32
0.0
 13
-7.664368125231019
 23
41.75339345461373
 33
0.0
  0
SOLID
  5
C87F
330
C87A
100
AcDbEntity
  8
DIMENSION2_BEMAßUNG2
100
AcDbTrace
 10
10.93563187476897
 20
42.17006012128039
 30
0.0
 11
10.93563187476897
 21
41.33672678794706
 31
0.0
 12
13.43563187476897
 22
41.75339345461373
 32
0.0
 13
13.43563187476897
 23
41.75339345461373
 33
0.0
  0
MTEXT
  5
C880
330
C87A
100
AcDbEntity
  8
DIMENSION2_BEMAßUNG2
 62
     1
100
AcDbMText
 10
2.885631874768978
 20
45.0037379428027
 30
0.0
 40
3.5
 41
0.0
 71
     5
 72
     1
  1
21.1
 73
     1
 44
1.0
  0
POINT
  5
C881
330
C87A
100
AcDbEntity
  8
Defpoints
 62
     0
100
AcDbPoint
 10
-7.664368125231021
 20
16.84744430522906
 30
0.0
  0
POINT
  5
C882
330
C87A
100
AcDbEntity
  8
Defpoints
 62
     0
100
AcDbPoint
 10
13.43563187476897
 20
-4.258341785870925
 30
0.0
  0
POINT
  5
C883
330
C87A
100
AcDbEntity
  8
Defpoints
 62
     0
100
AcDbPoint
 10
13.43563187476897
 20
41.75339345461373
 30
0.0
  0
ENDBLK
  5
C885
330
C87A
100
AcDbEntity
  8
0
100
AcDbBlockEnd
  0
BLOCK
  5
C891
330
C887
100
AcDbEntity
  8
0
100
AcDbBlockBegin
  2
*D15
 70
     1
 10
0.0
 20
0.0
 30
0.0
  3
*D15
  1

  0
LINE
  5
C888
330
C887
100
AcDbEntity
  8
DIMENSION2_BEMAßUNG2
100
AcDbLine
 10
-7.664368125231021
 20
17.84744430522906
 30
0.0
 11
-7.664368125231019
 21
42.75648518352818
 31
0.0
  0
LINE
  5
C889
330
C887
100
AcDbEntity
  8
DIMENSION2_BEMAßUNG2
100
AcDbLine
 10
-49.66436812523102
 20
17.84744430522906
 30
0.0
 11
-49.66436812523102
 21
42.75648518352818
 31
0.0
  0
LINE
  5
C88A
330
C887
100
AcDbEntity
  8
DIMENSION2_BEMAßUNG2
100
AcDbLine
 10
-10.16436812523102
 20
41.75648518352818
 30
0.0
 11
-47.16436812523101
 21
41.75648518352818
 31
0.0
  0
SOLID
  5
C88B
330
C887
100
AcDbEntity
  8
DIMENSION2_BEMAßUNG2
100
AcDbTrace
 10
-10.16436812523102
 20
42.17315185019485
 30
0.0
 11
-10.16436812523102
 21
41.33981851686152
 31
0.0
 12
-7.664368125231019
 22
41.75648518352818
 32
0.0
 13
-7.664368125231019
 23
41.75648518352818
 33
0.0
  0
SOLID
  5
C88C
330
C887
100
AcDbEntity
  8
DIMENSION2_BEMAßUNG2
100
AcDbTrace
 10
-47.16436812523101
 20
42.17315185019485
 30
0.0
 11
-47.16436812523101
 21
41.33981851686152
 31
0.0
 12
-49.66436812523102
 22
41.75648518352818
 32
0.0
 13
-49.66436812523102
 23
41.75648518352818
 33
0.0
  0
MTEXT
  5
C88D
330
C887
100
AcDbEntity
  8
DIMENSION2_BEMAßUNG2
 62
     1
100
AcDbMText
 10
-28.66436812523102
 20
45.00682967171716
 30
0.0
 40
3.5
 41
0.0
 71
     5
 72
     1
  1
42
 73
     1
 44
1.0
  0
POINT
  5
C88E
330
C887
100
AcDbEntity
  8
Defpoints
 62
     0
100
AcDbPoint
 10
-7.664368125231021
 20
16.84744430522906
 30
0.0
  0
POINT
  5
C88F
330
C887
100
AcDbEntity
  8
Defpoints
 62
     0
100
AcDbPoint
 10
-49.66436812523102
 20
16.84744430522906
 30
0.0
  0
POINT
  5
C890
330
C887
100
AcDbEntity
  8
Defpoints
 62
     0
100
AcDbPoint
 10
-49.66436812523102
 20
41.75648518352818
 30
0.0
  0
ENDBLK
  5
C892
330
C887
100
AcDbEntity
  8
0
100
AcDbBlockEnd
  0
BLOCK
  5
C89C
330
C895
100
AcDbEntity
  8
0
100
AcDbBlockBegin
  2
*D16
 70
     1
 10
0.0
 20
0.0
 30
0.0
  3
*D16
  1

  0
LINE
  5
C896
330
C895
100
AcDbEntity
  8
DIMENSION2_BEMAßUNG2
100
AcDbLine
 10
-51.0871768909971
 20
14.04466197719776
 30
0.0
 11
-58.93024583455022
 21
4.651694313277346
 31
0.0
  0
LINE
  5
C897
330
C895
100
AcDbEntity
  8
DIMENSION2_BEMAßUNG2
100
AcDbLine
 10
-58.93024583455022
 20
4.651694313277346
 30
0.0
 11
-68.27522058138081
 21
4.651694313277349
 31
0.0
  0
SOLID
  5
C898
330
C895
100
AcDbEntity
  8
DIMENSION2_BEMAßUNG2
100
AcDbTrace
 10
-51.40700776989032
 20
14.31171875022084
 30
0.0
 11
-50.76734601210388
 21
13.77760520417469
 31
0.0
 12
-49.48483625285863
 22
15.9636472505571
 32
0.0
 13
-49.48483625285863
 23
15.9636472505571
 33
0.0
  0
MTEXT
  5
C899
330
C895
100
AcDbEntity
  8
DIMENSION2_BEMAßUNG2
 62
     1
100
AcDbMText
 10
-64.35273320796544
 20
7.901694313277285
 30
0.0
 40
3.5
 41
0.0
 71
     5
 72
     1
  1
R0.5
 73
     1
 44
1.0
  0
POINT
  5
C89A
330
C895
100
AcDbEntity
  8
Defpoints
 62
     0
100
AcDbPoint
 10
-49.48483625285863
 20
15.9636472505571
 30
0.0
  0
POINT
  5
C89B
330
C895
100
AcDbEntity
  8
Defpoints
 62
     0
100
AcDbPoint
 10
-49.16436812523087
 20
16.34744430522904
 30
0.0
  0
ENDBLK
  5
C89D
330
C895
100
AcDbEntity
  8
0
100
AcDbBlockEnd
  0
BLOCK
  5
C8A6
330
C89F
100
AcDbEntity
  8
0
100
AcDbBlockBegin
  2
*D17
 70
     1
 10
0.0
 20
0.0
 30
0.0
  3
*D17
  1

  0
LINE
  5
C8A0
330
C89F
100
AcDbEntity
  8
DIMENSION2_BEMAßUNG2
100
AcDbLine
 10
-50.31323437182463
 20
21.18183109783034
 30
0.0
 11
-59.37483499187985
 21
30.64862990814186
 31
0.0
  0
LINE
  5
C8A1
330
C89F
100
AcDbEntity
  8
DIMENSION2_BEMAßUNG2
100
AcDbLine
 10
-59.37483499187985
 20
30.64862990814186
 30
0.0
 11
-68.71980973871044
 21
30.64862990814187
 31
0.0
  0
SOLID
  5
C8A2
330
C89F
100
AcDbEntity
  8
DIMENSION2_BEMAßUNG2
100
AcDbTrace
 10
-50.0122352890051
 20
21.46994680939935
 30
0.0
 11
-50.61423345464416
 21
20.89371538626134
 31
0.0
 12
-48.58454010241061
 22
19.37583660091316
 32
0.0
 13
-48.58454010241061
 23
19.37583660091316
 33
0.0
  0
MTEXT
  5
C8A3
330
C89F
100
AcDbEntity
  8
DIMENSION2_BEMAßUNG2
 62
     1
100
AcDbMText
 10
-64.79732236529514
 20
33.89862990814185
 30
0.0
 40
3.5
 41
0.0
 71
     5
 72
     1
  1
R3.5
 73
     1
 44
1.0
  0
POINT
  5
C8A4
330
C89F
100
AcDbEntity
  8
Defpoints
 62
     0
100
AcDbPoint
 10
-48.58454010241061
 20
19.37583660091316
 30
0.0
  0
POINT
  5
C8A5
330
C89F
100
AcDbEntity
  8
Defpoints
 62
     0
100
AcDbPoint
 10
-46.16436812523101
 20
16.84744430522914
 30
0.0
  0
ENDBLK
  5
C8A7
330
C89F
100
AcDbEntity
  8
0
100
AcDbBlockEnd
  0
BLOCK
  5
C8B5
330
C8A9
100
AcDbEntity
  8
0
100
AcDbBlockBegin
  2
*D18
 70
     1
 10
0.0
 20
0.0
 30
0.0
  3
*D18
  1

  0
LINE
  5
C8AA
330
C8A9
100
AcDbEntity
  8
DIMENSION2_BEMAßUNG2
100
AcDbLine
 10
-50.16436812523102
 20
15.84744430522906
 30
0.0
 11
-78.80153154868605
 21
15.84744430522906
 31
0.0
  0
LINE
  5
C8AB
330
C8A9
100
AcDbEntity
  8
DIMENSION2_BEMAßUNG2
100
AcDbLine
 10
-47.16436812523103
 20
20.34744430522906
 30
0.0
 11
-78.80153154868605
 21
20.34744430522907
 31
0.0
  0
LINE
  5
C8AC
330
C8A9
100
AcDbEntity
  8
DIMENSION2_BEMAßUNG2
100
AcDbLine
 10
-77.80153154868606
 20
13.34744430522907
 30
0.0
 11
-77.80153154868606
 21
10.84744430522907
 31
0.0
  0
LINE
  5
C8AD
330
C8A9
100
AcDbEntity
  8
DIMENSION2_BEMAßUNG2
100
AcDbLine
 10
-77.80153154868606
 20
22.84744430522907
 30
0.0
 11
-77.80153154868604
 21
33.74241905205965
 31
0.0
  0
LINE
  5
C8AE
330
C8A9
100
AcDbEntity
  8
DIMENSION2_BEMAßUNG2
100
AcDbLine
 10
-77.80153154868606
 20
15.84744430522906
 30
0.0
 11
-77.80153154868606
 21
20.34744430522907
 31
0.0
  0
SOLID
  5
C8AF
330
C8A9
100
AcDbEntity
  8
DIMENSION2_BEMAßUNG2
100
AcDbTrace
 10
-78.21819821535273
 20
13.34744430522907
 30
0.0
 11
-77.38486488201939
 21
13.34744430522907
 31
0.0
 12
-77.80153154868606
 22
15.84744430522906
 32
0.0
 13
-77.80153154868606
 23
15.84744430522906
 33
0.0
  0
SOLID
  5
C8B0
330
C8A9
100
AcDbEntity
  8
DIMENSION2_BEMAßUNG2
100
AcDbTrace
 10
-78.21819821535273
 20
22.84744430522907
 30
0.0
 11
-77.38486488201939
 21
22.84744430522907
 31
0.0
 12
-77.80153154868606
 22
20.34744430522907
 32
0.0
 13
-77.80153154868606
 23
20.34744430522907
 33
0.0
  0
MTEXT
  5
C8B1
330
C8A9
100
AcDbEntity
  8
DIMENSION2_BEMAßUNG2
 62
     1
100
AcDbMText
 10
-81.05153154868606
 20
29.54493167864434
 30
0.0
 40
3.5
 41
0.0
 71
     5
 72
     1
  1
4.5
 11
0.0000000000000001
 21
1.0
 31
0.0
 73
     1
 44
1.0
  0
POINT
  5
C8B2
330
C8A9
100
AcDbEntity
  8
Defpoints
 62
     0
100
AcDbPoint
 10
-49.16436812523102
 20
15.84744430522906
 30
0.0
  0
POINT
  5
C8B3
330
C8A9
100
AcDbEntity
  8
Defpoints
 62
     0
100
AcDbPoint
 10
-46.16436812523104
 20
20.34744430522906
 30
0.0
  0
POINT
  5
C8B4
330
C8A9
100
AcDbEntity
  8
Defpoints
 62
     0
100
AcDbPoint
 10
-77.80153154868606
 20
20.34744430522907
 30
0.0
  0
ENDBLK
  5
C8B6
330
C8A9
100
AcDbEntity
  8
0
100
AcDbBlockEnd
  0
BLOCK
  5
C8BF
330
C8B8
100
AcDbEntity
  8
0
100
AcDbBlockBegin
  2
*D19
 70
     1
 10
0.0
 20
0.0
 30
0.0
  3
*D19
  1

  0
LINE
  5
C8CA
330
C8B8
100
AcDbEntity
  8
DIMENSION2_BEMAßUNG2
100
AcDbLine
 10
-6.730849129921185
 20
20.89020441661667
 30
0.0
 11
-1.778097117437052
 21
25.4064336915668
 31
0.0
  0
LINE
  5
C8CB
330
C8B8
100
AcDbEntity
  8
DIMENSION2_BEMAßUNG2
100
AcDbLine
 10
-1.778097117437052
 20
25.4064336915668
 30
0.0
 11
7.56687762939353
 21
25.4064336915668
 31
0.0
  0
SOLID
  5
C8CC
330
C8B8
100
AcDbEntity
  8
DIMENSION2_BEMAßUNG2
100
AcDbTrace
 10
-7.01159635987866
 20
21.19808768017986
 30
0.0
 11
-6.450101899963709
 21
20.58232115305349
 31
0.0
 12
-8.578148711300279
 22
19.20572103687183
 32
0.0
 13
-8.578148711300279
 23
19.20572103687183
 33
0.0
  0
MTEXT
  5
C8CD
330
C8B8
100
AcDbEntity
  8
DIMENSION2_BEMAßUNG2
 62
     1
100
AcDbMText
 10
3.644390255978237
 20
28.65643369156681
 30
0.0
 40
3.5
 41
0.0
 71
     5
 72
     1
  1
R3.5
 73
     1
 44
1.0
  0
POINT
  5
C8CE
330
C8B8
100
AcDbEntity
  8
Defpoints
 62
     0
100
AcDbPoint
 10
-8.578148711300279
 20
19.20572103687183
 30
0.0
  0
POINT
  5
C8CF
330
C8B8
100
AcDbEntity
  8
Defpoints
 62
     0
100
AcDbPoint
 10
-11.16436812523102
 20
16.84744430522903
 30
0.0
  0
ENDBLK
  5
C8C0
330
C8B8
100
AcDbEntity
  8
0
100
AcDbBlockEnd
  0
BLOCK
  5
C8DC
330
C8D1
100
AcDbEntity
  8
0
100
AcDbBlockBegin
  2
*D20
 70
     1
 10
0.0
 20
0.0
 30
0.0
  3
*D20
  1

  0
LINE
  5
C8DE
330
C8D1
100
AcDbEntity
  8
DIMENSION2_BEMAßUNG2
100
AcDbLine
 10
-10.16436812523103
 20
20.34744430522906
 30
0.0
 11
42.49709252895241
 21
20.34744430522904
 31
0.0
  0
LINE
  5
C8DF
330
C8D1
100
AcDbEntity
  8
DIMENSION2_BEMAßUNG2
100
AcDbLine
 10
-5.664368125231021
 20
8.347444305229061
 30
0.0
 11
42.4970925289524
 21
8.347444305229046
 31
0.0
  0
LINE
  5
C8E0
330
C8D1
100
AcDbEntity
  8
DIMENSION2_BEMAßUNG2
100
AcDbLine
 10
41.49709252895241
 20
17.84744430522904
 30
0.0
 11
41.49709252895241
 21
10.84744430522904
 31
0.0
  0
SOLID
  5
C8E1
330
C8D1
100
AcDbEntity
  8
DIMENSION2_BEMAßUNG2
100
AcDbTrace
 10
41.08042586228575
 20
17.84744430522904
 30
0.0
 11
41.91375919561908
 21
17.84744430522904
 31
0.0
 12
41.49709252895241
 22
20.34744430522904
 32
0.0
 13
41.49709252895241
 23
20.34744430522904
 33
0.0
  0
SOLID
  5
C8E2
330
C8D1
100
AcDbEntity
  8
DIMENSION2_BEMAßUNG2
100
AcDbTrace
 10
41.08042586228574
 20
10.84744430522904
 30
0.0
 11
41.91375919561907
 21
10.84744430522904
 31
0.0
 12
41.49709252895241
 22
8.347444305229046
 32
0.0
 13
41.49709252895241
 23
8.347444305229046
 33
0.0
  0
MTEXT
  5
C8E3
330
C8D1
100
AcDbEntity
  8
DIMENSION2_BEMAßUNG2
 62
     1
100
AcDbMText
 10
38.24674804076343
 20
14.34744430522905
 30
0.0
 40
3.5
 41
0.0
 71
     5
 72
     1
  1
12
 11
0.0000000000000001
 21
1.0
 31
0.0
 73
     1
 44
1.0
  0
POINT
  5
C8E4
330
C8D1
100
AcDbEntity
  8
Defpoints
 62
     0
100
AcDbPoint
 10
-11.16436812523103
 20
20.34744430522906
 30
0.0
  0
POINT
  5
C8E5
330
C8D1
100
AcDbEntity
  8
Defpoints
 62
     0
100
AcDbPoint
 10
-6.664368125231021
 20
8.347444305229061
 30
0.0
  0
POINT
  5
C8E6
330
C8D1
100
AcDbEntity
  8
Defpoints
 62
     0
100
AcDbPoint
 10
41.49709252895241
 20
8.347444305229046
 30
0.0
  0
ENDBLK
  5
C8DD
330
C8D1
100
AcDbEntity
  8
0
100
AcDbBlockEnd
  0
BLOCK
  5
C8EF
330
C8E8
100
AcDbEntity
  8
0
100
AcDbBlockBegin
  2
*D21
 70
     1
 10
0.0
 20
0.0
 30
0.0
  3
*D21
  1

  0
LINE
  5
C8E9
330
C8E8
100
AcDbEntity
  8
DIMENSION2_BEMAßUNG2
100
AcDbLine
 10
43.59118001114398
 20
-8.123850360348241
 30
0.0
 11
34.2462052643134
 21
-8.123850360348239
 31
0.0
  0
LINE
  5
C8EA
330
C8E8
100
AcDbEntity
  8
DIMENSION2_BEMAßUNG2
100
AcDbLine
 10
34.2462052643134
 20
-8.123850360348239
 30
0.0
 11
25.00669632011756
 21
-7.147277901972622
 31
0.0
  0
MTEXT
  5
C8EB
330
C8E8
100
AcDbEntity
  8
DIMENSION2_BEMAßUNG2
 62
     1
100
AcDbMText
 10
39.66869263772869
 20
-4.873850360348239
 30
0.0
 40
3.5
 41
0.0
 71
     5
 72
     1
  1
R3.5
 73
     1
 44
1.0
  0
SOLID
  5
C8EC
330
C8E8
100
AcDbEntity
  8
DIMENSION2_BEMAßUNG2
100
AcDbTrace
 10
25.05049206645019
 20
-6.732919308826203
 30
0.0
 11
24.96290057378494
 21
-7.561636495119041
 31
0.0
 12
22.52054476123905
 22
-6.884503423976847
 32
0.0
 13
22.52054476123905
 23
-6.884503423976847
 33
0.0
  0
POINT
  5
C8ED
330
C8E8
100
AcDbEntity
  8
Defpoints
 62
     0
100
AcDbPoint
 10
22.52054476123905
 20
-6.884503423976847
 30
0.0
  0
POINT
  5
C8EE
330
C8E8
100
AcDbEntity
  8
Defpoints
 62
     0
100
AcDbPoint
 10
26.00115694366895
 20
-7.252387693170932
 30
0.0
  0
ENDBLK
  5
C8F0
330
C8E8
100
AcDbEntity
  8
0
100
AcDbBlockEnd
  0
ENDSEC
  0
SECTION
  2
ENTITIES
  0
REGION
  5
C7B4
330
1F
100
AcDbEntity
  8
2D_Profile
100
AcDbModelerGeometry
 70
     1
  1
joo lfn n o         
  1
ln ^ *+0;:,4 R:<7>16<>3 [:,4+0/ kqo nl ^ \VL jqoqn QK mk R01 ^ *8 nm noejheln moom 
  1
rn fqfffffffffffffffj:rooh n:rono 
  1
=0;& {n {m {rn {rn |
  1
-:9@)+r:&:r>++-6= {rn {rn {rn {o {l {k |
  1
3*2/ {j {rn {i {o |
  1
:&:@-:961:2:1+ {rn j 8-6;  n l +-6 n k ,*-9 o l >;5 o k 8->; o f /0,+<7:<4 o k ,+03 oqoonoooooookhkfhkjnl k 1+03 lo k ;,63 o g 93>+1:,, o h /6'>-:> o k 72>' o i 8-6;>- o j 28-6; looo j *8-6; o j )8-6; o no :1;@96:3;, |
  1
):-+:'@+:2/3>+: {rn l o n g |
  1
-:9@)+r:&:r>++-6= {rn {rn {rn {m {l {k |
  1
,7:33 {h {rn {rn {g {rn {m |
  1
-:9@)+r:&:r>++-6= {rn {rn {rn {i {l {k |
  1
9><: {f {rn {no {i {rn {nn 90-(>-; ;0*=3: 0*+ |
  1
92:,7r:&:r>++-6= {rn {nm {rn {g |
  1
300/ {rn {rn {nl {g |
  1
/3>1:r,*-9><: {rn jqkhlmfmkgmmglgjmh rlqgjlnnjokkgikokol o o o n n o o 90-(>-;@) V V V V |
  1
-:9@)+r:&:r>++-6= {rn {rn {f {g {l {k |
  1
<0:;8: {rn {nk {nj {rn {ni -:):-,:; {no {rn |
  1
<0:;8: {rn {nh {nl {rn {ng -:):-,:; {no {rn |
  1
<0:;8: {rn {nl {nf {rn {mo 90-(>-; {no {rn |
  1
:;8: {mn {mm o {ml lqmnfmkfioljffffof {nl {mk 90-(>-; h *1410(1 |
  1
<0:;8: {rn {mj {nk {rn {mi -:):-,:; {no {rn |
  1
:;8: {mh {mg rlqnknjfmijljgfgoom {mm rnqjhohfilmihfkfoon {nk {mf 90-(>-; h *1410(1 |
  1
<0:;8: {rn {nj {lo {rn {ln 90-(>-; {no {rn |
  1
:;8: {lm {ll o {ml nnqhfffffffffjljjl {nj {lk 90-(>-; h *1410(1 |
  1
/+36,+r:&:r>++-6= {rn {rn {rn {ni |
  1
):-+:' {rn {ni {lj |
  1
):-+:' {rn {ni {li |
  1
,+->687+r<*-): {rn riqiiklignmjmlnomni gqlkhkkklojmmfoin o n o o V V |
  1
<0:;8: {rn {lh {nh {rn {lg 90-(>-; {no {rn |
  1
:;8: {lf {ko o {mg hqj {nh {kn 90-(>-; h *1410(1 |
  1
/+36,+r:&:r>++-6= {rn {rn {rn {ng |
  1
):-+:' {rn {mi {km |
  1
:336/,:r<*-): {rn riqiiklignmjmlnomni fqlkhkkklojmmfoin o o o n n o o n V V |
  1
<0:;8: {rn {nf {kl {rn {kk -:):-,:; {no {rn |
  1
:;8: {kj {ki o {ll nqjjllklolklnmffjf {nf {kh 90-(>-; h *1410(1 |
  1
/+36,+r:&:r>++-6= {rn {rn {rn {mo |
  1
):-+:' {rn {mo {kg |
  1
,+->687+r<*-): {rn gqljlogkmgnnigfhjm gqnknjojfoflmfogli o roqfffgkhifjnjikhgik oqonhkjmkoiklmmhonhj o V V |
  1
/061+ {rn riqiiklignmjmlnomni gqlkhkkklojmmfoin o |
  1
/061+ {rn rlqkkjnngjmnilnoloh gqlkhkkklojmmfoin o |
  1
<0:;8: {rn {kf {mj {rn {jo -:):-,:; {no {rn |
  1
:;8: {jn {ko o {jm nqjhohfilmihfkfoon {mj {jl 90-(>-; h *1410(1 |
  1
/+36,+r:&:r>++-6= {rn {rn {rn {mi |
  1
):-+:' {rn {lg {jk |
  1
,+->687+r<*-): {rn rhqiiklignmjmlnomni niqgkhkkklojmmfoin o o rn o V V |
  1
/061+ {rn rhqiiklignmjmlnomni fqlkhkkklojmmfoin o |
  1
<0:;8: {rn {lo {jj {rn {ji 90-(>-; {no {rn |
  1
:;8: {jh {ki o {jg mqj {lo {jf 90-(>-; h *1410(1 |
  1
/+36,+r:&:r>++-6= {rn {rn {rn {ln |
  1
):-+:' {rn {ln {io |
  1
:336/,:r<*-): {rn gqlljilnghkhigfhgk hqnknijgmnknmfojnf o o o n n o o n V V |
  1
/061+ {rn gqljlogkmgnnigfhjm gqnknjojfoflmfogli o |
  1
<0:;8: {rn {in {lh {rn {im 90-(>-; {no {rn |
  1
:;8: {il {ik o {jm lj {lh {ij 90-(>-; h *1410(1 |
  1
/+36,+r:&:r>++-6= {rn {rn {rn {lg |
  1
):-+:' {rn {jo {ii |
  1
:336/,:r<*-): {rn rnnqniklignmjmlnomm niqgkhkkklojmmfoin o o o n lqj o o n V V |
  1
/061+ {rn rhqiiklignmjmlnomni niqgkhkkklojmmfoin o |
  1
<0:;8: {rn {kl {ih {rn {ig -:):-,:; {no {rn |
  1
:;8: {if {ho rnqjggmkfinflnkgkml {jg o {kl {hn 90-(>-; h *1410(1 |
  1
/+36,+r:&:r>++-6= {rn {rn {rn {kk |
  1
):-+:' {rn {kk {hm |
  1
,+->687+r<*-): {rn fqlljilnghkhigfhgk hqnknijgmnknmfojnf o o rn o V V |
  1
/061+ {rn fqlljilnghkhigfhgk hqnknijgmnknmfojnf o |
  1
<0:;8: {rn {hl {kf {rn {hk 90-(>-; {no {rn |
  1
:;8: {hj {ik nqjhohfilmihfkfoon {hi lqnknjfmijljgfgoom {kf {hh 90-(>-; h *1410(1 |
  1
/+36,+r:&:r>++-6= {rn {rn {rn {jo |
  1
):-+:' {rn {im {hg |
  1
,+->687+r<*-): {rn rkiqniklignmjmlnomm moqlkhkkklojmmfoin o n o o V V |
  1
/061+ {rn rnnqniklignmjmlnomm moqlkhkkklojmmfoin o |
  1
<0:;8: {rn {jj {hf {rn {go -:):-,:; {no {rn |
  1
:;8: {gn {ho lqimfgkflliiloignh:ronn {gm lqfnonolgfolinkohi {jj {gl 90-(>-; h *1410(1 |
  1
/+36,+r:&:r>++-6= {rn {rn {rn {ji |
  1
):-+:' {rn {ji {gk |
  1
:336/,:r<*-): {rn gqlljilnghkhigfhgk kqiknijgmnknmfojnf o o o n n o o n V V |
  1
/061+ {rn fqlljilnghkhigfhgk kqiknijgmnknmfojnf o |
  1
<0:;8: {rn {gj {in {rn {gi 90-(>-; {no {rn |
  1
:;8: {gh {hi o {gg oqj {in {gf 90-(>-; h *1410(1 |
  1
/+36,+r:&:r>++-6= {rn {rn {rn {im |
  1
):-+:' {rn {hk {fo |
  1
:336/,:r<*-): {rn rkiqniklignmjmlnomm niqgkhkkklojmmfoin o o o n lqj o o n V V |
  1
/061+ {rn rkiqniklignmjmlnomm moqlkhkkklojmmfoin o |
  1
<0:;8: {rn {ih {fn {rn {fm -:):-,:; {no {rn |
  1
:;8: {fl {gm nqjjllklolklnmffjj {fk lqhnkgnjghjkokfhng {ih {fj 90-(>-; h *1410(1 |
  1
/+36,+r:&:r>++-6= {rn {rn {rn {ig |
  1
):-+:' {rn {ig {fi |
  1
,+->687+r<*-): {rn gqlngnhfkigligfgni lqikngnojnfomfofl o roqfffgkhifjnjikmog oqonhkjmkoikljjfnhl o V V |
  1
/061+ {rn gqlngnhfkigllnifml lqikngnojngfhmikhj o |
  1
<0:;8: {rn {fh {hl {rn {fg 90-(>-; {no {rn |
  1
:;8: {ff {gg rlqnknjfmijljgfgoom {noo rnqjhohfilmihfkfoon {hl {non 90-(>-; h *1410(1 |
  1
/+36,+r:&:r>++-6= {rn {rn {rn {hk |
  1
):-+:' {rn {gi {nom |
  1
,+->687+r<*-): {rn rkfqiiklignmjmlnomm niqgkhkkklojmmfoin o o rn o V V |
  1
/061+ {rn rkfqiiklignmjmlnomm niqgkhkkklojmmfoin o |
  1
<0:;8: {rn {hf {nol {rn {nok -:):-,:; {no {rn |
  1
:;8: {noj {fk rmqjiglifklnhhmjkhm {noi rmqmhikimkmlhlinohj {hf {noh 90-(>-; h *1410(1 |
  1
/+36,+r:&:r>++-6= {rn {rn {rn {go |
  1
):-+:' {rn {go {nog |
  1
:336/,:r<*-): {rn kqlfnmngiffligfhhm mqhnomoljkinmfoijk o o o n n o o n V V |
  1
/061+ {rn kqkogihnnojhigfhk lqhnoojnmknlmfoigh o |
  1
<0:;8: {rn {nof {gj {rn {nno -:):-,:; {no {rn |
  1
:;8: {nnn {noo o {nnm li {gj {nnl 90-(>-; h *1410(1 |
  1
/+36,+r:&:r>++-6= {rn {rn {rn {gi |
  1
):-+:' {rn {fg {nnk |
  1
:336/,:r<*-): {rn rkfqniklignmjmlnomm niqlkhkkklojmmfoin o o o n oqj o o n V V |
  1
/061+ {rn rkfqiiklignmjmlnomm niqlkhkkklojmmfoin o |
  1
<0:;8: {rn {fn {nnj {rn {nni 90-(>-; {no {rn |
  1
:;8: {nnh {noi rmqmhikimkmlhlfmlfm {nng rnqjhohfilmihfkfoon {fn {nnf 90-(>-; h *1410(1 |
  1
/+36,+r:&:r>++-6= {rn {rn {rn {fm |
  1
):-+:' {rn {fm {nmo |
  1
:336/,:r<*-): {rn mkqjjkffmhmkgigfgn njqhmiklmjlllmfohk o o o n mj o o n V V |
  1
/061+ {rn lqjjnoinkkgloklmkn mqnihgioihniiljgfg o |
  1
<0:;8: {rn {nmn {fh {rn {nmm 90-(>-; {no {rn |
  1
:;8: {nml {nmk o {nnm nqjhohfilmihfkfoon {fh {nmj 90-(>-; h *1410(1 |
  1
/+36,+r:&:r>++-6= {rn {rn {rn {fg |
  1
):-+:' {rn {nno {nmi |
  1
,+->687+r<*-): {rn rkfqniklignmjmlnomm njqgkhkkklojmmfoin o n o o V V |
  1
/061+ {rn rkfqniklignmjmlnomm njqgkhkkklojmmfoin o |
  1
<0:;8: {rn {nol {nmh {rn {nmg -:):-,:; {no {rn |
  1
:;8: {nmf {nlo o {nng mqj {nol {nln 90-(>-; h *1410(1 |
  1
/+36,+r:&:r>++-6= {rn {rn {rn {nok |
  1
):-+:' {rn {nok {nlm |
  1
:336/,:r<*-): {rn noqfljilnghkhigfhl roqmjglknhgjghofmjlg o o o n k o o n V V |
  1
/061+ {rn gqlknkihfollmgmlig rlqloloioholhgmhojl o |
  1
<0:;8: {rn {nll {nof {rn {nlk 90-(>-; {no {rn |
  1
:;8: {nlj {nmk o {nli mh {nof {nlh 90-(>-; h *1410(1 |
  1
/+36,+r:&:r>++-6= {rn {rn {rn {nno |
  1
):-+:' {rn {nmm {nlg |
  1
:336/,:r<*-): {rn rnlqniklignmjmlnomm nkqgkhkkklojmmfoin o o o n n o o n V V |
  1
/061+ {rn rnlqniklignmjmlnomm njqgkhkkklojmmfoin o |
  1
<0:;8: {rn {nnj {nlf {rn {nko -:):-,:; {no {rn |
  1
:;8: {nkn {nlo o {nkm mqj {nnj {nkl 90-(>-; h *1410(1 |
  1
/+36,+r:&:r>++-6= {rn {rn {rn {nni |
  1
):-+:' {rn {nni {nkk |
  1
,+->687+r<*-): {rn nlqkljilnghkhigfhl rkqmjglknhgjghofmjk o rn o o V V |
  1
/061+ {rn noqfljilnghkhigfhl rkqmjglknhgjghofmjk o |
  1
<0:;8: {rn {nkj {nmn {rn {nki -:):-,:; {no {rn |
  1
:;8: {nkh {nli rlqnknjfmijljgfgoom {nkg rnqjhohfilmihfkfoon {nmn {nkf 90-(>-; h *1410(1 |
  1
/+36,+r:&:r>++-6= {rn {rn {rn {nmm |
  1
):-+:' {rn {nlk {njo |
  1
,+->687+r<*-): {rn rnmqniklignmjmlnomm nkqgkhkkklojmmfoin o o rn o V V |
  1
/061+ {rn rnmqniklignmjmlnomm nkqgkhkkklojmmfoin o |
  1
<0:;8: {rn {nmh {njn {rn {njm -:):-,:; {no {rn |
  1
:;8: {njl {nkm rnqjhohfilmihfkfoon {njk roqgijnlommfgjliginj {nmh {njj 90-(>-; h *1410(1 |
  1
/+36,+r:&:r>++-6= {rn {rn {rn {nmg |
  1
):-+:' {rn {nmg {nji |
  1
,+->687+r<*-): {rn nlqkljilnghkhigfhl rkqmjglknhgjghofmjk o n o o V V |
  1
/061+ {rn nlqkljilnghkhigfhl rkqmjglknhgjghofmjk o |
  1
<0:;8: {rn {njh {nll {rn {njg 90-(>-; {no {rn |
  1
:;8: {njf {nio o {nkg oqj {nll {nin 90-(>-; h *1410(1 |
  1
/+36,+r:&:r>++-6= {rn {rn {rn {nlk |
  1
):-+:' {rn {nki {nim |
  1
:336/,:r<*-): {rn rnoqniklignmjmlnomm rnmqnjmjjjifkhhoflf o o o n m o o n V V |
  1
/061+ {rn rnmqniklignmjmlnomm rnmqnjmjjjifkhhoflf o |
  1
<0:;8: {rn {nlf {nil {rn {nik -:):-,:; {no {rn |
  1
:;8: {nij {njk roqgijnlommfgjknghgi {nii roqjhlmmlmmngnjnilgl {nlf {nih 90-(>-; h *1410(1 |
  1
/+36,+r:&:r>++-6= {rn {rn {rn {nko |
  1
):-+:' {rn {nko {nig |
  1
:336/,:r<*-): {rn njqfljilnghkhigfhl roqmjglknhgjghofmjlg o o o n k o o n V V |
  1
/061+ {rn njqfljilnghkhigfhl rkqmjglknhgjghofmjk o |
  1
<0:;8: {rn {nif {nkj {rn {nho -:):-,:; {no {rn |
  1
:;8: {nhn {nio rnqjhohfilmihfkfoon {nhm o {nkj {nhl 90-(>-; h *1410(1 |
  1
/+36,+r:&:r>++-6= {rn {rn {rn {nki |
  1
):-+:' {rn {njg {nhk |
  1
,+->687+r<*-): {rn rfqiiklignmjmlnomni rnkqnjmjjjifkhhoflf o rn o o V V |
  1
/061+ {rn rnoqniklignmjmlnomm rnkqnjmjjjifkhhoflf o |
  1
<0:;8: {rn {njn {nhj {rn {nhi 90-(>-; {no {rn |
  1
:;8: {nhh {nii roqjhlmmlmmngnhllmgh {nhg nqjggmkfinflnkgkml {njn {nhf 90-(>-; h *1410(1 |
  1
/+36,+r:&:r>++-6= {rn {rn {rn {njm |
  1
):-+:' {rn {njm {ngo |
  1
:336/,:r<*-): {rn mqlnimhnomkiigffmi njqhmiklmjlllmfohk o o o n mj o o n V V |
  1
/061+ {rn ngqjmfhfjgkimnjkhg rlqloloioholgoghfij o |
  1
<0:;8: {rn {ngn {njh {rn {ngm -:):-,:; {no {rn |
  1
:;8: {ngl {ngk o {nhm nkqj {njh {ngj 90-(>-; h *1410(1 |
  1
/+36,+r:&:r>++-6= {rn {rn {rn {njg |
  1
):-+:' {rn {nho {ngi |
  1
:336/,:r<*-): {rn rfqiiklignmjmlnomni rnmqnjmjjjifkhhoflf o o o n m o o n V V |
  1
/061+ {rn rfqiiklignmjmlnomni rnkqnjmjjjifkhhoflf o |
  1
<0:;8: {rn {nil {ngh {rn {ngg 90-(>-; {no {rn |
  1
:;8: {ngf {nfo o {nhg lqfnonolgfokmllikl {nil {nfn 90-(>-; h *1410(1 |
  1
/+36,+r:&:r>++-6= {rn {rn {rn {nik |
  1
):-+:' {rn {nik {nfm |
  1
:336/,:r<*-): {rn mmqkgookjojomigfgk mqhnomoljkinmfoijk o o o n n o o n V V |
  1
/061+ {rn mlqlmomomlonmgjklk mqnihgioihnifmnmjm o |
  1
<0:;8: {rn {nfl {nif {rn {nfk 90-(>-; {no {rn |
  1
:;8: {nfj {nfi nqjhohfilmihfkfoon {ngk lqnknjfmijljgfgoom {nif {nfh 90-(>-; h *1410(1 |
  1
/+36,+r:&:r>++-6= {rn {rn {rn {nho |
  1
):-+:' {rn {ngm {nfg |
  1
,+->687+r<*-): {rn rhqiiklignmjmlnomni mqlkhkkklojmmfoin o o rn o V V |
  1
/061+ {rn rhqiiklignmjmlnomni rnmqnjmjjjifkhhoflf o |
  1
<0:;8: {rn {nhj {nff {rn {moo 90-(>-; {no {rn |
  1
:;8: {mon {mom rlqnknjfmijljgfgoom {nfo rnqjjllklolklnnmhg {nhj {mol 90-(>-; h *1410(1 |
  1
/+36,+r:&:r>++-6= {rn {rn {rn {nhi |
  1
):-+:' {rn {nhi {mok |
  1
,+->687+r<*-): {rn ngqjjlogkmgnnigfik lqikngnojnfomfofl o oqfffgkhifjnjikmog oqonhkjmkoikljjfnhl o V V |
  1
/061+ {rn mmqkimjfmiklglnifg lqhnoojnmknmgjkifg o |
  1
<0:;8: {rn {moj {ngn {rn {moi -:):-,:; {no {rn |
  1
:;8: {moh {nfi o {mog lqgnolhnfmlnffffki {ngn {mof 90-(>-; h *1410(1 |
  1
/+36,+r:&:r>++-6= {rn {rn {rn {ngm |
  1
):-+:' {rn {nfk {mno |
  1
:336/,:r<*-): {rn riqiiklignmjmlnomni mqlkhkkklojmmfoin o o o n n o o n V V |
  1
/061+ {rn rhqiiklignmjmlnomni mqlkhkkklojmmfoin o |
  1
<0:;8: {rn {ngh {mnn {rn {mnm 90-(>-; {no {rn |
  1
:;8: {mnl {mnk o {mom mqj {ngh {mnj 90-(>-; h *1410(1 |
  1
/+36,+r:&:r>++-6= {rn {rn {rn {ngg |
  1
):-+:' {rn {ngg {mni |
  1
:336/,:r<*-): {rn ngqjljilnghkhigffj kqiknijgmnknmfojnf o o o n n o o n V V |
  1
/061+ {rn ngqjjlogkmgnnigfik lqikngnojnfomfofl o |
  1
<0:;8: {rn {mnh {nfl {rn {mng 90-(>-; {no {rn |
  1
:;8: {mnf {mmo oqkjknongligfiojhff {mog nqjhohfilmihfkfoon {nfl {mmn 90-(>-; h *1410(1 |
  1
/+36,+r:&:r>++-6= {rn {rn {rn {nfk |
  1
):-+:' {rn {moi {mmm |
  1
,+->687+r<*-): {rn riqiiklignmjmlnomni lqlkhkkklojmmfoin o n o o V V |
  1
/061+ {rn riqiiklignmjmlnomni lqlkhkkklojmmfoin o |
  1
<0:;8: {rn {nff {mml {rn {mmk -:):-,:; {no {rn |
  1
:;8: {mmj {mmi nqjggmkfinflnkgkml {mnk lqnknjfmijljgfgoom {nff {mmh 90-(>-; h *1410(1 |
  1
/+36,+r:&:r>++-6= {rn {rn {rn {moo |
  1
):-+:' {rn {moo {mmg |
  1
,+->687+r<*-): {rn nhqjljilnghkhigffj hqnknijgmnknmfojnf o o rn o V V |
  1
/061+ {rn nhqjljilnghkhigffj kqiknijgmnknmfojnf o |
  1
<0:;8: {rn {mmf {moj {rn {mlo -:):-,:; {no {rn |
  1
:;8: {mln {mmo rmqighkfogniifgiim {mlm rmqlhnlmkmhkijfjfom {moj {mll 90-(>-; h *1410(1 |
  1
/+36,+r:&:r>++-6= {rn {rn {rn {moi |
  1
):-+:' {rn {mng {mlk |
  1
:336/,:r<*-): {rn rmqgjlffimomolnomh mqlkhkkklojmmfoin o o o n n o o n V V |
  1
/061+ {rn rmqgjlffimomolnomh lqlkhkkklojmmfoin o |
  1
<0:;8: {rn {mnn {mlj {rn {mli 90-(>-; {no {rn |
  1
:;8: {mlh {mmi rlqgonijghgklmgmikg:ronn {mlg hqlnihlollogiglmjk {mnn {mlf 90-(>-; h *1410(1 |
  1
/+36,+r:&:r>++-6= {rn {rn {rn {mnm |
  1
):-+:' {rn {mnm {mko |
  1
:336/,:r<*-): {rn ngqjljilnghkhigffj hqnknijgmnknmfojnf o o o n n o o n V V |
  1
/061+ {rn nhqjljilnghkhigffj hqnknijgmnknmfojnf o |
  1
<0:;8: {rn {mkn {mnh {rn {mkm 90-(>-; {no {rn |
  1
:;8: {mkl {mkk roqhhomiglhgfmgmmlgi {mlm oqhhomiglhgflokhmmf {mnh {mkj 90-(>-; h *1410(1 |
  1
/+36,+r:&:r>++-6= {rn {rn {rn {mng |
  1
):-+:' {rn {mlo {mki |
  1
:336/,:r<*-): {rn mkqjjkffmhmkgigfgn njqhmiklmjlllmfohk o o o n mfqj o o n V V |
  1
/061+ {rn rnqfjjlkogmhlkkogg mqhgioffijiffmnhgn o |
  1
<0:;8: {rn {mml {mkh {rn {mkg 90-(>-; {no {rn |
  1
:;8: {mkf {mjo roqkljoonmnnifnkfhmj {mlg nqjggmkfinfllkfmil {mml {mjn 90-(>-; h *1410(1 |
  1
/+36,+r:&:r>++-6= {rn {rn {rn {mmk |
  1
):-+:' {rn {mmk {mjm |
  1
,+->687+r<*-): {rn ngqjngnhfkigligfh gqnknjojfoflmfogli o oqfffgkhifjnjikjlgf oqonhkjmkoiklliggfhh o V V |
  1
/061+ {rn ngqjngnhfkigllnhof gqnknjojfofmgjkjil o |
  1
<0:;8: {rn {mjl {mmf {rn {mjk 90-(>-; {no {rn |
  1
:;8: {mjj {mkk mqlhnlmkmhkijflmll {mji mqhoijfnkknfoooiih {mmf {mjh 90-(>-; h *1410(1 |
  1
/+36,+r:&:r>++-6= {rn {rn {rn {mlo |
  1
):-+:' {rn {mkm {mjg |
  1
:336/,:r<*-): {rn oqghonoigojgigfhnlg rhqmjmlghiflnhofln o o o n lqj o o n V V |
  1
/061+ {rn lqlgmnkoniofnilmnh rkqgnjmkoofllghinjm o |
  1
<0:;8: {rn {mlj {mjf {rn {mio -:):-,:; {no {rn |
  1
:;8: {min {mim roqhhomiglhgflokhojn {mjo roqkljoonmnnigfhmioj {mlj {mil 90-(>-; h *1410(1 |
  1
/+36,+r:&:r>++-6= {rn {rn {rn {mli |
  1
):-+:' {rn {mli {mik |
  1
:336/,:r<*-): {rn mjqgfkghggkgligfin kqhifhlljmhgmfogfl o o o n lqj o o n V V |
  1
/061+ {rn mjqgllhfjkmjhigfgl gqmifmookiogmfofhm o |
  1
<0:;8: {rn {mij {mkn {rn {mii -:):-,:; {no {rn |
  1
:;8: {mih {mji mqhoijfnkkngfgmfin {mig kqhmfgkmmhmfmkhkm {mkn {mif 90-(>-; h *1410(1 |
  1
/+36,+r:&:r>++-6= {rn {rn {rn {mkm |
  1
):-+:' {rn {mjk {mho |
  1
:336/,:r<*-): {rn mkqjjkffmhmkgigfgn rloqmlnmohfnfihofli o o o n mfqj o o n V V |
  1
/061+ {rn lqlgmnkoniogfgknin rfqigfjljmfmfmjfnok o |
  1
<0:;8: {rn {mkh {mhn {rn {mhm 90-(>-; {no {rn |
  1
:;8: {mhl {mim mqlhnlmkmhkiinjifj {mhk lqfnnginolmjmomhfk {mkh {mhj 90-(>-; h *1410(1 |
  1
/+36,+r:&:r>++-6= {rn {rn {rn {mkg |
  1
):-+:' {rn {mkg {mhi |
  1
:336/,:r<*-): {rn mqlnimhnomkiigffmi njqhmiklmjlllmfohk o o o n mfqj o o n V V |
  1
/061+ {rn mfqoigfmmmofmkikof lqmfkhflmhhogllgjf o |
  1
<0:;8: {rn {mhh {mjl {rn {mhg 90-(>-; {no {rn |
  1
:;8: {mhf {mgo rlqimfgfgflflilffhj:ronn {mig hqlnihlollogigmfif {mjl {mgn 90-(>-; h *1410(1 |
  1
/+36,+r:&:r>++-6= {rn {rn {rn {mjk |
  1
):-+:' {rn {mii {mgm |
  1
:336/,:r<*-): {rn oqfhilgkfonnigfgkmk rnfqmhkjogfnknhofml o o o n lqj o o n V V |
  1
/061+ {rn rmqnfhijgkjfhogkilf rnhqhffjigiilkmjmnf o |
  1
<0:;8: {rn {mjf {mgl {rn {mgk 90-(>-; {no {rn |
  1
:;8: {mgj {mgi oqkljoonmnnifnkfhik {mhk oqhhomiglhgflomolhm {mjf {mgh 90-(>-; h *1410(1 |
  1
/+36,+r:&:r>++-6= {rn {rn {rn {mio |
  1
):-+:' {rn {mio {mgg |
  1
:336/,:r<*-): {rn miqoonnjifkliigfhk rhqmjmlghiflnhofln o o o n lqj o o n V V |
  1
/061+ {rn mlqkgfnmljggilfjmf rkqgnjmkooflknjfjni o |
  1
<0:;8: {rn {mgf {mij {rn {mfo 90-(>-; {no {rn |
  1
:;8: {mfn {mgo rnqjjllklolkmhkfjn {mfm o {mij {mfl 90-(>-; h *1410(1 |
  1
/+36,+r:&:r>++-6= {rn {rn {rn {mii |
  1
):-+:' {rn {mhg {mfk |
  1
,+->687+r<*-): {rn gqljlogkmgnnigfhjm rmmqikimgnmfjihofnh o roqfffgkhifjnjikjlgf roqonhkjmkoiklligfokh o V V |
  1
/061+ {rn nqolhkiglmlhigffog rmmqhhlfhjgkhnhofln o |
  1
<0:;8: {rn {mhn {mfj {rn {mfi 90-(>-; {no {rn |
  1
:;8: {mfh {mfg rnqjggmkfinflnkgkij {mgi oqkljoonmnnhoikmnhj {mhn {mff 90-(>-; h *1410(1 |
  1
/+36,+r:&:r>++-6= {rn {rn {rn {mhm |
  1
):-+:' {rn {mhm {loo |
  1
:336/,:r<*-): {rn mqlnimhnomkiigffmi rloqmlnmohfnfihofli o o o n mfqj o o n V V |
  1
/061+ {rn mlqkgfnmljggimnimk rfqigfjljmfmfjkmkif o |
  1
<0:;8: {rn {lon {mhh {rn {lom 90-(>-; {no {rn |
  1
:;8: {lol {mfm o {lok mqj {mhh {loj 90-(>-; h *1410(1 |
  1
/+36,+r:&:r>++-6= {rn {rn {rn {mhg |
  1
):-+:' {rn {mfo {loi |
  1
:336/,:r<*-): {rn gqlljilnghkhigfhgk rmnqikikllioojhofl o o o n n o o n V V |
  1
/061+ {rn gqljlogkmgnmoimikk rmmqikimgnmfjhmhllk o |
  1
<0:;8: {rn {mgl {loh {rn {log 90-(>-; {no {rn |
  1
:;8: {lof {lno o {mfg hqlnihlolloflgiolk {mgl {lnn 90-(>-; h *1410(1 |
  1
/+36,+r:&:r>++-6= {rn {rn {rn {mgk |
  1
):-+:' {rn {mgk {lnm |
  1
:336/,:r<*-): {rn mjqgfkghggkgligfin rnfqmhkjogfnknhofml o o o n lqj o o n V V |
  1
/061+ {rn mfqoigfmmmofmohkhn rnhqhffjigiillgjhnl o |
  1
<0:;8: {rn {lnl {mgf {rn {lnk 90-(>-; {no {rn |
  1
:;8: {lnj {lok o {lni nqjggmkfinfmhihfhi {mgf {lnh 90-(>-; h *1410(1 |
  1
/+36,+r:&:r>++-6= {rn {rn {rn {mfo |
  1
):-+:' {rn {lom {lng |
  1
,+->687+r<*-): {rn fqlljilnghkhigfhgk rmnqikikllioojhofl o o n o V V |
  1
/061+ {rn fqlljilnghkhigfhgk rmnqikikllioojhofl o |
  1
<0:;8: {rn {mfj {lnf {rn {lmo -:):-,:; {no {rn |
  1
:;8: {lmn {lmm rlqnknjfmijljgfgoom {lno rnqjggmkfinfmhgjhng {mfj {lml 90-(>-; h *1410(1 |
  1
/+36,+r:&:r>++-6= {rn {rn {rn {mfi |
  1
):-+:' {rn {mfi {lmk |
  1
,+->687+r<*-): {rn ngqjngnhfkigligfh rmmqikimgnmfjihofnh o oqfffgkhifjnjikjlgf roqonhkjmkoiklliggfhh o V V |
  1
/061+ {rn mjqgllhfjkmjglgkki rmmqhhlfhjgkhmngmgn o |
  1
<0:;8: {rn {lmj {lon {rn {lmi -:):-,:; {no {rn |
  1
:;8: {lmh {lni o {lmg lqfnonolgfolmjnogi {lon {lmf 90-(>-; h *1410(1 |
  1
/+36,+r:&:r>++-6= {rn {rn {rn {lom |
  1
):-+:' {rn {lnk {llo |
  1
:336/,:r<*-): {rn gqlljilnghkhigfhgk rnfqnkikllioojhofl o o o n n o o n V V |
  1
/061+ {rn fqlljilnghkhigfhgk rnfqnkikllioojhofl o |
  1
<0:;8: {rn {loh {lln {rn {llm 90-(>-; {no {rn |
  1
:;8: {lll {lmm o {llk mqj {loh {llj 90-(>-; h *1410(1 |
  1
/+36,+r:&:r>++-6= {rn {rn {rn {log |
  1
):-+:' {rn {log {lli |
  1
:336/,:r<*-): {rn ngqjljilnghkhigffj rmnqikikllioojhofl o o o n n o o n V V |
  1
/061+ {rn ngqjngnhfkigligfh rmmqikimgnmfjihofnh o |
  1
<0:;8: {rn {llh {lnl {rn {llg -:):-,:; {no {rn |
  1
:;8: {llf {lko mqjiglifklnhkmijgi {lmg kqhmfgkmmhmfokikfi {lnl {lkn 90-(>-; h *1410(1 |
  1
/+36,+r:&:r>++-6= {rn {rn {rn {lnk |
  1
):-+:' {rn {lmi {lkm |
  1
,+->687+r<*-): {rn gqlngnhfkigligfgni rngqnkijgjfojlhofmh o roqfffgkhifjnjikmoif roqonhkjmkoikljjfgffj o V V |
  1
/061+ {rn gqlngnhfkigligfgni rngqnkijgjfojlhofmh o |
  1
<0:;8: {rn {lnf {lkl {rn {lkk -:):-,:; {no {rn |
  1
:;8: {lkj {lki nqjjllklolkmhkfjn {llk lqnknjfmijljgfgoom {lnf {lkh 90-(>-; h *1410(1 |
  1
/+36,+r:&:r>++-6= {rn {rn {rn {lmo |
  1
):-+:' {rn {lmo {lkg |
  1
,+->687+r<*-): {rn nhqjljilnghkhigffj rmnqikikllioojhofl o o n o V V |
  1
/061+ {rn nhqjljilnghkhigffj rmnqikikllioojhofl o |
  1
<0:;8: {rn {lkf {lmj {rn {ljo -:):-,:; {no {rn |
  1
:;8: {ljn {ljm mqmhikimkmlhlgmoon {lko mqjiglifklnhhkimgm {lmj {ljl 90-(>-; h *1410(1 |
  1
/+36,+r:&:r>++-6= {rn {rn {rn {lmi |
  1
):-+:' {rn {llg {ljk |
  1
:336/,:r<*-): {rn kqlfnmngiffligfhhm rnhqmnkfhgflmjhofnj o o o n n o o n V V |
  1
/061+ {rn kqkogihnnojgoimill rngqmnkgmiimhhmhlnf o |
  1
<0:;8: {rn {lln {ljj {rn {lji -:):-,:; {no {rn |
  1
:;8: {ljh {lki lqgohmfmijhhkhmfkj:ronn {ljg lqfnonolgfolinkog {lln {ljf 90-(>-; h *1410(1 |
  1
/+36,+r:&:r>++-6= {rn {rn {rn {llm |
  1
):-+:' {rn {llm {lio |
  1
:336/,:r<*-): {rn ngqjljilnghkhigffj rnfqnkikllioojhofl o o o n n o o n V V |
  1
/061+ {rn nhqjljilnghkhigffj rnfqnkikllioojhofl o |
  1
<0:;8: {rn {lin {llh {rn {lim -:):-,:; {no {rn |
  1
:;8: {lil {lik nqjhohfilmihfkfoon {ljm mqmhikimkmlhlinohn {llh {lij 90-(>-; h *1410(1 |
  1
/+36,+r:&:r>++-6= {rn {rn {rn {llg |
  1
):-+:' {rn {ljo {lii |
  1
:336/,:r<*-): {rn mkqjjkffmhmkgigfgn rloqmlnmohfnfihofli o o o n mj o o n V V |
  1
/061+ {rn lqjjnoinkkgmjmjlfg rniqihmiliojgollfjf o |
  1
<0:;8: {rn {lkl {lih {rn {lig -:):-,:; {no {rn |
  1
:;8: {lif {ljg rnqjggmkfinflhgjkli {lho oqjhlmmlmmngnjniklf {lkl {lhn 90-(>-; h *1410(1 |
  1
/+36,+r:&:r>++-6= {rn {rn {rn {lkk |
  1
):-+:' {rn {lkk {lhm |
  1
,+->687+r<*-): {rn ngqjjlogkmgnnigfik rngqnkijgjfojlhofmh o oqfffgkhifjnjikmoif roqonhkjmkoikljjfgffj o V V |
  1
/061+ {rn ngqjjlogkmgnmoimgm rngqnkijgjfojknkjmi o |
  1
<0:;8: {rn {lih {lkf {rn {lhl 90-(>-; {no {rn |
  1
:;8: {lhk {lhj o {lik mqj {lkf {lhi 90-(>-; h *1410(1 |
  1
/+36,+r:&:r>++-6= {rn {rn {rn {ljo |
  1
):-+:' {rn {lim {lhh |
  1
:336/,:r<*-): {rn noqfljilnghkhigfhl rnkqmkikllioojhofmk o o o n k o o n V V |
  1
/061+ {rn gqlknkihfollmmkihm rnnqmonhnkigmillojl o |
  1
<0:;8: {rn {ljj {lin {rn {lhg -:):-,:; {no {rn |
  1
:;8: {lhf {lho oqjhlmmlmmngnnhnifm {lgo oqgijnlommfgjligijf {ljj {lgn 90-(>-; h *1410(1 |
  1
/+36,+r:&:r>++-6= {rn {rn {rn {lji |
  1
):-+:' {rn {lji {lgm |
  1
:336/,:r<*-): {rn mmqkgookjojomigfgk rnhqmnkfhgflmjhofnj o o o n n o o n V V |
  1
/061+ {rn mmqkimjfmiklhigfhn rngqmnkgmiimhihofln o |
  1
:;8: {lgl {lhj o {lgk mqj {lin {lgj 90-(>-; h *1410(1 |
  1
/+36,+r:&:r>++-6= {rn {rn {rn {lim |
  1
):-+:' {rn {lhl {lgi |
  1
,+->687+r<*-): {rn nlqkljilnghkhigfhl rnoqmkikllioojhofmk o rn o o V V |
  1
/061+ {rn noqfljilnghkhigfhl rnoqmkikllioojhofmk o |
  1
:;8: {lgh {lgo oqgijnlommfgiihijmk {lgk nqjhohfilmihfkfoon {lih {lgg 90-(>-; h *1410(1 |
  1
/+36,+r:&:r>++-6= {rn {rn {rn {lig |
  1
):-+:' {rn {lig {lgf |
  1
:336/,:r<*-): {rn mqlnimhnomkiigffmi rloqmlnmohfnfihofli o o o n mj o o n V V |
  1
/061+ {rn mlqlmomomlonlllilh rniqihmiliojgnojklf o |
  1
/+36,+r:&:r>++-6= {rn {rn {rn {lhl |
  1
):-+:' {rn {lhg {lfo |
  1
,+->687+r<*-): {rn nlqkljilnghkhigfhl rnoqmkikllioojhofmk o n o o V V |
  1
/061+ {rn nlqkljilnghkhigfhl rnoqmkikllioojhofmk o |
  1
/+36,+r:&:r>++-6= {rn {rn {rn {lhg |
  1
:336/,:r<*-): {rn njqfljilnghkhigfhl rnkqmkikllioojhofmk o o o n k o o n V V |
  1
/061+ {rn ngqjmfhfjgkimofhof rnnqmonhnkigmjjfnjh o |
  1
/061+ {rn njqfljilnghkhigfhl rnoqmkikllioojhofmk o |
  0
LINE
  5
C7B6
330
1F
100
AcDbEntity
  8
Center of gravity_Schwerpunkt
100
AcDbLine
 10
33.17198067733215
 20
0.0
 30
0.0
 11
-56.83745791854983
 21
0.0
 31
0.0
  0
LINE
  5
C7B7
330
1F
100
AcDbEntity
  8
Center of gravity_Schwerpunkt
100
AcDbLine
 10
0.0
 20
26.72701226470906
 30
0.0
 11
0.0
 21
-27.28376263625875
 31
0.0
  0
DIMENSION
  5
C7B9
330
1F
100
AcDbEntity
  8
DIMENSION1_BEMAßUNG1
100
AcDbDimension
  2
*D6
 10
29.39487884836896
 20
55.28268194790519
 30
0.0
 11
-10.13474463843102
 21
58.53268194790519
 31
0.0
 70
    32
 71
     5
 42
79.05924697359998
  3
AM_DIN
100
AcDbAlignedDimension
 13
-49.66436812523102
 23
16.34744430522906
 33
0.0
 14
29.39487884836896
 24
-19.27450891417092
 34
0.0
100
AcDbRotatedDimension
  0
DIMENSION
  5
C7C6
330
1F
100
AcDbEntity
  8
DIMENSION1_BEMAßUNG1
100
AcDbDimension
  2
*D7
 10
55.04432324204287
 20
-22.7739758472183
 30
0.0
 11
51.53147875385391
 21
-1.21326577099462
 31
0.0
 70
    32
  1
43,2
 71
     5
 42
43.12142015244734
  3
AM_DIN
100
AcDbAlignedDimension
 13
-11.16436812523102
 23
20.34744430522906
 33
0.0
 14
25.83379542583844
 24
-22.77397584721829
 34
0.0
 50
90.0
100
AcDbRotatedDimension
1001
GENIUS_GENDTOL_13
1000

1000
h7
1000

1040
0.0
  0
DIMENSION
  5
C82F
330
1F
100
AcDbEntity
  8
DIMENSION2_BEMAßUNG2
100
AcDbDimension
  2
*D8
 10
-31.49606036784132
 20
-14.15255569477093
 30
0.0
 11
-34.74606036784132
 21
0.8474443052290597
 31
0.0
 70
    32
 71
     5
 42
29.99999999999999
  3
AM_DIN
100
AcDbAlignedDimension
 13
-31.16436812523102
 23
15.84744430522906
 33
0.0
 14
-10.16436812523102
 24
-14.15255569477094
 34
0.0
 50
90.0
100
AcDbRotatedDimension
  0
DIMENSION
  5
C83C
330
1F
100
AcDbEntity
  8
DIMENSION2_BEMAßUNG2
100
AcDbDimension
  2
*D9
 10
-24.26660591871064
 20
3.347444305229065
 30
0.0
 11
-27.51660591871064
 21
5.847444305229062
 31
0.0
 70
    32
 71
     5
 42
5.0
  3
AM_DIN
100
AcDbAlignedDimension
 13
-6.664368125231021
 23
8.347444305229061
 33
0.0
 14
-6.664368125231021
 24
3.347444305229061
 34
0.0
 50
90.0
100
AcDbRotatedDimension
  0
DIMENSION
  5
C84B
330
1F
100
AcDbEntity
  8
DIMENSION2_BEMAßUNG2
100
AcDbDimension
  2
*D10
 10
29.39487884836896
 20
-37.72198580206384
 30
0.0
 11
13.43563187476897
 21
-34.4707954355904
 31
0.0
 70
    32
 71
     5
 42
31.91849394719997
  3
AM_DIN
100
AcDbAlignedDimension
 13
-2.523615098831015
 23
-19.27450891417092
 33
0.0
 14
29.39487884836896
 24
-19.27450891417092
 34
0.0
100
AcDbRotatedDimension
  0
DIMENSION
  5
C858
330
1F
100
AcDbEntity
  8
DIMENSION2_BEMAßUNG2
100
AcDbDimension
  2
*D11
 10
0.9763849011689895
 20
-19.27450891417097
 30
0.0
 11
-21.13795824385818
 21
-37.50252866118194
 31
0.0
 70
   164
 71
     5
 42
3.499999999999971
  3
AM_DIN$4
100
AcDbRadialDimension
 15
-1.387330352008977
 25
-21.85575865061525
 35
0.0
 40
0.0
  0
DIMENSION
  5
C862
330
1F
100
AcDbEntity
  8
DIMENSION2_BEMAßUNG2
100
AcDbDimension
  2
*D12
 10
-10.16436812523102
 20
-12.15255569477094
 30
0.0
 11
-22.8943919224223
 21
-23.89617690833778
 31
0.0
 70
   164
 71
     5
 42
1.999999999999989
  3
AM_DIN$4
100
AcDbRadialDimension
 15
-11.38305700856357
 25
-13.73836697157585
 35
0.0
 40
0.0
  0
DIMENSION
  5
C86C
330
1F
100
AcDbEntity
  8
DIMENSION2_BEMAßUNG2
100
AcDbDimension
  2
*D13
 10
-7.66436812523102
 20
34.16565717226797
 30
0.0
 11
0.8356318747689799
 21
37.41565717226797
 31
0.0
 70
    32
 71
     5
 42
17.0
  3
AM_DIN
100
AcDbAlignedDimension
 13
9.335631874768978
 23
5.891658214129051
 33
0.0
 14
-7.664368125231021
 24
16.84744430522906
 34
0.0
100
AcDbRotatedDimension
  0
DIMENSION
  5
C879
330
1F
100
AcDbEntity
  8
DIMENSION2_BEMAßUNG2
100
AcDbDimension
  2
*D14
 10
13.43563187476897
 20
41.75339345461373
 30
0.0
 11
2.885631874768978
 21
45.0037379428027
 31
0.0
 70
    32
 71
     5
 42
21.09999999999999
  3
AM_DIN
100
AcDbAlignedDimension
 13
-7.664368125231021
 23
16.84744430522906
 33
0.0
 14
13.43563187476897
 24
-4.258341785870925
 34
0.0
100
AcDbRotatedDimension
  0
DIMENSION
  5
C886
330
1F
100
AcDbEntity
  8
DIMENSION2_BEMAßUNG2
100
AcDbDimension
  2
*D15
 10
-49.66436812523102
 20
41.75648518352818
 30
0.0
 11
-28.66436812523102
 21
45.00682967171716
 31
0.0
 70
    32
 71
     5
 42
42.0
  3
AM_DIN
100
AcDbAlignedDimension
 13
-7.664368125231021
 23
16.84744430522906
 33
0.0
 14
-49.66436812523102
 24
16.84744430522906
 34
0.0
100
AcDbRotatedDimension
  0
DIMENSION
  5
C894
330
1F
100
AcDbEntity
  8
DIMENSION2_BEMAßUNG2
100
AcDbDimension
  2
*D16
 10
-49.16436812523087
 20
16.34744430522904
 30
0.0
 11
-64.35273320796544
 21
4.651694313277285
 31
0.0
 70
   164
 71
     5
 42
0.5000000000001066
  3
AM_DIN$4
100
AcDbRadialDimension
 15
-49.48483625285863
 25
15.9636472505571
 35
0.0
 40
0.0
  0
DIMENSION
  5
C89E
330
1F
100
AcDbEntity
  8
DIMENSION2_BEMAßUNG2
100
AcDbDimension
  2
*D17
 10
-46.16436812523101
 20
16.84744430522914
 30
0.0
 11
-64.79732236529514
 21
30.64862990814186
 31
0.0
 70
   164
 71
     5
 42
3.499999999999943
  3
AM_DIN$4
100
AcDbRadialDimension
 15
-48.58454010241061
 25
19.37583660091316
 35
0.0
 40
0.0
  0
DIMENSION
  5
C8A8
330
1F
100
AcDbEntity
  8
DIMENSION2_BEMAßUNG2
100
AcDbDimension
  2
*D18
 10
-77.80153154868606
 20
20.34744430522907
 30
0.0
 11
-81.05153154868606
 21
29.54493167864434
 31
0.0
 70
    32
 71
     5
 42
4.5
  3
AM_DIN
100
AcDbAlignedDimension
 13
-49.16436812523102
 23
15.84744430522906
 33
0.0
 14
-46.16436812523104
 24
20.34744430522906
 34
0.0
 50
90.0
100
AcDbRotatedDimension
  0
DIMENSION
  5
C8B7
330
1F
100
AcDbEntity
  8
DIMENSION2_BEMAßUNG2
100
AcDbDimension
  2
*D19
 10
-11.16436812523102
 20
16.84744430522903
 30
0.0
 11
3.644390255978237
 21
25.40643369156681
 31
0.0
 70
   164
 71
     5
 42
3.500000000000014
  3
AM_DIN$4
100
AcDbRadialDimension
 15
-8.578148711300279
 25
19.20572103687183
 35
0.0
 40
0.0
  0
DIMENSION
  5
C8D0
330
1F
100
AcDbEntity
  8
DIMENSION2_BEMAßUNG2
100
AcDbDimension
  2
*D20
 10
41.49709252895241
 20
8.347444305229046
 30
0.0
 11
38.24674804076343
 21
14.34744430522905
 31
0.0
 70
    32
 71
     5
 42
11.99999999999999
  3
AM_DIN
100
AcDbAlignedDimension
 13
-11.16436812523103
 23
20.34744430522906
 33
0.0
 14
-6.664368125231021
 24
8.347444305229061
 34
0.0
 50
90.0
100
AcDbRotatedDimension
  0
DIMENSION
  5
C8E7
330
1F
100
AcDbEntity
  8
DIMENSION2_BEMAßUNG2
100
AcDbDimension
  2
*D21
 10
26.00115694366895
 20
-7.252387693170932
 30
0.0
 11
34.2462052643134
 21
-8.123850360348239
 31
0.0
 70
   164
 71
     5
 42
3.499999999999989
  3
AM_DIN$4
100
AcDbRadialDimension
 15
22.52054476123905
 25
-6.884503423976847
 35
0.0
 40
0.0
1001
ACAD
1000
DSTYLE
1002
{
1070
   279
1070
     1
1002
}
  0
TEXT
  5
C922
330
1F
100
AcDbEntity
  8
Center of gravity_Schwerpunkt
100
AcDbText
 10
1.555500983096749
 20
20.77243117208843
 30
0.0
 40
3.5
  1
Y
100
AcDbText
  0
TEXT
  5
C923
330
1F
100
AcDbEntity
  8
Center of gravity_Schwerpunkt
100
AcDbText
 10
36.06688295199489
 20
-0.7924044255995569
 30
0.0
 40
3.5
  1
X
100
AcDbText
  0
VIEWPORT
  5
3AD1
330
23
100
AcDbEntity
 67
     1
  8
0
100
AcDbViewport
 10
202.8507537841796
 20
141.3404116630554
 30
0.0
 40
444.3483441772461
 41
338.2509854020644
 68
     1
 69
     1
 12
202.8507537841796
 22
141.3404116630554
 13
0.0
 23
0.0
 14
10.0
 24
10.0
 15
10.0
 25
10.0
 16
0.0
 26
0.0
 36
1.0
 17
0.0
 27
0.0
 37
0.0
 42
50.0
 43
0.0
 44
0.0
 45
338.2509854020644
 50
0.0
 51
0.0
 72
  2000
 90
    32800
  1

281
     0
 71
     1
 74
     0
110
0.0
120
0.0
130
0.0
111
1.0
121
0.0
131
0.0
112
0.0
122
1.0
132
0.0
 79
     0
146
0.0
  0
ENDSEC
  0
SECTION
  2
OBJECTS
  0
DICTIONARY
  5
C
330
0
100
AcDbDictionary
281
     1
  3
ACAD_GROUP
350
D
  3
ACAD_LAYOUT
350
1A
  3
ACAD_MLINESTYLE
350
17
  3
ACAD_PLOTSETTINGS
350
19
  3
ACAD_PLOTSTYLENAME
350
E
  3
AcDbVariableDictionary
350
30
  3
AcmDictionary
350
4D
  3
AMG
350
3F
  3
AMGSNAPSETTINGS
350
6E
  3
DWGPROPS
350
C949
  0
DICTIONARY
  5
74
330
1F
100
AcDbDictionary
280
     1
281
     1
  3
ACAD_INDEX
360
C951
  0
DICTIONARY
  5
D
102
{ACAD_REACTORS
330
C
102
}
330
C
100
AcDbDictionary
281
     1
  0
DICTIONARY
  5
1A
102
{ACAD_REACTORS
330
C
102
}
330
C
100
AcDbDictionary
281
     1
  3
DIN A0
350
58C8
  3
DIN A1
350
5846
  3
DIN A2
350
4980
  3
DIN A3
350
26
  3
DIN A4
350
1E
  3
Model
350
22
  0
DICTIONARY
  5
17
102
{ACAD_REACTORS
330
C
102
}
330
C
100
AcDbDictionary
281
     1
  3
Standard
350
18
  0
DICTIONARY
  5
19
102
{ACAD_REACTORS
330
C
102
}
330
C
100
AcDbDictionary
281
     1
  0
ACDBDICTIONARYWDFLT
  5
E
102
{ACAD_REACTORS
330
C
102
}
330
C
100
AcDbDictionary
281
     1
  3
Normal
350
F
100
AcDbDictionaryWithDefault
340
F
  0
DICTIONARY
  5
30
102
{ACAD_REACTORS
330
C
102
}
330
C
100
AcDbDictionary
281
     1
  3
INDEXCTL
350
31
  3
SORTENTS
350
5A1B
  0
DICTIONARY
  5
4D
102
{ACAD_REACTORS
330
C
102
}
330
C
100
AcDbDictionary
281
     1
  3
AcmBOMDATA
350
4E
  3
AcmStdDictionary
350
5CA3
  0
DICTIONARY
  5
3F
102
{ACAD_REACTORS
330
C
102
}
330
C
100
AcDbDictionary
281
     1
  3
AcMgSettings
350
40
  3
AMGLAYCFG
350
42
  0
DICTIONARY
  5
6E
102
{ACAD_REACTORS
330
C
102
}
330
C
100
AcDbDictionary
281
     1
  3
DIMENSION
350
73
  3
FEA
350
72
  3
HATCH (1)
350
6F
  3
HATCH (2)
350
70
  3
SYMBOLS
350
71
  0
XRECORD
  5
C949
102
{ACAD_REACTORS
330
C
102
}
330
C
100
AcDbXrecord
280
     1
  1
DWGPROPS COOKIE
  2

  3

  4

  6

  7

  8

  9

300
AmdtFileType=84
301
=
302
=
303
=
304
=
305
=
306
=
307
=
308
=
309
=
 40
0.0217166203703704
 41
2452390.598370717
 42
2452391.441598599
  1

 90
        1
  0
DICTIONARY
  5
C951
102
{ACAD_REACTORS
330
74
102
}
330
74
100
AcDbDictionary
281
     1
  3
*A1
350
C952
  0
LAYOUT
  5
58C8
102
{ACAD_REACTORS
330
1A
102
}
330
1A
100
AcDbPlotSettings
  1

  2
\\RANTANPLAN\HP-750C-Plus
  4
User622
  6
AM_VIEW1
 40
3.174999952316284
 41
3.174999952316284
 42
3.17498779296875
 43
3.175048828125
 44
841.0
 45
1189.0
 46
0.0
 47
0.0
 48
0.0
 49
0.0
140
0.0
141
0.0
142
1.0
143
1.0
 70
   688
 72
     1
 73
     1
 74
     5
  7
Paletti_HP750.ctb
 75
     0
147
1.0
148
0.0
149
0.0
100
AcDbLayout
  1
DIN A0
 70
     1
 71
     5
 10
-3.175048828125
 20
-3.174999952316284
 11
1185.824951171875
 21
837.8250000476837
 12
0.0
 22
0.0
 32
0.0
 14
1.000000000000000E+20
 24
1.000000000000000E+20
 34
1.000000000000000E+20
 15
-1.000000000000000E+20
 25
-1.000000000000000E+20
 35
-1.000000000000000E+20
146
0.0
 13
0.0
 23
0.0
 33
0.0
 16
1.0
 26
0.0
 36
0.0
 17
0.0
 27
1.0
 37
0.0
 76
     0
330
58C7
331
58CE
  0
LAYOUT
  5
5846
102
{ACAD_REACTORS
330
1A
102
}
330
1A
100
AcDbPlotSettings
  1

  2
\\RANTANPLAN\HP-750C-Plus
  4
User1295
  6
AM_VIEW1
 40
4.995333194732666
 41
16.93330574035644
 42
4.99530029296875
 43
16.933349609375
 44
840.9093017578125
 45
593.8519897460937
 46
0.0
 47
0.0
 48
0.0
 49
0.0
140
0.0
141
0.0
142
1.0
143
1.0
 70
   688
 72
     1
 73
     0
 74
     5
  7
Paletti_HP750.ctb
 75
     0
147
1.0
148
0.0
149
0.0
100
AcDbLayout
  1
DIN A1
 70
     1
 71
     4
 10
-4.995333194732666
 20
-16.93330574035644
 11
835.9139685630799
 21
576.9186840057373
 12
0.0
 22
0.0
 32
0.0
 14
1.000000000000000E+20
 24
1.000000000000000E+20
 34
1.000000000000000E+20
 15
-1.000000000000000E+20
 25
-1.000000000000000E+20
 35
-1.000000000000000E+20
146
0.0
 13
0.0
 23
0.0
 33
0.0
 16
1.0
 26
0.0
 36
0.0
 17
0.0
 27
1.0
 37
0.0
 76
     0
330
5845
331
584C
  0
LAYOUT
  5
4980
102
{ACAD_REACTORS
330
1A
102
}
330
1A
100
AcDbPlotSettings
  1

  2
\\RANTANPLAN\HP-750C-Plus
  4
User1294
  6
AM_VIEW1
 40
4.995333194732666
 41
16.93333625793457
 42
4.99530029296875
 43
16.93331909179687
 44
593.9366455078125
 45
419.8619995117187
 46
0.0
 47
0.0
 48
0.0
 49
0.0
140
0.0
141
0.0
142
1.0
143
1.0
 70
   688
 72
     1
 73
     0
 74
     5
  7
Paletti_HP750.ctb
 75
     0
147
1.0
148
0.0
149
0.0
100
AcDbLayout
  1
DIN A2
 70
     0
 71
     3
 10
-4.995333194732666
 20
-16.93333625793457
 11
588.9413123130798
 21
402.9286632537841
 12
0.0
 22
0.0
 32
0.0
 14
1.000000000000000E+20
 24
1.000000000000000E+20
 34
1.000000000000000E+20
 15
-1.000000000000000E+20
 25
-1.000000000000000E+20
 35
-1.000000000000000E+20
146
0.0
 13
0.0
 23
0.0
 33
0.0
 16
1.0
 26
0.0
 36
0.0
 17
0.0
 27
1.0
 37
0.0
 76
     0
330
497F
331
4986
  0
LAYOUT
  5
26
102
{ACAD_REACTORS
330
1A
102
}
330
1A
100
AcDbPlotSettings
  1

  2
\\RANTANPLAN\HP-4V_EK
  4
A3
  6
AM_VIEW1
 40
7.143749713897705
 41
5.746753215789794
 42
7.18609619140625
 43
7.14373779296875
 44
296.9683227539062
 45
419.9889831542968
 46
0.0
 47
0.0
 48
0.0
 49
0.0
140
0.0
141
0.0
142
1.0
143
1.0
 70
   688
 72
     1
 73
     1
 74
     5
  7
Paletti_4V.ctb
 75
    16
147
1.0
148
0.0
149
0.0
100
AcDbLayout
  1
DIN A3
 70
     1
 71
     2
 10
-7.14373779296875
 20
-7.143749713897705
 11
412.8452453613281
 21
289.8245730400085
 12
0.0
 22
0.0
 32
0.0
 14
1.000000000000000E+20
 24
1.000000000000000E+20
 34
1.000000000000000E+20
 15
-1.000000000000000E+20
 25
-1.000000000000000E+20
 35
-1.000000000000000E+20
146
0.0
 13
0.0
 23
0.0
 33
0.0
 16
1.0
 26
0.0
 36
0.0
 17
0.0
 27
1.0
 37
0.0
 76
     0
330
23
331
3AD1
  0
LAYOUT
  5
1E
102
{ACAD_REACTORS
330
1A
102
}
330
1A
100
AcDbPlotSettings
  1

  2
\\RANTANPLAN\HP-4V_EK
  4
A4
  6
AM_VIEW1
 40
6.043083190917968
 41
6.762742042541503
 42
7.736419677734375
 43
5.027069091796875
 44
209.9733276367187
 45
296.9683227539062
 46
0.0
 47
0.0
 48
0.0
 49
0.0
140
0.0
141
0.0
142
1.0
143
1.0
 70
   688
 72
     1
 73
     0
 74
     5
  7
Paletti_4V.ctb
 75
     0
147
1.0
148
0.0
149
0.0
100
AcDbLayout
  1
DIN A4
 70
     1
 71
     1
 10
-6.043083190917968
 20
-6.762742042541503
 11
203.9302444458007
 21
290.2055807113647
 12
0.0
 22
0.0
 32
0.0
 14
1.000000000000000E+20
 24
1.000000000000000E+20
 34
1.000000000000000E+20
 15
-1.000000000000000E+20
 25
-1.000000000000000E+20
 35
-1.000000000000000E+20
146
0.0
 13
0.0
 23
0.0
 33
0.0
 16
1.0
 26
0.0
 36
0.0
 17
0.0
 27
1.0
 37
0.0
 76
     0
330
1B
331
8B
  0
LAYOUT
  5
22
102
{ACAD_REACTORS
330
1A
102
}
330
1A
100
AcDbPlotSettings
  1

  2
DWF ePlot.pc3
  4
ISO_expand_A3_(297.00_x_420.00_MM)
  6

 40
5.793749809265136
 41
10.79374980926513
 42
5.79376220703125
 43
10.79376220703125
 44
297.0
 45
420.0
 46
0.0
 47
16.55999999999999
 48
0.0
 49
0.0
140
0.0
141
0.0
142
1.0
143
0.4437370965306898
 70
 11964
 72
     1
 73
     1
 74
     0
  7
Paletti_4V.ctb
 75
     0
147
2.253586657095814
148
93.78745056233308
149
51.053152140664
100
AcDbLayout
  1
Model
 70
     1
 71
     0
 10
0.0
 20
0.0
 11
12.0
 21
9.0
 12
0.0
 22
0.0
 32
0.0
 14
0.0
 24
0.0
 34
0.0
 15
0.0
 25
0.0
 35
0.0
146
0.0
 13
0.0
 23
0.0
 33
0.0
 16
1.0
 26
0.0
 36
0.0
 17
0.0
 27
1.0
 37
0.0
 76
     0
330
1F
  0
MLINESTYLE
  5
18
102
{ACAD_REACTORS
330
17
102
}
330
17
100
AcDbMlineStyle
  2
STANDARD
 70
     0
  3

 62
   256
 51
90.0
 52
90.0
 71
     2
 49
0.5
 62
   256
  6
BYLAYER
 49
-0.5
 62
   256
  6
BYLAYER
  0
ACDBPLACEHOLDER
  5
F
102
{ACAD_REACTORS
330
E
102
}
330
E
  0
DICTIONARYVAR
  5
31
102
{ACAD_REACTORS
330
30
102
}
330
30
100
DictionaryVariables
280
     0
  1
1
  0
DICTIONARYVAR
  5
5A1B
102
{ACAD_REACTORS
330
30
102
}
330
30
100
DictionaryVariables
280
     0
  1
96
  0
DICTIONARY
  5
5CA3
102
{ACAD_REACTORS
330
4D
102
}
330
4D
100
AcDbDictionary
281
     1
  3
DIN
350
5CA4
  0
DICTIONARY
  5
40
102
{ACAD_REACTORS
330
3F
102
}
330
3F
100
AcDbDictionary
281
     1
  3
AMG_PM_SETTINGS
350
8C
  3
Dimension
350
58
  3
DWGSETTINGS
350
41
  3
FEM
350
69
  3
Shaft
350
57
  3
TRANSSETTINGS
350
4C
  0
ACAMGFILTERDAT
  5
73
102
{ACAD_REACTORS
330
6E
102
}
330
6E
100
AcAmgFilterDat
 70
    15
  1
DIMENSION,AMDT_*_DIM
  2
*
  3
*
  4
*
  5
*
290
     1
  0
ACAMGFILTERDAT
  5
72
102
{ACAD_REACTORS
330
6E
102
}
330
6E
100
AcAmgFilterDat
 70
    15
  1
*
  2
AM_FEA-AM_*
  3
*
  4
*
  5
*
290
     1
  0
ACAMGFILTERDAT
  5
6F
102
{ACAD_REACTORS
330
6E
102
}
330
6E
100
AcAmgFilterDat
 70
    15
  1
HATCH
  2
*
  3
*
  4
*
  5
*
290
     1
  0
ACAMGFILTERDAT
  5
70
102
{ACAD_REACTORS
330
6E
102
}
330
6E
100
AcAmgFilterDat
 70
    15
  1
LINE
  2
8,8N,*-8,*-8N,AM_8,AM_8N,*-AM_8,*-AM_8N
  3
*
  4
*
  5
INSERT,STDPART2D
290
     1
  0
ACAMGFILTERDAT
  5
71
102
{ACAD_REACTORS
330
6E
102
}
330
6E
100
AcAmgFilterDat
 70
    15
  1
ACMFCFRAME,ACMDATUMTARGET,ACMDATUMID,ACMWELDSYM,ACMSURFSYM,ACMFEATID,ACMPARTREF,ACMBALLOON,AMDTEDGESYM
  2
*
  3
*
  4
*
  5
*
290
     1
  0
LAYER_INDEX
  5
C952
102
{ACAD_REACTORS
330
C951
102
}
330
C951
100
AcDbIndex
 40
2452499.456618148
100
AcDbLayerIndex
  8
0
360
C953
 90
        0
  8
2D_Profile
360
C954
 90
        1
  8
Center of gravity_Schwerpunkt
360
C955
 90
        4
  8
DIMENSION2_BEMAßUNG2
360
C956
 90
       14
  8
Defpoints
360
C957
 90
        0
  8
DIMENSION1_BEMAßUNG1
360
C958
 90
        2
  0
IDBUFFER
  5
C953
330
0
100
AcDbIdBuffer
  0
IDBUFFER
  5
C954
330
0
100
AcDbIdBuffer
330
C7B4
  0
IDBUFFER
  5
C955
330
0
100
AcDbIdBuffer
330
C7B6
330
C7B7
330
C922
330
C923
  0
IDBUFFER
  5
C956
330
0
100
AcDbIdBuffer
330
C82F
330
C83C
330
C84B
330
C858
330
C862
330
C86C
330
C879
330
C886
330
C894
330
C89E
330
C8A8
330
C8B7
330
C8D0
330
C8E7
  0
IDBUFFER
  5
C957
330
0
100
AcDbIdBuffer
  0
IDBUFFER
  5
C958
330
0
100
AcDbIdBuffer
330
C7B9
330
C7C6
  0
ENDSEC
  0
EOF
