  0
SECTION
  2
HEADER
  9
$ACADVER
  1
AC1015
  9
$ACADMAINTVER
 70
    20
  9
$DWGCODEPAGE
  3
ANSI_1252
  9
$INSBASE
 10
0.0
 20
0.0
 30
0.0
  9
$EXTMIN
 10
-44.7731176689617
 20
-130.3664290725367
 30
0.0
  9
$EXTMAX
 10
50.96170730577068
 20
59.9778129948244
 30
0.0
  9
$LIMMIN
 10
0.0
 20
0.0
  9
$LIMMAX
 10
210.0
 20
297.0
  9
$ORTHOMODE
 70
     1
  9
$REGENMODE
 70
     1
  9
$FILLMODE
 70
     1
  9
$QTEXTMODE
 70
     0
  9
$MIRRTEXT
 70
     1
  9
$LTSCALE
 40
1.0
  9
$ATTMODE
 70
     1
  9
$TEXTSIZE
 40
2.5
  9
$TRACEWID
 40
1.0
  9
$TEXTSTYLE
  7
STANDARD
  9
$CLAYER
  8
Dimension2_Bemaßung2
  9
$CELTYPE
  6
BYLAYER
  9
$CECOLOR
 62
   256
  9
$CELTSCALE
 40
1.0
  9
$DISPSILH
 70
     1
  9
$DIMSCALE
 40
1.0
  9
$DIMASZ
 40
2.0
  9
$DIMEXO
 40
0.0
  9
$DIMDLI
 40
0.0
  9
$DIMRND
 40
0.0
  9
$DIMDLE
 40
0.0
  9
$DIMEXE
 40
1.5
  9
$DIMTP
 40
0.05
  9
$DIMTM
 40
0.05
  9
$DIMTXT
 40
3.5
  9
$DIMCEN
 40
-2.5
  9
$DIMTSZ
 40
0.0
  9
$DIMTOL
 70
     0
  9
$DIMLIM
 70
     0
  9
$DIMTIH
 70
     0
  9
$DIMTOH
 70
     0
  9
$DIMSE1
 70
     0
  9
$DIMSE2
 70
     0
  9
$DIMTAD
 70
     1
  9
$DIMZIN
 70
     8
  9
$DIMBLK
  1

  9
$DIMASO
 70
     1
  9
$DIMSHO
 70
     1
  9
$DIMPOST
  1

  9
$DIMAPOST
  1

  9
$DIMALT
 70
     0
  9
$DIMALTD
 70
     2
  9
$DIMALTF
 40
25.4
  9
$DIMLFAC
 40
1.0
  9
$DIMTOFL
 70
     1
  9
$DIMTVP
 40
0.0
  9
$DIMTIX
 70
     0
  9
$DIMSOXD
 70
     0
  9
$DIMSAH
 70
     0
  9
$DIMBLK1
  1

  9
$DIMBLK2
  1

  9
$DIMSTYLE
  2
PALETTI
  9
$DIMCLRD
 70
   256
  9
$DIMCLRE
 70
   256
  9
$DIMCLRT
 70
   256
  9
$DIMTFAC
 40
0.5
  9
$DIMGAP
 40
0.4
  9
$DIMJUST
 70
     0
  9
$DIMSD1
 70
     0
  9
$DIMSD2
 70
     0
  9
$DIMTOLJ
 70
     2
  9
$DIMTZIN
 70
     8
  9
$DIMALTZ
 70
     0
  9
$DIMALTTZ
 70
     0
  9
$DIMUPT
 70
     1
  9
$DIMDEC
 70
     1
  9
$DIMTDEC
 70
     2
  9
$DIMALTU
 70
     2
  9
$DIMALTTD
 70
     2
  9
$DIMTXSTY
  7
STANDARD
  9
$DIMAUNIT
 70
     0
  9
$DIMADEC
 70
     0
  9
$DIMALTRND
 40
0.0
  9
$DIMAZIN
 70
     0
  9
$DIMDSEP
 70
    46
  9
$DIMATFIT
 70
     3
  9
$DIMFRAC
 70
     0
  9
$DIMLDRBLK
  1

  9
$DIMLUNIT
 70
     2
  9
$DIMLWD
 70
    -2
  9
$DIMLWE
 70
    -2
  9
$DIMTMOVE
 70
     0
  9
$LUNITS
 70
     2
  9
$LUPREC
 70
     4
  9
$SKETCHINC
 40
1.0
  9
$FILLETRAD
 40
1.5
  9
$AUNITS
 70
     0
  9
$AUPREC
 70
     0
  9
$MENU
  1
acad
  9
$ELEVATION
 40
0.0
  9
$PELEVATION
 40
0.0
  9
$THICKNESS
 40
0.0
  9
$LIMCHECK
 70
     0
  9
$CHAMFERA
 40
10.0
  9
$CHAMFERB
 40
10.0
  9
$CHAMFERC
 40
0.0
  9
$CHAMFERD
 40
0.0
  9
$SKPOLY
 70
     0
  9
$TDCREATE
 40
2452894.640651621
  9
$TDUCREATE
 40
2452894.557318287
  9
$TDUPDATE
 40
2453298.372834618
  9
$TDUUPDATE
 40
2453298.289501285
  9
$TDINDWG
 40
0.1905830440
  9
$TDUSRTIMER
 40
0.1905828125
  9
$USRTIMER
 70
     1
  9
$ANGBASE
 50
0.0
  9
$ANGDIR
 70
     0
  9
$PDMODE
 70
     0
  9
$PDSIZE
 40
0.0
  9
$PLINEWID
 40
0.0
  9
$SPLFRAME
 70
     0
  9
$SPLINETYPE
 70
     6
  9
$SPLINESEGS
 70
     8
  9
$HANDSEED
  5
2FCE
  9
$SURFTAB1
 70
     6
  9
$SURFTAB2
 70
     6
  9
$SURFTYPE
 70
     6
  9
$SURFU
 70
     6
  9
$SURFV
 70
     6
  9
$UCSBASE
  2

  9
$UCSNAME
  2

  9
$UCSORG
 10
0.0
 20
0.0
 30
0.0
  9
$UCSXDIR
 10
1.0
 20
0.0
 30
0.0
  9
$UCSYDIR
 10
0.0
 20
1.0
 30
0.0
  9
$UCSORTHOREF
  2

  9
$UCSORTHOVIEW
 70
     0
  9
$UCSORGTOP
 10
0.0
 20
0.0
 30
0.0
  9
$UCSORGBOTTOM
 10
0.0
 20
0.0
 30
0.0
  9
$UCSORGLEFT
 10
0.0
 20
0.0
 30
0.0
  9
$UCSORGRIGHT
 10
0.0
 20
0.0
 30
0.0
  9
$UCSORGFRONT
 10
0.0
 20
0.0
 30
0.0
  9
$UCSORGBACK
 10
0.0
 20
0.0
 30
0.0
  9
$PUCSBASE
  2

  9
$PUCSNAME
  2

  9
$PUCSORG
 10
0.0
 20
0.0
 30
0.0
  9
$PUCSXDIR
 10
1.0
 20
0.0
 30
0.0
  9
$PUCSYDIR
 10
0.0
 20
1.0
 30
0.0
  9
$PUCSORTHOREF
  2

  9
$PUCSORTHOVIEW
 70
     0
  9
$PUCSORGTOP
 10
0.0
 20
0.0
 30
0.0
  9
$PUCSORGBOTTOM
 10
0.0
 20
0.0
 30
0.0
  9
$PUCSORGLEFT
 10
0.0
 20
0.0
 30
0.0
  9
$PUCSORGRIGHT
 10
0.0
 20
0.0
 30
0.0
  9
$PUCSORGFRONT
 10
0.0
 20
0.0
 30
0.0
  9
$PUCSORGBACK
 10
0.0
 20
0.0
 30
0.0
  9
$USERI1
 70
     0
  9
$USERI2
 70
     0
  9
$USERI3
 70
     0
  9
$USERI4
 70
     0
  9
$USERI5
 70
     0
  9
$USERR1
 40
0.0
  9
$USERR2
 40
0.0
  9
$USERR3
 40
0.0
  9
$USERR4
 40
0.0
  9
$USERR5
 40
0.0
  9
$WORLDVIEW
 70
     1
  9
$SHADEDGE
 70
     3
  9
$SHADEDIF
 70
    70
  9
$TILEMODE
 70
     1
  9
$MAXACTVP
 70
    16
  9
$PINSBASE
 10
0.0
 20
0.0
 30
0.0
  9
$PLIMCHECK
 70
     0
  9
$PEXTMIN
 10
1.000000000000000E+20
 20
1.000000000000000E+20
 30
1.000000000000000E+20
  9
$PEXTMAX
 10
-1.000000000000000E+20
 20
-1.000000000000000E+20
 30
-1.000000000000000E+20
  9
$PLIMMIN
 10
-6.350006103515625
 20
-6.349999904632568
  9
$PLIMMAX
 10
273.0499877929688
 20
209.5499939918518
  9
$UNITMODE
 70
     0
  9
$VISRETAIN
 70
     0
  9
$PLINEGEN
 70
     0
  9
$PSLTSCALE
 70
     1
  9
$TREEDEPTH
 70
  3020
  9
$CMLSTYLE
  2
STANDARD
  9
$CMLJUST
 70
     0
  9
$CMLSCALE
 40
1.0
  9
$PROXYGRAPHICS
 70
     1
  9
$MEASUREMENT
 70
     1
  9
$CELWEIGHT
370
    -1
  9
$ENDCAPS
280
     0
  9
$JOINSTYLE
280
     0
  9
$LWDISPLAY
290
     0
  9
$INSUNITS
 70
     0
  9
$HYPERLINKBASE
  1

  9
$STYLESHEET
  1
Paletti_HP750.ctb
  9
$XEDIT
290
     1
  9
$CEPSNTYPE
380
     0
  9
$PSTYLEMODE
290
     1
  9
$FINGERPRINTGUID
  2
{052BE433-8EBC-11D4-B0AB-0050BAC184D1}
  9
$VERSIONGUID
  2
{BD03DD3C-A815-4A84-AD33-0668FF520532}
  9
$EXTNAMES
290
     1
  9
$PSVPSCALE
 40
0.0
  9
$OLESTARTUP
290
     0
  0
ENDSEC
  0
SECTION
  2
CLASSES
  0
CLASS
  1
ACMESTATEMGR
  2
AcMeStateMgr
  3
AcMeServices
 90
        0
280
     0
281
     0
  0
CLASS
  1
ACMESCOPE
  2
AcMeScope
  3
AcMeServices
 90
        0
280
     0
281
     0
  0
CLASS
  1
ACMECOMMANDHISTORY
  2
AcMeCommandHistory
  3
AcMeServices
 90
        0
280
     0
281
     0
  0
CLASS
  1
ACRFINSADJUSTERMGR
  2
AcRfInsAdjusterMgr
  3
AcMeServices
 90
        0
280
     0
281
     0
  0
CLASS
  1
ACMEDRAWINGMAN
  2
AcMeDrawingMan
  3
AcMeServices
 90
        0
280
     0
281
     0
  0
CLASS
  1
AMATTR
  2
AcMeAttribute
  3
AcMeServices
 90
    32768
280
     0
281
     0
  0
CLASS
  1
ACMEBOMCOLUMN
  2
AcMeBOMColumn
  3
AcMeServices
 90
    32768
280
     0
281
     0
  0
CLASS
  1
ACMEBOMCONF
  2
AcMeBOMConf
  3
AcMeServices
 90
    32768
280
     0
281
     0
  0
CLASS
  1
ACMEBOMTABLE
  2
AcMeBOMTable
  3
AcMeServices
 90
    32768
280
     0
281
     0
  0
CLASS
  1
ACMEBOMENTRY
  2
AcMeBOMEntry
  3
AcMeServices
 90
    32768
280
     0
281
     0
  0
CLASS
  1
ACMEVIEW
  2
AcMeView
  3
AcMeServices
 90
    32768
280
     0
281
     0
  0
CLASS
  1
ACGREFMASTER
  2
AcGrefMaster
  3
AcAttribServices
 90
        0
280
     0
281
     0
  0
CLASS
  1
AMIMASTER
  2
AmiMaster
  3
AmiServices
 90
        0
280
     0
281
     0
  0
CLASS
  1
ACASGREFMASTER
  2
AcAsGrefMaster
  3
AutoSurfResolverServices
 90
        0
280
     0
281
     0
  0
CLASS
  1
ADAPPL
  2
AcAdAppl
  3
DesignerServices
 90
        0
280
     0
281
     0
  0
CLASS
  1
DEPMGR
  2
AcAdDepMgr
  3
DesignerServices
 90
        0
280
     0
281
     0
  0
CLASS
  1
PARAMMGR
  2
AcAdParamMgr
  3
DesignerServices
 90
        0
280
     0
281
     0
  0
CLASS
  1
PARAMSCOPE
  2
AcAdParamScope
  3
DesignerServices
 90
        0
280
     0
281
     0
  0
CLASS
  1
ACIMSYSVARMAN
  2
AcImSysVarManager
  3
AcMeServices
 90
        0
280
     0
281
     0
  0
CLASS
  1
ACIMINTSYSVAR
  2
AcImIntSysVar
  3
AcMeServices
 90
        0
280
     0
281
     0
  0
CLASS
  1
ACIMREALSYSVAR
  2
AcImRealSysVar
  3
AcMeServices
 90
        0
280
     0
281
     0
  0
CLASS
  1
ACIMSTRSYSVAR
  2
AcImStrSysVar
  3
AcMeServices
 90
        0
280
     0
281
     0
  0
CLASS
  1
NAMEDAPPL
  2
AcAdNamedAppl
  3
DesignerServices
 90
        0
280
     0
281
     0
  0
CLASS
  1
ADHNTMPLT
  2
AdHoleNoteTemplateMgr
  3
DesignerServices
 90
    32768
280
     0
281
     0
  0
CLASS
  1
AM_HNTEMPLATE_MGR_NAME
  2
AdHoleNoteTemplateMgrName
  3
DesignerServices
 90
    32768
280
     0
281
     0
  0
CLASS
  1
ACADGREFMODULE
  2
AcAdGrefModule
  3
AdGrefServices
 90
        0
280
     0
281
     0
  0
CLASS
  1
AM_DRAWING_MGR
  2
AcDmDwgMgr
  3
AcMechDwgViewMgmt
 90
        0
280
     0
281
     0
  0
CLASS
  1
AM_DWG_DOCUMENT
  2
AcDmDwgDocument
  3
AcMechDwgViewMgmt
 90
        0
280
     0
281
     0
  0
CLASS
  1
AM_DWG_SHEET
  2
AcDmSheet
  3
AcMechDwgViewMgmt
 90
        0
280
     0
281
     0
  0
CLASS
  1
AM_VIEWDIMPARMAP
  2
AcDmViewDimParMap
  3
AcMechDwgViewMgmt
 90
        0
280
     0
281
     0
  0
CLASS
  1
AM_DWGMGR_NAME
  2
AcDmDwgMgrName
  3
AcMechDwgViewMgmt
 90
        0
280
     0
281
     0
  0
CLASS
  1
ACAMPROJECT
  2
AcAmProject
  3
DesignerAssemblies
 90
        0
280
     0
281
     0
  0
CLASS
  1
ACAMGRCOMPSET
  2
AcAmGrCompSet
  3
DesignerAssemblies
 90
    32768
280
     0
281
     0
  0
CLASS
  1
ACAMGRCOMPDEFSET
  2
AcAmGrCompDefSet
  3
DesignerAssemblies
 90
        0
280
     0
281
     0
  0
CLASS
  1
ACAMGRCOMPDEF
  2
AcAmGrCompDef
  3
DesignerAssemblies
 90
        0
280
     0
281
     0
  0
CLASS
  1
ACCMCONTEXT
  2
AcCmContext
  3
DesignerAssemblies
 90
        0
280
     0
281
     0
  0
CLASS
  1
ACAMCOMPDEF
  2
AcAmCompDef
  3
DesignerAssemblies
 90
        0
280
     0
281
     0
  0
CLASS
  1
ACAMCOMPDEFMGR
  2
AcAmCompDefMgr
  3
DesignerAssemblies
 90
        0
280
     0
281
     0
  0
CLASS
  1
AMCONTEXTMGR
  2
AcAmContextMgr
  3
DesignerAssemblies
 90
        0
280
     0
281
     0
  0
CLASS
  1
ACAMCONTEXTMODELER
  2
AcAmContextModeler
  3
DesignerAssemblies
 90
        0
280
     0
281
     0
  0
CLASS
  1
ACDMVIEWGEOM
  2
AcDmViewGeometry
  3
AcMechDwgViewMgmt
 90
        0
280
     0
281
     1
  0
CLASS
  1
CBROWSERAPPOBJECT
  2
CBrowserAppObject
  3
McadcomServices
 90
        0
280
     0
281
     0
  0
CLASS
  1
IM_STATIC_MAN
  2
AcImStaticVarManager
  3
AcMeServices
 90
        0
280
     0
281
     0
  0
CLASS
  1
ASAPP
  2
AcAsAppObject
  3
AutoSurfServices
 90
        0
280
     0
281
     0
  0
CLASS
  1
ACIMDBLSTATICVAR
  2
AcImDblStaticVar
  3
AcMeServices
 90
        0
280
     0
281
     0
  0
CLASS
  1
ACIMSTRSTATICVAR
  2
AcImStrStaticVar
  3
AcMeServices
 90
        0
280
     0
281
     0
  0
CLASS
  1
ACIMINTSTATICVAR
  2
AcImIntStaticVar
  3
AcMeServices
 90
        0
280
     0
281
     0
  0
CLASS
  1
CATALOGSTATE
  2
AcAmCatalogState
  3
DesignerAssemblies
 90
        0
280
     0
281
     0
  0
CLASS
  1
DM_PLACEHOLDER
  2
AcDmSelsetPlaceholder
  3
AcMechDwgViewMgmt
 90
        0
280
     0
281
     0
  0
CLASS
  1
DICTIONARYVAR
  2
AcDbDictionaryVar
  3
ObjectDBX Classes
 90
        0
280
     0
281
     0
  0
CLASS
  1
"COMPDEFATTRARRAY"
  2
CompDefAttr
  3
"GE314"
 90
    32769
280
     0
281
     0
  0
CLASS
  1
AGDICTIONARY
  2
AgDictionary
  3
"AccelView"
 90
    32769
280
     0
281
     0
  0
CLASS
  1
LAYER_INDEX
  2
AcDbLayerIndex
  3
ObjectDBX Classes
 90
        0
280
     0
281
     0
  0
CLASS
  1
IDBUFFER
  2
AcDbIdBuffer
  3
ObjectDBX Classes
 90
        0
280
     0
281
     0
  0
CLASS
  1
ACMSTANDARDJIS
  2
AcmStandardJIS
  3
"Amdt_StdImp|Product Description: AutoCAD Mechanical 2004 DX|Company: Autodesk"
 90
        0
280
     0
281
     0
  0
CLASS
  1
ACMSTANDARDANSI
  2
AcmStandardANSI
  3
"Amdt_StdImp|Product Description: AutoCAD Mechanical 2004 DX|Company: Autodesk"
 90
        0
280
     0
281
     0
  0
CLASS
  1
ACMSTANDARDBSI
  2
AcmStandardBSI
  3
"Amdt_StdImp|Product Description: AutoCAD Mechanical 2004 DX|Company: Autodesk"
 90
        0
280
     0
281
     0
  0
CLASS
  1
ACMSTANDARDDIN
  2
AcmStandardDIN
  3
"Amdt_StdImp|Product Description: AutoCAD Mechanical 2004 DX|Company: Autodesk"
 90
        0
280
     0
281
     0
  0
CLASS
  1
ACMSTANDARDISO
  2
AcmStandardISO
  3
"Amdt_StdImp|Product Description: AutoCAD Mechanical 2004 DX|Company: Autodesk"
 90
        0
280
     0
281
     0
  0
CLASS
  1
ACRFATTGENMGR
  2
AcRfAttGeneralMgr
  3
AcAttribServices
 90
    32768
280
     0
281
     0
  0
CLASS
  1
ACDBDICTIONARYWDFLT
  2
AcDbDictionaryWithDefault
  3
ObjectDBX Classes
 90
        0
280
     0
281
     0
  0
CLASS
  1
ACDBPLACEHOLDER
  2
AcDbPlaceHolder
  3
ObjectDBX Classes
 90
        0
280
     0
281
     0
  0
CLASS
  1
LAYOUT
  2
AcDbLayout
  3
ObjectDBX Classes
 90
        0
280
     0
281
     0
  0
CLASS
  1
ACME_DOCUMENT
  2
AcMeDbDoc
  3
AcMeServices
 90
        0
280
     0
281
     0
  0
CLASS
  1
AMGSETTINGSOBJ
  2
AmgSettingsObj
  3
"AcadM|Product Description: AutoCAD Mechanical 2000|Company: Autodesk"
 90
        0
280
     0
281
     0
  0
CLASS
  1
AMGOBJPROPCFG
  2
AmgObjPropCfg
  3
"AmgLay|Product Description: AutoCAD Mechanical 2000|Company: Autodesk"
 90
        1
280
     0
281
     0
  0
CLASS
  1
ACDBENTITYCACHE
  2
AcMeEntityCache
  3
AcMeServices
 90
        0
280
     0
281
     0
  0
CLASS
  1
GSMANAGER
  2
AcMeGSManager
  3
AcMeServices
 90
        0
280
     0
281
     0
  0
CLASS
  1
AMDTINTERNALREACTOR
  2
AmdtInternalReactor
  3
AcMeServices
 90
        0
280
     0
281
     0
  0
CLASS
  1
ACME_DATABASE
  2
AcMeDbDatabase
  3
AcMeServices
 90
        0
280
     0
281
     0
  0
CLASS
  1
ACGREFACADMASTER
  2
AcGrefacadMaster
  3
AcGrefServices
 90
        0
280
     0
281
     0
  0
CLASS
  1
AMDTMENUSTATEMGR
  2
AmdtMenuStateMgr
  3
McadcomServices
 90
        0
280
     0
281
     0
  0
CLASS
  1
AMDTMCOMMENUSTATE
  2
AmdtMcomMenuState
  3
McadcomServices
 90
        0
280
     0
281
     0
  0
CLASS
  1
MAPIAMMOUDLE
  2
MApiAmModule
  3
MApiAmServices
 90
        0
280
     0
281
     0
  0
CLASS
  1
AMDTDMMENUSTATE
  2
AmdtDmMenuState
  3
AcMechDwgViewMgmt
 90
        0
280
     0
281
     0
  0
CLASS
  1
AMDTADMENUSTATE
  2
AmdtAdMenuState
  3
DesignerServices
 90
        0
280
     0
281
     0
  0
CLASS
  1
AMDTAMMENUSTATE
  2
AmdtAmMenuState
  3
DesignerAssemblies
 90
        0
280
     0
281
     0
  0
CLASS
  1
MAPIADMODULE
  2
MApiAdModule
  3
MApiAdServices
 90
        0
280
     0
281
     0
  0
CLASS
  1
ACMDATADICTIONARY
  2
AcmDataDictionary
  3
"AcmSymBB|Product Description: AutoCAD Mechanical 2004 DX|Company: Autodesk"
 90
        0
280
     0
281
     0
  0
CLASS
  1
ACMDATAENTRYBLOCK
  2
AcmDataEntryBlock
  3
"AcmSymBB|Product Description: AutoCAD Mechanical 2004 DX|Company: Autodesk"
 90
        0
280
     0
281
     0
  0
CLASS
  1
ACMSURFSTANDARDJIS
  2
AcmSurfTextStdJIS
  3
"Amdt_StdImp|Product Description: AutoCAD Mechanical 2004 DX|Company: Autodesk"
 90
        0
280
     0
281
     0
  0
CLASS
  1
ACMFCFSTANDARDJIS
  2
AcmFCFStdJIS
  3
"Amdt_StdImp|Product Description: AutoCAD Mechanical 2004 DX|Company: Autodesk"
 90
        0
280
     0
281
     0
  0
CLASS
  1
ACMWELDSTANDARDJIS
  2
AcmWeldingStdJIS
  3
"Amdt_StdImp|Product Description: AutoCAD Mechanical 2004 DX|Company: Autodesk"
 90
        0
280
     0
281
     0
  0
CLASS
  1
ACMIDSTANDARDJIS
  2
AcmIdStdJIS
  3
"Amdt_StdImp|Product Description: AutoCAD Mechanical 2004 DX|Company: Autodesk"
 90
        0
280
     0
281
     0
  0
CLASS
  1
ACMDATUMSTANDARDJIS
  2
AcmDatumStdJIS
  3
"Amdt_StdImp|Product Description: AutoCAD Mechanical 2004 DX|Company: Autodesk"
 90
        0
280
     0
281
     0
  0
CLASS
  1
ACMBOMSTANDARDJIS
  2
AcmBOMStdJIS
  3
"Amdt_StdImp|Product Description: AutoCAD Mechanical 2004 DX|Company: Autodesk"
 90
        0
280
     0
281
     0
  0
CLASS
  1
ACMSURFSTANDARDANSI
  2
AcmSurfTextStdANSI
  3
"Amdt_StdImp|Product Description: AutoCAD Mechanical 2004 DX|Company: Autodesk"
 90
        0
280
     0
281
     0
  0
CLASS
  1
ACMFCFSTANDARDANSI
  2
AcmFCFStdANSI
  3
"Amdt_StdImp|Product Description: AutoCAD Mechanical 2004 DX|Company: Autodesk"
 90
        0
280
     0
281
     0
  0
CLASS
  1
ACMWELDSTANDARDANSI
  2
AcmWeldingStdANSI
  3
"Amdt_StdImp|Product Description: AutoCAD Mechanical 2004 DX|Company: Autodesk"
 90
        0
280
     0
281
     0
  0
CLASS
  1
ACMIDSTANDARDANSI
  2
AcmIdStdANSI
  3
"Amdt_StdImp|Product Description: AutoCAD Mechanical 2004 DX|Company: Autodesk"
 90
        0
280
     0
281
     0
  0
CLASS
  1
ACMDATUMSTANDARDANSI
  2
AcmDatumStdANSI
  3
"Amdt_StdImp|Product Description: AutoCAD Mechanical 2004 DX|Company: Autodesk"
 90
        0
280
     0
281
     0
  0
CLASS
  1
ACMBOMSTANDARDANSI
  2
AcmBOMStdANSI
  3
"Amdt_StdImp|Product Description: AutoCAD Mechanical 2004 DX|Company: Autodesk"
 90
        0
280
     0
281
     0
  0
CLASS
  1
ACMSURFSTANDARDBSI
  2
AcmSurfTextStdBSI
  3
"Amdt_StdImp|Product Description: AutoCAD Mechanical 2004 DX|Company: Autodesk"
 90
        0
280
     0
281
     0
  0
CLASS
  1
ACMFCFSTANDARDBSI
  2
AcmFCFStdBSI
  3
"Amdt_StdImp|Product Description: AutoCAD Mechanical 2004 DX|Company: Autodesk"
 90
        0
280
     0
281
     0
  0
CLASS
  1
ACMWELDSTANDARDBSI
  2
AcmWeldingStdBSI
  3
"Amdt_StdImp|Product Description: AutoCAD Mechanical 2004 DX|Company: Autodesk"
 90
        0
280
     0
281
     0
  0
CLASS
  1
ACMIDSTANDARDBSI
  2
AcmIdStdBSI
  3
"Amdt_StdImp|Product Description: AutoCAD Mechanical 2004 DX|Company: Autodesk"
 90
        0
280
     0
281
     0
  0
CLASS
  1
ACMDATUMSTANDARDBSI
  2
AcmDatumStdBSI
  3
"Amdt_StdImp|Product Description: AutoCAD Mechanical 2004 DX|Company: Autodesk"
 90
        0
280
     0
281
     0
  0
CLASS
  1
ACMBOMSTANDARDBSI
  2
AcmBOMStdBSI
  3
"Amdt_StdImp|Product Description: AutoCAD Mechanical 2004 DX|Company: Autodesk"
 90
        0
280
     0
281
     0
  0
CLASS
  1
AMDTEDGESTANDARDDIN
  2
AmdtEdgeStdDIN
  3
"Amdt_StdImp|Product Description: AutoCAD Mechanical 2004 DX|Company: Autodesk"
 90
        0
280
     0
281
     0
  0
CLASS
  1
ACMSURFSTANDARDDIN
  2
AcmSurfTextStdDIN
  3
"Amdt_StdImp|Product Description: AutoCAD Mechanical 2004 DX|Company: Autodesk"
 90
        0
280
     0
281
     0
  0
CLASS
  1
ACMFCFSTANDARDDIN
  2
AcmFCFStdDIN
  3
"Amdt_StdImp|Product Description: AutoCAD Mechanical 2004 DX|Company: Autodesk"
 90
        0
280
     0
281
     0
  0
CLASS
  1
ACMWELDSTANDARDDIN
  2
AcmWeldingStdDIN
  3
"Amdt_StdImp|Product Description: AutoCAD Mechanical 2004 DX|Company: Autodesk"
 90
        0
280
     0
281
     0
  0
CLASS
  1
ACMIDSTANDARDDIN
  2
AcmIdStdDIN
  3
"Amdt_StdImp|Product Description: AutoCAD Mechanical 2004 DX|Company: Autodesk"
 90
        0
280
     0
281
     0
  0
CLASS
  1
ACMDATUMSTANDARDDIN
  2
AcmDatumStdDIN
  3
"Amdt_StdImp|Product Description: AutoCAD Mechanical 2004 DX|Company: Autodesk"
 90
        0
280
     0
281
     0
  0
CLASS
  1
ACMBOMSTANDARDDIN
  2
AcmBOMStdDIN
  3
"Amdt_StdImp|Product Description: AutoCAD Mechanical 2004 DX|Company: Autodesk"
 90
        0
280
     0
281
     0
  0
CLASS
  1
AMDTEDGESTANDARDISO
  2
AmdtEdgeStdISO
  3
"Amdt_StdImp|Product Description: AutoCAD Mechanical 2004 DX|Company: Autodesk"
 90
        0
280
     0
281
     0
  0
CLASS
  1
ACMSURFSTANDARDISO
  2
AcmSurfTextStdISO
  3
"Amdt_StdImp|Product Description: AutoCAD Mechanical 2004 DX|Company: Autodesk"
 90
        0
280
     0
281
     0
  0
CLASS
  1
ACMFCFSTANDARDISO
  2
AcmFCFStdISO
  3
"Amdt_StdImp|Product Description: AutoCAD Mechanical 2004 DX|Company: Autodesk"
 90
        0
280
     0
281
     0
  0
CLASS
  1
ACMWELDSTANDARDISO
  2
AcmWeldingStdISO
  3
"Amdt_StdImp|Product Description: AutoCAD Mechanical 2004 DX|Company: Autodesk"
 90
        0
280
     0
281
     0
  0
CLASS
  1
ACMIDSTANDARDISO
  2
AcmIdStdISO
  3
"Amdt_StdImp|Product Description: AutoCAD Mechanical 2004 DX|Company: Autodesk"
 90
        0
280
     0
281
     0
  0
CLASS
  1
ACMDATUMSTANDARDISO
  2
AcmDatumStdISO
  3
"Amdt_StdImp|Product Description: AutoCAD Mechanical 2004 DX|Company: Autodesk"
 90
        0
280
     0
281
     0
  0
CLASS
  1
ACMBOMSTANDARDISO
  2
AcmBOMStdISO
  3
"Amdt_StdImp|Product Description: AutoCAD Mechanical 2004 DX|Company: Autodesk"
 90
        0
280
     0
281
     0
  0
CLASS
  1
AMDTBROWSERDBTAB
  2
AmdtBrowserDbTab
  3
McadcomServices
 90
        0
280
     0
281
     0
  0
CLASS
  1
ACAMGFILTERDAT
  2
AcAmgFilterDat
  3
"AcadM|Product Description: AutoCAD Mechanical 2000|Company: Autodesk"
 90
        0
280
     0
281
     0
  0
CLASS
  1
ACCMBODY
  2
AcCmBody
  3
DesignerAssemblies
 90
    32768
280
     0
281
     0
  0
CLASS
  1
ACAMCOMPENT
  2
AcAmCompEnt
  3
DesignerAssemblies
 90
    32768
280
     0
281
     1
  0
CLASS
  1
ACAMCOMPFEEDBACK
  2
AcAmCompFeedback
  3
DesignerAssemblies
 90
    32768
280
     0
281
     0
  0
CLASS
  1
ACAMCOMP
  2
AcAmComp
  3
DesignerAssemblies
 90
    32768
280
     0
281
     0
  0
CLASS
  1
ACAMCOMPENTCLONE
  2
AcAmCompEntClone
  3
DesignerAssemblies
 90
    32768
280
     0
281
     1
  0
CLASS
  1
ACAMCLONEREACTOR
  2
AcAmGrCompCloneReactor
  3
DesignerAssemblies
 90
    32768
280
     0
281
     0
  0
CLASS
  1
AMDTMAPISURFMOUDULE
  2
AmdtMApiSurfModule
  3
MApiSurfServices
 90
        0
280
     0
281
     0
  0
CLASS
  1
ACAMGTITLESTD
  2
AcAmgTitleStd
  3
"TITLEAPP"
 90
        0
280
     0
281
     0
  0
CLASS
  1
ACMDETAILSTANDARDJIS
  2
AmdtDetailSymStdJIS
  3
"Amdt_StdImp|Product Description: AutoCAD Mechanical 2004 DX|Company: Autodesk"
 90
        0
280
     0
281
     0
  0
CLASS
  1
ACMSECTIONSTANDARDJIS
  2
AmdtSectionSymStdJIS
  3
"Amdt_StdImp|Product Description: AutoCAD Mechanical 2004 DX|Company: Autodesk"
 90
        0
280
     0
281
     0
  0
CLASS
  1
ACMCENTERLINESTANDARDJIS
  2
AmdtCenterLineStdJIS
  3
"Amdt_StdImp|Product Description: AutoCAD Mechanical 2004 DX|Company: Autodesk"
 90
        0
280
     0
281
     0
  0
CLASS
  1
ACMTHREADLINESTANDARDJIS
  2
AmdtThreadLineStdJIS
  3
"Amdt_StdImp|Product Description: AutoCAD Mechanical 2004 DX|Company: Autodesk"
 90
        0
280
     0
281
     0
  0
CLASS
  1
ACMNOTESTANDARDJIS
  2
AmdtNoteStdJIS
  3
"Amdt_StdImp|Product Description: AutoCAD Mechanical 2004 DX|Company: Autodesk"
 90
        0
280
     0
281
     0
  0
CLASS
  1
ACMDETAILSTANDARDANSI
  2
AmdtDetailSymStdANSI
  3
"Amdt_StdImp|Product Description: AutoCAD Mechanical 2004 DX|Company: Autodesk"
 90
        0
280
     0
281
     0
  0
CLASS
  1
ACMSECTIONSTANDARDANSI
  2
AmdtSectionSymStdANSI
  3
"Amdt_StdImp|Product Description: AutoCAD Mechanical 2004 DX|Company: Autodesk"
 90
        0
280
     0
281
     0
  0
CLASS
  1
ACMCENTERLINESTANDARDANSI
  2
AmdtCenterLineStdANSI
  3
"Amdt_StdImp|Product Description: AutoCAD Mechanical 2004 DX|Company: Autodesk"
 90
        0
280
     0
281
     0
  0
CLASS
  1
ACMTHREADLINESTANDARDANSI
  2
AmdtThreadLineStdANSI
  3
"Amdt_StdImp|Product Description: AutoCAD Mechanical 2004 DX|Company: Autodesk"
 90
        0
280
     0
281
     0
  0
CLASS
  1
ACMNOTESTANDARDANSI
  2
AmdtNoteStdANSI
  3
"Amdt_StdImp|Product Description: AutoCAD Mechanical 2004 DX|Company: Autodesk"
 90
        0
280
     0
281
     0
  0
CLASS
  1
ACMDETAILSTANDARDBSI
  2
AmdtDetailSymStdBSI
  3
"Amdt_StdImp|Product Description: AutoCAD Mechanical 2004 DX|Company: Autodesk"
 90
        0
280
     0
281
     0
  0
CLASS
  1
ACMSECTIONSTANDARDBSI
  2
AmdtSectionSymStdBSI
  3
"Amdt_StdImp|Product Description: AutoCAD Mechanical 2004 DX|Company: Autodesk"
 90
        0
280
     0
281
     0
  0
CLASS
  1
ACMCENTERLINESTANDARDBSI
  2
AmdtCenterLineStdBSI
  3
"Amdt_StdImp|Product Description: AutoCAD Mechanical 2004 DX|Company: Autodesk"
 90
        0
280
     0
281
     0
  0
CLASS
  1
ACMTHREADLINESTANDARDBSI
  2
AmdtThreadLineStdBSI
  3
"Amdt_StdImp|Product Description: AutoCAD Mechanical 2004 DX|Company: Autodesk"
 90
        0
280
     0
281
     0
  0
CLASS
  1
ACMNOTESTANDARDBSI
  2
AmdtNoteStdBSI
  3
"Amdt_StdImp|Product Description: AutoCAD Mechanical 2004 DX|Company: Autodesk"
 90
        0
280
     0
281
     0
  0
CLASS
  1
ACMDETAILSTANDARDDIN
  2
AmdtDetailSymStdDIN
  3
"Amdt_StdImp|Product Description: AutoCAD Mechanical 2004 DX|Company: Autodesk"
 90
        0
280
     0
281
     0
  0
CLASS
  1
ACMSECTIONSTANDARDDIN
  2
AmdtSectionSymStdDIN
  3
"Amdt_StdImp|Product Description: AutoCAD Mechanical 2004 DX|Company: Autodesk"
 90
        0
280
     0
281
     0
  0
CLASS
  1
ACMCENTERLINESTANDARDDIN
  2
AmdtCenterLineStdDIN
  3
"Amdt_StdImp|Product Description: AutoCAD Mechanical 2004 DX|Company: Autodesk"
 90
        0
280
     0
281
     0
  0
CLASS
  1
ACMTHREADLINESTANDARDDIN
  2
AmdtThreadLineStdDIN
  3
"Amdt_StdImp|Product Description: AutoCAD Mechanical 2004 DX|Company: Autodesk"
 90
        0
280
     0
281
     0
  0
CLASS
  1
ACMNOTESTANDARDDIN
  2
AmdtNoteStdDIN
  3
"Amdt_StdImp|Product Description: AutoCAD Mechanical 2004 DX|Company: Autodesk"
 90
        0
280
     0
281
     0
  0
CLASS
  1
ACMDETAILSTANDARDISO
  2
AmdtDetailSymStdISO
  3
"Amdt_StdImp|Product Description: AutoCAD Mechanical 2004 DX|Company: Autodesk"
 90
        0
280
     0
281
     0
  0
CLASS
  1
ACMSECTIONSTANDARDISO
  2
AmdtSectionSymStdISO
  3
"Amdt_StdImp|Product Description: AutoCAD Mechanical 2004 DX|Company: Autodesk"
 90
        0
280
     0
281
     0
  0
CLASS
  1
ACMCENTERLINESTANDARDISO
  2
AmdtCenterLineStdISO
  3
"Amdt_StdImp|Product Description: AutoCAD Mechanical 2004 DX|Company: Autodesk"
 90
        0
280
     0
281
     0
  0
CLASS
  1
ACMTHREADLINESTANDARDISO
  2
AmdtThreadLineStdISO
  3
"Amdt_StdImp|Product Description: AutoCAD Mechanical 2004 DX|Company: Autodesk"
 90
        0
280
     0
281
     0
  0
CLASS
  1
ACMNOTESTANDARDISO
  2
AmdtNoteStdISO
  3
"Amdt_StdImp|Product Description: AutoCAD Mechanical 2004 DX|Company: Autodesk"
 90
        0
280
     0
281
     0
  0
CLASS
  1
ACAMGLAYSTD
  2
AcAmgLayStd
  3
"AcAmgLayStd|Product Description: AutoCAD Mechanical 2000|Company: Autodesk"
 90
        0
280
     0
281
     0
  0
CLASS
  1
ACAMGDIMSTD
  2
AcAmgDimStd
  3
"AcAmgDimStd|Product Description: AutoCAD Mechanical 2000|Company: Autodesk"
 90
        0
280
     0
281
     0
  0
CLASS
  1
AM_VIEW_SELECT_FILTER
  2
AcDmSelectViewEntFilter
  3
AcMechDwgViewMgmt
 90
    32768
280
     0
281
     0
  0
CLASS
  1
AM_ABS_PLANE
  2
AcDmAbsPlnDef
  3
AcMechDwgViewMgmt
 90
    32768
280
     0
281
     0
  0
CLASS
  1
AM_ABS_AXIS
  2
AcDmAbsAxisDef
  3
AcMechDwgViewMgmt
 90
    32768
280
     0
281
     0
  0
CLASS
  1
AM_BASE_VIEW_ORIENT
  2
AcDmBaseViewOr
  3
AcMechDwgViewMgmt
 90
    32768
280
     0
281
     0
  0
CLASS
  1
AM_DWG_VIEWPORT
  2
AcDmViewport
  3
AcMechDwgViewMgmt
 90
    32768
280
     0
281
     0
  0
CLASS
  1
AM_VIEW_DISPLAY
  2
AcDmDwgViewDisplay
  3
AcMechDwgViewMgmt
 90
    32768
280
     0
281
     0
  0
CLASS
  1
AM_CLDFLTS
  2
AcDmClDflts
  3
AcMechDwgViewMgmt
 90
        0
280
     0
281
     0
  0
CLASS
  1
AM_BASE_VIEW
  2
AcDmBaseView
  3
AcMechDwgViewMgmt
 90
    32768
280
     0
281
     0
  0
CLASS
  1
ACMEPLINE
  2
AcImPlineDisplay
  3
AcMeServices
 90
    32768
280
     0
281
     1
  0
CLASS
  1
ACDMPARTVIEWDATA
  2
AcDmPartViewData
  3
AcMechDwgViewMgmt
 90
    32768
280
     0
281
     0
  0
CLASS
  1
ACDMDISPLAYATTRIBS
  2
AcDmDisplayAttribs
  3
AcMechDwgViewMgmt
 90
    32768
280
     0
281
     0
  0
CLASS
  1
ACDMBODYINSTANCEDATA
  2
AcDmBodyInstanceData
  3
AcMechDwgViewMgmt
 90
    32768
280
     0
281
     0
  0
CLASS
  1
ACDMVWEDLINE
  2
AcDmViewEdgeLine
  3
AcMechDwgViewMgmt
 90
    32768
280
     0
281
     1
  0
CLASS
  1
ACDMVWEDARC
  2
AcDmViewEdgeArc
  3
AcMechDwgViewMgmt
 90
    32768
280
     0
281
     1
  0
CLASS
  1
ACDBSOLLINEDGRES
  2
AcDbSolLinEdgRes
  3
AcGrefServices
 90
        0
280
     0
281
     0
  0
CLASS
  1
AM_VIEWDIMLINEAR
  2
AcDmViewDimLinear
  3
AcMechDwgViewMgmt
 90
    32768
280
     0
281
     0
  0
CLASS
  1
AM_VIEWDIMANGULAR
  2
AcDmViewDimAngular
  3
AcMechDwgViewMgmt
 90
    32768
280
     0
281
     0
  0
CLASS
  1
AM_PERPCTRLINE
  2
AcDmLineCl
  3
AcMechDwgViewMgmt
 90
    32768
280
     0
281
     0
  0
CLASS
  1
AMDTFORMULAUPDATEDISPATCHER
  2
AmdtFormulaUpdateDispatcher
  3
AcMeServices
 90
        0
280
     0
281
     0
  0
ENDSEC
  0
SECTION
  2
TABLES
  0
TABLE
  2
VPORT
  5
8
330
0
100
AcDbSymbolTable
 70
     4
  0
VPORT
  5
2FBF
330
8
100
AcDbSymbolTableRecord
100
AcDbViewportTableRecord
  2
*Active
 70
     0
 10
0.0
 20
0.0
 11
1.0
 21
1.0
 12
-3.115039899867781
 22
20.21703996785726
 13
0.0
 23
0.0
 14
5.0
 24
5.0
 15
5.0
 25
5.0
 16
0.0
 26
0.0
 36
1.0
 17
0.0
 27
0.0
 37
0.0
 40
111.3921713442329
 41
1.210013908205841
 42
50.0
 43
0.0
 44
0.0
 50
0.0
 51
0.0
 71
     0
 72
 20000
 73
     1
 74
     3
 75
     0
 76
     0
 77
     0
 78
     0
281
     0
 65
     1
110
0.0
120
0.0
130
0.0
111
1.0
121
0.0
131
0.0
112
0.0
122
1.0
132
0.0
 79
     0
146
0.0
  0
ENDTAB
  0
TABLE
  2
LTYPE
  5
5
330
0
100
AcDbSymbolTable
 70
    26
  0
LTYPE
  5
14
330
5
100
AcDbSymbolTableRecord
100
AcDbLinetypeTableRecord
  2
BYBLOCK
 70
     0
  3

 72
    65
 73
     0
 40
0.0
  0
LTYPE
  5
15
330
5
100
AcDbSymbolTableRecord
100
AcDbLinetypeTableRecord
  2
BYLAYER
 70
     0
  3

 72
    65
 73
     0
 40
0.0
  0
LTYPE
  5
16
330
5
100
AcDbSymbolTableRecord
100
AcDbLinetypeTableRecord
  2
CONTINUOUS
 70
     0
  3
Solid line
 72
    65
 73
     0
 40
0.0
  0
LTYPE
  5
F8C
330
5
100
AcDbSymbolTableRecord
100
AcDbLinetypeTableRecord
  2
PHANTOM2
 70
     0
  3
___ _ _ ___ _ _ ___ _ _ ___ _ _ ___ _ _ ___ _ _
 72
    65
 73
     6
 40
1.25
 49
0.625
 74
     0
 49
-0.125
 74
     0
 49
0.125
 74
     0
 49
-0.125
 74
     0
 49
0.125
 74
     0
 49
-0.125
 74
     0
  0
LTYPE
  5
FF7
330
5
100
AcDbSymbolTableRecord
100
AcDbLinetypeTableRecord
  2
GEN3
 70
     0
  3
-- -- -- -- -- -- -- -- -- -- -- -- -- -- --
 72
    65
 73
     2
 40
6.25
 49
4.75
 74
     0
 49
-1.5
 74
     0
  0
LTYPE
  5
FFC
330
5
100
AcDbSymbolTableRecord
100
AcDbLinetypeTableRecord
  2
GEN7
 70
     0
  3
____ . ____ . ____ . ____ . ____ . ____ . ____
 72
    65
 73
     4
 40
13.75
 49
9.75
 74
     0
 49
-1.5
 74
     0
 49
1.0
 74
     0
 49
-1.5
 74
     0
  0
LTYPE
  5
1103
330
5
100
AcDbSymbolTableRecord
100
AcDbLinetypeTableRecord
  2
ACJISTGB
 70
     0
  3
__ . . __ . .
 72
    65
 73
     6
 40
9.0
 49
4.0
 74
     0
 49
-1.0
 74
     0
 49
1.0
 74
     0
 49
-1.0
 74
     0
 49
1.0
 74
     0
 49
-1.0
 74
     0
  0
LTYPE
  5
1104
330
5
100
AcDbSymbolTableRecord
100
AcDbLinetypeTableRecord
  2
ACJISTGL
 70
     0
  3
_ _ _ _ _
 72
    65
 73
     2
 40
3.0
 49
2.0
 74
     0
 49
-1.0
 74
     0
  0
LTYPE
  5
1107
330
5
100
AcDbSymbolTableRecord
100
AcDbLinetypeTableRecord
  2
ACANSTGB
 70
     0
  3
__ . . __ . .
 72
    65
 73
     6
 40
0.35433070866
 49
0.15748031496
 74
     0
 49
-0.03937007874
 74
     0
 49
0.03937007874
 74
     0
 49
-0.03937007874
 74
     0
 49
0.03937007874
 74
     0
 49
-0.03937007874
 74
     0
  0
LTYPE
  5
1108
330
5
100
AcDbSymbolTableRecord
100
AcDbLinetypeTableRecord
  2
ACANSTGL
 70
     0
  3
_ _ _ _ _
 72
    65
 73
     2
 40
0.11811023622
 49
0.07874015748
 74
     0
 49
-0.03937007874
 74
     0
  0
LTYPE
  5
110B
330
5
100
AcDbSymbolTableRecord
100
AcDbLinetypeTableRecord
  2
ACBSIWELD
 70
     0
  3
_ _ _ _ _
 72
    65
 73
     2
 40
2.0
 49
2.0
 74
     0
 49
-1.0
 74
     0
  0
LTYPE
  5
110C
330
5
100
AcDbSymbolTableRecord
100
AcDbLinetypeTableRecord
  2
ACBSITGB
 70
     0
  3
__ . . __ . .
 72
    65
 73
     6
 40
9.0
 49
4.0
 74
     0
 49
-1.0
 74
     0
 49
1.0
 74
     0
 49
-1.0
 74
     0
 49
1.0
 74
     0
 49
-1.0
 74
     0
  0
LTYPE
  5
110D
330
5
100
AcDbSymbolTableRecord
100
AcDbLinetypeTableRecord
  2
ACBSITGL
 70
     0
  3
_ _ _ _ _
 72
    65
 73
     2
 40
3.0
 49
2.0
 74
     0
 49
-1.0
 74
     0
  0
LTYPE
  5
1110
330
5
100
AcDbSymbolTableRecord
100
AcDbLinetypeTableRecord
  2
ACDINWELD
 70
     0
  3
_ _ _ _ _
 72
    65
 73
     2
 40
2.0
 49
2.0
 74
     0
 49
-1.0
 74
     0
  0
LTYPE
  5
1111
330
5
100
AcDbSymbolTableRecord
100
AcDbLinetypeTableRecord
  2
ACDINTGB
 70
     0
  3
__ . . __ . .
 72
    65
 73
     6
 40
9.0
 49
4.0
 74
     0
 49
-1.0
 74
     0
 49
1.0
 74
     0
 49
-1.0
 74
     0
 49
1.0
 74
     0
 49
-1.0
 74
     0
  0
LTYPE
  5
1112
330
5
100
AcDbSymbolTableRecord
100
AcDbLinetypeTableRecord
  2
ACDINTGL
 70
     0
  3
_ _ _ _ _
 72
    65
 73
     2
 40
3.0
 49
2.0
 74
     0
 49
-1.0
 74
     0
  0
LTYPE
  5
1115
330
5
100
AcDbSymbolTableRecord
100
AcDbLinetypeTableRecord
  2
ACISOWELD
 70
     0
  3
_ _ _ _ _
 72
    65
 73
     2
 40
2.0
 49
2.0
 74
     0
 49
-1.0
 74
     0
  0
LTYPE
  5
1116
330
5
100
AcDbSymbolTableRecord
100
AcDbLinetypeTableRecord
  2
ACISOTGB
 70
     0
  3
__ . . __ . .
 72
    65
 73
     6
 40
9.0
 49
4.0
 74
     0
 49
-1.0
 74
     0
 49
1.0
 74
     0
 49
-1.0
 74
     0
 49
1.0
 74
     0
 49
-1.0
 74
     0
  0
LTYPE
  5
1117
330
5
100
AcDbSymbolTableRecord
100
AcDbLinetypeTableRecord
  2
ACISOTGL
 70
     0
  3
_ _ _ _ _
 72
    65
 73
     2
 40
3.0
 49
2.0
 74
     0
 49
-1.0
 74
     0
  0
LTYPE
  5
1271
330
5
100
AcDbSymbolTableRecord
100
AcDbLinetypeTableRecord
  2
HIDDEN
 70
     0
  3
Verdeckt
 72
    65
 73
     2
 40
9.525
 49
6.349999999999999
 74
     0
 49
-3.174999999999999
 74
     0
  0
LTYPE
  5
1272
330
5
100
AcDbSymbolTableRecord
100
AcDbLinetypeTableRecord
  2
CENTER
 70
     0
  3
Mitte ____ _ ____ _ ____ _ ____ _ ____ _ ____
 72
    65
 73
     4
 40
50.8
 49
31.75
 74
     0
 49
-6.349999999999999
 74
     0
 49
6.349999999999999
 74
     0
 49
-6.349999999999999
 74
     0
  0
LTYPE
  5
127F
330
5
100
AcDbSymbolTableRecord
100
AcDbLinetypeTableRecord
  2
gen3a
 70
     0
  3
 - - - - -
 72
    65
 73
     2
 40
3.125
 49
2.25
 74
     0
 49
-0.875
 74
     0
  0
LTYPE
  5
1280
330
5
100
AcDbSymbolTableRecord
100
AcDbLinetypeTableRecord
  2
gen7a
 70
     0
  3
__ . __ . __
 72
    65
 73
     4
 40
6.875
 49
4.75
 74
     0
 49
-0.875
 74
     0
 49
0.375
 74
     0
 49
-0.875
 74
     0
  0
LTYPE
  5
1281
330
5
100
AcDbSymbolTableRecord
100
AcDbLinetypeTableRecord
  2
gen4a
 70
     0
  3
_____ . . _____ . . _____ . . ____ .. ____
 72
    65
 73
     6
 40
16.25
 49
9.75
 74
     0
 49
-1.5
 74
     0
 49
1.0
 74
     0
 49
-1.5
 74
     0
 49
1.0
 74
     0
 49
-1.5
 74
     0
  0
LTYPE
  5
1284
330
5
100
AcDbSymbolTableRecord
100
AcDbLinetypeTableRecord
  2
genzigzag
 70
     0
  3
/\/-/\/-/\/-/\/-/\/-/\/
 72
    65
 73
     2
 40
12.0001
 49
0.0001
 74
     4
 75
   135
340
1283
 46
2.0
 50
0.0
 44
0.0
 45
0.0
 49
-12.0
 74
     0
  0
LTYPE
  5
13B1
330
5
100
AcDbSymbolTableRecord
100
AcDbLinetypeTableRecord
  2
AM_DIN_G_W050x2
 70
     0
  3
__ . __ . __ . __ . __ . __
 72
    65
 73
     4
 40
6.875
 49
4.75
 74
     0
 49
-0.875
 74
     0
 49
0.375
 74
     0
 49
-0.875
 74
     0
  0
LTYPE
  5
2DEC
330
5
100
AcDbSymbolTableRecord
100
AcDbLinetypeTableRecord
  2
ASULTYPE
 70
     0
  3
Ausgezogene Linie
 72
    65
 73
     2
 40
3.0
 49
2.5
 74
     0
 49
0.5
 74
     0
  0
LTYPE
  5
2DED
330
5
100
AcDbSymbolTableRecord
100
AcDbLinetypeTableRecord
  2
ASVLTYPE
 70
     0
  3
__ __ __ __ __ __ __ __ __ __ __ __ __ __ __ __ __ __ __ __ __
 72
    65
 73
     2
 40
0.75
 49
0.5
 74
     0
 49
-0.25
 74
     0
  0
ENDTAB
  0
TABLE
  2
LAYER
  5
2
330
0
100
AcDbSymbolTable
 70
     6
  0
LAYER
  5
F
330
2
100
AcDbSymbolTableRecord
100
AcDbLayerTableRecord
  2
0
 70
     0
 62
     7
  6
CONTINUOUS
370
    -3
390
11EB
  0
LAYER
  5
35
330
2
100
AcDbSymbolTableRecord
100
AcDbLayerTableRecord
  2
Dimension2_Bemaßung2
 70
     0
 62
     1
  6
CONTINUOUS
370
    -3
390
11EB
  0
LAYER
  5
48
330
2
100
AcDbSymbolTableRecord
100
AcDbLayerTableRecord
  2
Center of gravity_Schwerpunkt
 70
     0
 62
     7
  6
AM_DIN_G_W050x2
370
    -3
390
11EB
  0
LAYER
  5
165
330
2
100
AcDbSymbolTableRecord
100
AcDbLayerTableRecord
  2
Defpoints
 70
     0
 62
     6
  6
CONTINUOUS
290
     0
370
    -3
390
11EB
  0
LAYER
  5
234
330
2
100
AcDbSymbolTableRecord
100
AcDbLayerTableRecord
  2
Dimension1_Bemaßung1
 70
     0
 62
     1
  6
CONTINUOUS
370
    -3
390
11EB
  0
LAYER
  5
1AA2
330
2
100
AcDbSymbolTableRecord
100
AcDbLayerTableRecord
  2
ASHADE
 70
     0
 62
     7
  6
CONTINUOUS
370
    -3
390
11EB
  0
ENDTAB
  0
TABLE
  2
STYLE
  5
3
330
0
100
AcDbSymbolTable
 70
    12
  0
STYLE
  5
10
330
3
100
AcDbSymbolTableRecord
100
AcDbTextStyleTableRecord
  2
STANDARD
 70
     0
 40
0.0
 41
1.0
 50
0.0
 71
     0
 42
2.5
  3
ISOCP
  4

  0
STYLE
  5
1101
330
3
100
AcDbSymbolTableRecord
100
AcDbTextStyleTableRecord
  2
ACJISTS
 70
     0
 40
1.0
 41
1.0
 50
0.0
 71
     0
 42
2.5
  3
isocp.shx
  4
bigfont.shx
  0
STYLE
  5
1102
330
3
100
AcDbSymbolTableRecord
100
AcDbTextStyleTableRecord
  2
ACJISGDT
 70
     0
 40
0.0
 41
1.0
 50
0.0
 71
     0
 42
2.5
  3
amgdt.shx
  4

  0
STYLE
  5
1105
330
3
100
AcDbSymbolTableRecord
100
AcDbTextStyleTableRecord
  2
ACANSTSB
 70
     0
 40
1.0
 41
1.0
 50
0.0
 71
     0
 42
2.5
  3
romans.shx
  4

  0
STYLE
  5
1106
330
3
100
AcDbSymbolTableRecord
100
AcDbTextStyleTableRecord
  2
ACANSGDT
 70
     0
 40
0.0
 41
1.0
 50
0.0
 71
     0
 42
2.5
  3
amgdt.shx
  4

  0
STYLE
  5
1109
330
3
100
AcDbSymbolTableRecord
100
AcDbTextStyleTableRecord
  2
ACBSITS
 70
     0
 40
1.0
 41
1.0
 50
0.0
 71
     0
 42
2.5
  3
isocp.shx
  4

  0
STYLE
  5
110A
330
3
100
AcDbSymbolTableRecord
100
AcDbTextStyleTableRecord
  2
ACBSIGDT
 70
     0
 40
0.0
 41
1.0
 50
0.0
 71
     0
 42
2.5
  3
amgdt.shx
  4

  0
STYLE
  5
110E
330
3
100
AcDbSymbolTableRecord
100
AcDbTextStyleTableRecord
  2
ACDINTS
 70
     0
 40
1.0
 41
1.0
 50
0.0
 71
     0
 42
2.5
  3
isocp.shx
  4

  0
STYLE
  5
110F
330
3
100
AcDbSymbolTableRecord
100
AcDbTextStyleTableRecord
  2
ACDINGDT
 70
     0
 40
0.0
 41
1.0
 50
0.0
 71
     0
 42
2.5
  3
amgdt.shx
  4

  0
STYLE
  5
1113
330
3
100
AcDbSymbolTableRecord
100
AcDbTextStyleTableRecord
  2
ACISOTS
 70
     0
 40
1.0
 41
1.0
 50
0.0
 71
     0
 42
2.5
  3
isocp.shx
  4

  0
STYLE
  5
1114
330
3
100
AcDbSymbolTableRecord
100
AcDbTextStyleTableRecord
  2
ACISOGDT
 70
     0
 40
0.0
 41
1.0
 50
0.0
 71
     0
 42
2.5
  3
amgdt.shx
  4

  0
STYLE
  5
1283
330
3
100
AcDbSymbolTableRecord
100
AcDbTextStyleTableRecord
  2

 70
     1
 40
0.0
 41
1.0
 50
0.0
 71
     0
 42
2.5
  3
genltshp.shx
  4

  0
ENDTAB
  0
TABLE
  2
VIEW
  5
6
330
0
100
AcDbSymbolTable
 70
     6
  0
VIEW
  5
297E
330
6
100
AcDbSymbolTableRecord
100
AcDbViewTableRecord
  2
AM_VIEW1
 70
     1
 40
148.4841613769531
 10
81.38734226582213
 20
215.9635000228882
 41
174.8608509134802
 11
0.0
 21
0.0
 31
1.0
 12
0.0
 22
0.0
 32
0.0
 42
50.0
 43
0.0
 44
0.0
 50
0.0
 71
    16
281
     0
 72
     0
  0
VIEW
  5
297F
330
6
100
AcDbSymbolTableRecord
100
AcDbViewTableRecord
  2
AM_VIEW2
 70
     1
 40
148.4841613769531
 10
116.4998189890606
 20
215.9635000228882
 41
174.8608509134802
 11
0.0
 21
0.0
 31
1.0
 12
0.0
 22
0.0
 32
0.0
 42
50.0
 43
0.0
 44
0.0
 50
0.0
 71
    16
281
     0
 72
     0
  0
VIEW
  5
2980
330
6
100
AcDbSymbolTableRecord
100
AcDbViewTableRecord
  2
AM_VIEW3
 70
     1
 40
148.4841613769531
 10
81.38734226582213
 20
67.47933864593505
 41
174.8608509134802
 11
0.0
 21
0.0
 31
1.0
 12
0.0
 22
0.0
 32
0.0
 42
50.0
 43
0.0
 44
0.0
 50
0.0
 71
    16
281
     0
 72
     0
  0
VIEW
  5
2981
330
6
100
AcDbSymbolTableRecord
100
AcDbViewTableRecord
  2
AM_VIEW4
 70
     1
 40
148.4841613769531
 10
116.4998189890606
 20
67.47933864593505
 41
174.8608509134802
 11
0.0
 21
0.0
 31
1.0
 12
0.0
 22
0.0
 32
0.0
 42
50.0
 43
0.0
 44
0.0
 50
0.0
 71
    16
281
     0
 72
     0
  0
VIEW
  5
2982
330
6
100
AcDbSymbolTableRecord
100
AcDbViewTableRecord
  2
AM_VIEW5
 70
     1
 40
148.4841613769531
 10
98.9435806274414
 20
141.7214193344116
 41
174.8608509134802
 11
0.0
 21
0.0
 31
1.0
 12
0.0
 22
0.0
 32
0.0
 42
50.0
 43
0.0
 44
0.0
 50
0.0
 71
    16
281
     0
 72
     0
  0
VIEW
  5
2983
330
6
100
AcDbSymbolTableRecord
100
AcDbViewTableRecord
  2
AM_VIEW6
 70
     1
 40
296.9653530706787
 10
98.94358062744142
 20
141.7214193344116
 41
349.7182046099422
 11
0.0
 21
0.0
 31
1.0
 12
0.0
 22
0.0
 32
0.0
 42
50.0
 43
0.0
 44
0.0
 50
0.0
 71
    16
281
     0
 72
     0
  0
ENDTAB
  0
TABLE
  2
UCS
  5
7
330
0
100
AcDbSymbolTable
 70
     0
  0
ENDTAB
  0
TABLE
  2
APPID
  5
9
330
0
100
AcDbSymbolTable
 70
    51
  0
APPID
  5
11
330
9
100
AcDbSymbolTableRecord
100
AcDbRegAppTableRecord
  2
ACAD
 70
     0
  0
APPID
  5
F4A
330
9
100
AcDbSymbolTableRecord
100
AcDbRegAppTableRecord
  2
MCAD_NO_VIS
 70
     0
  0
APPID
  5
F99
330
9
100
AcDbSymbolTableRecord
100
AcDbRegAppTableRecord
  2
AD_DRAW
 70
     0
  0
APPID
  5
FB3
330
9
100
AcDbSymbolTableRecord
100
AcDbRegAppTableRecord
  2
DESIGNERASSEMBLIES
 70
     0
  0
APPID
  5
FED
330
9
100
AcDbSymbolTableRecord
100
AcDbRegAppTableRecord
  2
ASURF_PCURVE_APPNAME
 70
     0
  0
APPID
  5
FFE
330
9
100
AcDbSymbolTableRecord
100
AcDbRegAppTableRecord
  2
GENIUS_GENCFG_13
 70
     0
1001
GENIUS_GE3CFG0_13
1000
GE3
1001
GENIUS_GENCFG0_13
1000
GEN@INFO_POS@XLATE
1001
GENIUS_GENCFG1_13
1000
GEN@INFO_POS
1001
GENIUS_GENCFG2_13
1000
GEN@LAYER@DEFS
1001
GENIUS_GENCFG3_13
1000
GEN@LAYER@ENTSORT
1001
GENIUS_GENCFG4_13
1000
GEN
1001
GENIUS_GEVCFG0_13
1000
GEV
  0
APPID
  5
FFF
330
9
100
AcDbSymbolTableRecord
100
AcDbRegAppTableRecord
  2
GENIUS_GE3CFG0_13
 70
     0
1001
GENIUS_GENCFG_13
1071
912092035
1000
FFF
1000
GE3
1070
     2
1000
GenCfgObject
1000
GenCfgShort
1000
Dimension
1070
     0
1002
{
1000
RefDimEnhance
1070
     1
1070
     1
1002
{
1002
}
1000
RefDim
1070
     0
1002
{
1000
DIMCLRD
1070
     1
1070
     4
1002
{
1002
}
1002
}
1002
}
1000
Drawing
1070
     0
1002
{
1000
MSpace3D
1070
     1
1070
     1
1002
{
1002
}
1000
UpdateList
1070
     1
1070
     1
1002
{
1002
}
1002
}
1000
Shaft
1070
     0
1002
{
1002
}
1000
View
1070
     0
1002
{
1002
}
  0
APPID
  5
1000
330
9
100
AcDbSymbolTableRecord
100
AcDbRegAppTableRecord
  2
GENIUS_GENCFG0_13
 70
     0
1001
GENIUS_GENCFG_13
1071
912092035
1000
1000
1000
GEN@INFO_POS@XLATE
1070
     7
1000
GenCfgObject
1000
GenCfgShort
1000
GenCfgReal
1000
GenCfgBool
1000
GenCfgString
1000
GenCfgDim
1000
GenCfgAttrInf
1000
INFOPOINTS
1070
     0
1002
{
1000
GENINF14
1070
     0
1002
{
1000
2GENINF
1070
     4
1000
2
1002
{
1002
}
1000
3GENINF
1070
     4
1000
3
1002
{
1002
}
1000
4GENINF
1070
     4
1000
4
1002
{
1002
}
1000
5GENINF
1070
     4
1000
5
1002
{
1002
}
1000
6GENINF
1070
     4
1000
6
1002
{
1002
}
1000
7GENINF
1070
     4
1000
7
1002
{
1002
}
1000
8GENINF
1070
     4
1000
8
1002
{
1002
}
1000
9GENINF
1070
     4
1000
9
1002
{
1002
}
1000
10GENINF
1070
     4
1000
10
1002
{
1002
}
1000
11GENINF
1070
     4
1000
11
1002
{
1002
}
1000
12GENINF
1070
     4
1000
12
1002
{
1002
}
1000
13GENINF
1070
     4
1000
13
1002
{
1002
}
1000
14GENINF
1070
     4
1000
14
1002
{
1002
}
1000
15GENINF
1070
     4
1000
15
1002
{
1002
}
1000
16GENINF
1070
     4
1000
16
1002
{
1002
}
1000
17GENINF
1070
     4
1000
17
1002
{
1002
}
1000
18GENINF
1070
     4
1000
18
1002
{
1002
}
1000
19GENINF
1070
     4
1000
19
1002
{
1002
}
1000
20GENINF
1070
     4
1000
20
1002
{
1002
}
1000
21GENINF
1070
     4
1000
21
1002
{
1002
}
1000
22GENINF
1070
     4
1000
22
1002
{
1002
}
1000
23GENINF
1070
     4
1000
23
1002
{
1002
}
1000
24GENINF
1070
     4
1000
24
1002
{
1002
}
1000
25GENINF
1070
     4
1000
25
1002
{
1002
}
1000
26GENINF
1070
     4
1000
26
1002
{
1002
}
1000
27GENINF
1070
     4
1000
27
1002
{
1002
}
1000
0GENINF
1070
     4
1000
0
1002
{
1002
}
1002
}
1000
GENINF13
1070
     0
1002
{
1000
2GENINF
1070
     4
1000
2
1002
{
1002
}
1000
3GENINF
1070
     4
1000
3
1002
{
1002
}
1000
4GENINF
1070
     4
1000
4
1002
{
1002
}
1000
5GENINF
1070
     4
1000
5
1002
{
1002
}
1000
6GENINF
1070
     4
1000
6
1002
{
1002
}
1000
7GENINF
1070
     4
1000
7
1002
{
1002
}
1000
8GENINF
1070
     4
1000
8
1002
{
1002
}
1000
9GENINF
1070
     4
1000
9
1002
{
1002
}
1000
10GENINF
1070
     4
1000
10
1002
{
1002
}
1000
11GENINF
1070
     4
1000
11
1002
{
1002
}
1000
12GENINF
1070
     4
1000
12
1002
{
1002
}
1000
13GENINF
1070
     4
1000
13
1002
{
1002
}
1000
14GENINF
1070
     4
1000
14
1002
{
1002
}
1000
15GENINF
1070
     4
1000
15
1002
{
1002
}
1000
16GENINF
1070
     4
1000
16
1002
{
1002
}
1000
17GENINF
1070
     4
1000
17
1002
{
1002
}
1000
18GENINF
1070
     4
1000
18
1002
{
1002
}
1000
19GENINF
1070
     4
1000
19
1002
{
1002
}
1000
20GENINF
1070
     4
1000
20
1002
{
1002
}
1000
21GENINF
1070
     4
1000
21
1002
{
1002
}
1000
22GENINF
1070
     4
1000
22
1002
{
1002
}
1000
23GENINF
1070
     4
1000
23
1002
{
1002
}
1000
24GENINF
1070
     4
1000
24
1002
{
1002
}
1000
0GENINF
1070
     4
1000
0
1002
{
1002
}
1002
}
1000
GENINFO
1070
     0
1002
{
1000
3GENINF
1070
     4
1000
3
1002
{
1002
}
1000
4GENINF
1070
     4
1000
4
1002
{
1002
}
1000
5GENINF
1070
     4
1000
5
1002
{
1002
}
1000
6GENINF
1070
     4
1000
6
1002
{
1002
}
1000
7GENINF
1070
     4
1000
7
1002
{
1002
}
1000
8GENINF
1070
     4
1000
8
1002
{
1002
}
1000
9GENINF
1070
     4
1000
9
1002
{
1002
}
1000
10GENINF
1070
     4
1000
10
1002
{
1002
}
1000
11GENINF
1070
     4
1000
11
1002
{
1002
}
1000
12GENINF
1070
     4
1000
12
1002
{
1002
}
1000
13GENINF
1070
     4
1000
13
1002
{
1002
}
1000
14GENINF
1070
     4
1000
14
1002
{
1002
}
1000
15GENINF
1070
     4
1000
15
1002
{
1002
}
1000
16GENINF
1070
     4
1000
16
1002
{
1002
}
1000
17GENINF
1070
     4
1000
17
1002
{
1002
}
1000
18GENINF
1070
     4
1000
18
1002
{
1002
}
1000
19GENINF
1070
     4
1000
19
1002
{
1002
}
1000
20GENINF
1070
     4
1000
20
1002
{
1002
}
1000
21GENINF
1070
     4
1000
21
1002
{
1002
}
1000
22GENINF
1070
     4
1000
22
1002
{
1002
}
1002
}
1000
DININFO
1070
     0
1002
{
1000
ST-NAME1
1070
     4
1000
5
1002
{
1002
}
1000
ST-NAME2
1070
     4
1000
6
1002
{
1002
}
1000
ST-NORM1
1070
     4
1000
7
1002
{
1002
}
1000
ST-NORM2
1070
     4
1000
8
1002
{
1002
}
1000
ST-MAT1
1070
     4
1000
9
1002
{
1002
}
1000
ST-MAT2
1070
     4
1000
10
1002
{
1002
}
1002
}
1002
}
1000
POS_NUMBERS
1070
     0
1002
{
1000
GENPOS14
1070
     0
1002
{
1000
1GENPOS
1070
     4
1000
1
1002
{
1002
}
1000
2GENPOS
1070
     4
1000
2
1002
{
1002
}
1000
3GENPOS
1070
     4
1000
3
1002
{
1002
}
1000
4GENPOS
1070
     4
1000
4
1002
{
1002
}
1000
5GENPOS
1070
     4
1000
5
1002
{
1002
}
1000
6GENPOS
1070
     4
1000
6
1002
{
1002
}
1000
7GENPOS
1070
     4
1000
7
1002
{
1002
}
1000
8GENPOS
1070
     4
1000
8
1002
{
1002
}
1000
9GENPOS
1070
     4
1000
9
1002
{
1002
}
1000
10GENPOS
1070
     4
1000
10
1002
{
1002
}
1000
11GENPOS
1070
     4
1000
11
1002
{
1002
}
1000
12GENPOS
1070
     4
1000
12
1002
{
1002
}
1000
13GENPOS
1070
     4
1000
13
1002
{
1002
}
1000
14GENPOS
1070
     4
1000
14
1002
{
1002
}
1000
15GENPOS
1070
     4
1000
15
1002
{
1002
}
1000
16GENPOS
1070
     4
1000
16
1002
{
1002
}
1000
17GENPOS
1070
     4
1000
17
1002
{
1002
}
1000
18GENPOS
1070
     4
1000
18
1002
{
1002
}
1000
19GENPOS
1070
     4
1000
19
1002
{
1002
}
1000
20GENPOS
1070
     4
1000
20
1002
{
1002
}
1000
21GENPOS
1070
     4
1000
21
1002
{
1002
}
1000
22GENPOS
1070
     4
1000
22
1002
{
1002
}
1000
23GENPOS
1070
     4
1000
23
1002
{
1002
}
1000
24GENPOS
1070
     4
1000
24
1002
{
1002
}
1000
25GENPOS
1070
     4
1000
25
1002
{
1002
}
1000
26GENPOS
1070
     4
1000
26
1002
{
1002
}
1000
27GENPOS
1070
     4
1000
27
1002
{
1002
}
1000
0GENPOS
1070
     4
1000
0
1002
{
1002
}
1002
}
1000
GENPOS13
1070
     0
1002
{
1000
1GENPOS
1070
     4
1000
1
1002
{
1002
}
1000
2GENPOS
1070
     4
1000
2
1002
{
1002
}
1000
3GENPOS
1070
     4
1000
3
1002
{
1002
}
1000
4GENPOS
1070
     4
1000
4
1002
{
1002
}
1000
5GENPOS
1070
     4
1000
5
1002
{
1002
}
1000
6GENPOS
1070
     4
1000
6
1002
{
1002
}
1000
7GENPOS
1070
     4
1000
7
1002
{
1002
}
1000
8GENPOS
1070
     4
1000
8
1002
{
1002
}
1000
9GENPOS
1070
     4
1000
9
1002
{
1002
}
1000
10GENPOS
1070
     4
1000
10
1002
{
1002
}
1000
11GENPOS
1070
     4
1000
11
1002
{
1002
}
1000
12GENPOS
1070
     4
1000
12
1002
{
1002
}
1000
13GENPOS
1070
     4
1000
13
1002
{
1002
}
1000
14GENPOS
1070
     4
1000
14
1002
{
1002
}
1000
15GENPOS
1070
     4
1000
15
1002
{
1002
}
1000
16GENPOS
1070
     4
1000
16
1002
{
1002
}
1000
17GENPOS
1070
     4
1000
17
1002
{
1002
}
1000
18GENPOS
1070
     4
1000
18
1002
{
1002
}
1000
19GENPOS
1070
     4
1000
19
1002
{
1002
}
1000
20GENPOS
1070
     4
1000
20
1002
{
1002
}
1000
21GENPOS
1070
     4
1000
21
1002
{
1002
}
1000
22GENPOS
1070
     4
1000
22
1002
{
1002
}
1000
23GENPOS
1070
     4
1000
23
1002
{
1002
}
1000
24GENPOS
1070
     4
1000
24
1002
{
1002
}
1000
0GENPOS
1070
     4
1000
0
1002
{
1002
}
1002
}
1000
GENPOS
1070
     0
1002
{
1000
1GENPOS
1070
     4
1000
1
1002
{
1002
}
1000
2GENPOS
1070
     4
1000
2
1002
{
1002
}
1000
3GENPOS
1070
     4
1000
3
1002
{
1002
}
1000
4GENPOS
1070
     4
1000
4
1002
{
1002
}
1000
5GENPOS
1070
     4
1000
5
1002
{
1002
}
1000
6GENPOS
1070
     4
1000
6
1002
{
1002
}
1000
7GENPOS
1070
     4
1000
7
1002
{
1002
}
1000
8GENPOS
1070
     4
1000
8
1002
{
1002
}
1000
9GENPOS
1070
     4
1000
9
1002
{
1002
}
1000
10GENPOS
1070
     4
1000
10
1002
{
1002
}
1000
11GENPOS
1070
     4
1000
11
1002
{
1002
}
1000
12GENPOS
1070
     4
1000
12
1002
{
1002
}
1000
13GENPOS
1070
     4
1000
13
1002
{
1002
}
1000
14GENPOS
1070
     4
1000
14
1002
{
1002
}
1000
15GENPOS
1070
     4
1000
15
1002
{
1002
}
1000
16GENPOS
1070
     4
1000
16
1002
{
1002
}
1000
17GENPOS
1070
     4
1000
17
1002
{
1002
}
1000
18GENPOS
1070
     4
1000
18
1002
{
1002
}
1000
19GENPOS
1070
     4
1000
19
1002
{
1002
}
1000
20GENPOS
1070
     4
1000
20
1002
{
1002
}
1000
21GENPOS
1070
     4
1000
21
1002
{
1002
}
1000
22GENPOS
1070
     4
1000
22
1002
{
1002
}
1000
23GENPOS
1070
     4
1000
23
1002
{
1002
}
1002
}
1000
DIN985
1070
     0
1002
{
1000
POSITION
1070
     4
1000
1
1002
{
1002
}
1000
MENGE
1070
     4
1000
2
1002
{
1002
}
1000
BLATT
1070
     4
1000
3
1002
{
1002
}
1000
BENENN
1070
     4
1000
5
1002
{
1002
}
1000
BENENN2
1070
     4
1000
6
1002
{
1002
}
1000
NORM
1070
     4
1000
7
1002
{
1002
}
1000
NORM2
1070
     4
1000
8
1002
{
1002
}
1000
WERKSTOFF
1070
     4
1000
9
1002
{
1002
}
1000
WERKSTOFF2
1070
     4
1000
10
1002
{
1002
}
1002
}
1000
DIN986
1070
     0
1002
{
1000
POSITION
1070
     4
1000
1
1002
{
1002
}
1000
MENGE
1070
     4
1000
2
1002
{
1002
}
1000
BLATT
1070
     4
1000
3
1002
{
1002
}
1000
BENENN
1070
     4
1000
5
1002
{
1002
}
1000
BENENN2
1070
     4
1000
6
1002
{
1002
}
1000
NORM
1070
     4
1000
7
1002
{
1002
}
1000
NORM2
1070
     4
1000
8
1002
{
1002
}
1000
WERKSTOFF
1070
     4
1000
9
1002
{
1002
}
1000
WERKSTOFF2
1070
     4
1000
10
1002
{
1002
}
1002
}
1000
DIN987
1070
     0
1002
{
1000
POSITION
1070
     4
1000
1
1002
{
1002
}
1000
MENGE
1070
     4
1000
2
1002
{
1002
}
1000
BLATT
1070
     4
1000
3
1002
{
1002
}
1000
BENENN
1070
     4
1000
5
1002
{
1002
}
1000
BENENN2
1070
     4
1000
6
1002
{
1002
}
1000
NORM
1070
     4
1000
7
1002
{
1002
}
1000
NORM2
1070
     4
1000
8
1002
{
1002
}
1000
WERKSTOFF
1070
     4
1000
9
1002
{
1002
}
1000
WERKSTOFF2
1070
     4
1000
10
1002
{
1002
}
1002
}
1002
}
  0
APPID
  5
1001
330
9
100
AcDbSymbolTableRecord
100
AcDbRegAppTableRecord
  2
GENIUS_GENCFG1_13
 70
     0
1001
GENIUS_GENCFG_13
1071
912092035
1000
1001
1000
GEN@INFO_POS
1070
     7
1000
GenCfgObject
1000
GenCfgShort
1000
GenCfgReal
1000
GenCfgBool
1000
GenCfgString
1000
GenCfgDim
1000
GenCfgAttrInf
1000
DescrText
1070
     4
1000
5, ,6, ,7, ,8
1002
{
1002
}
1000
DescrText2
1070
     4
1000
26
1002
{
1002
}
1000
VisibleAttr1
1070
     4
1000
1
1002
{
1002
}
1000
VisibleAttr2
1070
     4
1000
26
1002
{
1002
}
1000
UpdateBlock
1070
     3
1070
     1
1002
{
1002
}
1000
Attrib
1070
     0
1002
{
1000
0
1070
     6
1002
{
1000
Prompt
1070
     4
1000
(genmsg gendwg 103)
1002
{
1002
}
1000
Value
1070
     4
1000

1002
{
1002
}
1000
EditFlag
1070
     1
1070
     0
1002
{
1002
}
1000
PosInDDATTE
1070
     1
1070
    27
1002
{
1002
}
1000
FieldLen
1070
     1
1070
    -1
1002
{
1002
}
1002
}
1000
1
1070
     6
1002
{
1000
Prompt
1070
     4
1000
(genmsg gendwg 31)
1002
{
1002
}
1000
Value
1070
     4
1000
1
1002
{
1002
}
1000
EditFlag
1070
     1
1070
     1
1002
{
1002
}
1000
PosInDDATTE
1070
     1
1070
     1
1002
{
1002
}
1000
FieldLen
1070
     1
1070
    -1
1002
{
1002
}
1002
}
1000
2
1070
     6
1002
{
1000
Prompt
1070
     4
1000
(genmsg gendwg 32)
1002
{
1002
}
1000
Value
1070
     4
1000
1
1002
{
1002
}
1000
EditFlag
1070
     1
1070
     1
1002
{
1002
}
1000
PosInDDATTE
1070
     1
1070
     2
1002
{
1002
}
1000
FieldLen
1070
     1
1070
    -1
1002
{
1002
}
1002
}
1000
3
1070
     6
1002
{
1000
Prompt
1070
     4
1000
(genmsg gendwg 33)
1002
{
1002
}
1000
Value
1070
     4
1000

1002
{
1002
}
1000
EditFlag
1070
     1
1070
     1
1002
{
1002
}
1000
PosInDDATTE
1070
     1
1070
     3
1002
{
1002
}
1000
FieldLen
1070
     1
1070
    -1
1002
{
1002
}
1002
}
1000
4
1070
     6
1002
{
1000
Prompt
1070
     4
1000
(genmsg gendwg 34)
1002
{
1002
}
1000
Value
1070
     4
1000

1002
{
1002
}
1000
EditFlag
1070
     1
1070
     1
1002
{
1002
}
1000
PosInDDATTE
1070
     1
1070
     4
1002
{
1002
}
1000
FieldLen
1070
     1
1070
    -1
1002
{
1002
}
1002
}
1000
5
1070
     6
1002
{
1000
Prompt
1070
     4
1000
(genmsg gendwg 35)
1002
{
1002
}
1000
Value
1070
     4
1000

1002
{
1002
}
1000
EditFlag
1070
     1
1070
     1
1002
{
1002
}
1000
PosInDDATTE
1070
     1
1070
     5
1002
{
1002
}
1000
FieldLen
1070
     1
1070
    -1
1002
{
1002
}
1002
}
1000
6
1070
     6
1002
{
1000
Prompt
1070
     4
1000
(genmsg gendwg 36)
1002
{
1002
}
1000
Value
1070
     4
1000

1002
{
1002
}
1000
EditFlag
1070
     1
1070
     1
1002
{
1002
}
1000
PosInDDATTE
1070
     1
1070
     6
1002
{
1002
}
1000
FieldLen
1070
     1
1070
    -1
1002
{
1002
}
1002
}
1000
7
1070
     6
1002
{
1000
Prompt
1070
     4
1000
(genmsg gendwg 37)
1002
{
1002
}
1000
Value
1070
     4
1000

1002
{
1002
}
1000
EditFlag
1070
     1
1070
     1
1002
{
1002
}
1000
PosInDDATTE
1070
     1
1070
     7
1002
{
1002
}
1000
FieldLen
1070
     1
1070
    -1
1002
{
1002
}
1002
}
1000
8
1070
     6
1002
{
1000
Prompt
1070
     4
1000
(genmsg gendwg 38)
1002
{
1002
}
1000
Value
1070
     4
1000

1002
{
1002
}
1000
EditFlag
1070
     1
1070
     1
1002
{
1002
}
1000
PosInDDATTE
1070
     1
1070
     8
1002
{
1002
}
1000
FieldLen
1070
     1
1070
    -1
1002
{
1002
}
1002
}
1000
9
1070
     6
1002
{
1000
Prompt
1070
     4
1000
(genmsg gendwg 39)
1002
{
1002
}
1000
Value
1070
     4
1000

1002
{
1002
}
1000
EditFlag
1070
     1
1070
     1
1002
{
1002
}
1000
PosInDDATTE
1070
     1
1070
     9
1002
{
1002
}
1000
FieldLen
1070
     1
1070
    -1
1002
{
1002
}
1002
}
1000
10
1070
     6
1002
{
1000
Prompt
1070
     4
1000
(genmsg gendwg 40)
1002
{
1002
}
1000
Value
1070
     4
1000

1002
{
1002
}
1000
EditFlag
1070
     1
1070
     1
1002
{
1002
}
1000
PosInDDATTE
1070
     1
1070
    10
1002
{
1002
}
1000
FieldLen
1070
     1
1070
    -1
1002
{
1002
}
1002
}
1000
11
1070
     6
1002
{
1000
Prompt
1070
     4
1000
(genmsg gendwg 41)
1002
{
1002
}
1000
Value
1070
     4
1000

1002
{
1002
}
1000
EditFlag
1070
     1
1070
     1
1002
{
1002
}
1000
PosInDDATTE
1070
     1
1070
    11
1002
{
1002
}
1000
FieldLen
1070
     1
1070
    -1
1002
{
1002
}
1002
}
1000
12
1070
     6
1002
{
1000
Prompt
1070
     4
1000
(genmsg gendwg 42)
1002
{
1002
}
1000
Value
1070
     4
1000

1002
{
1002
}
1000
EditFlag
1070
     1
1070
     1
1002
{
1002
}
1000
PosInDDATTE
1070
     1
1070
    12
1002
{
1002
}
1000
FieldLen
1070
     1
1070
    -1
1002
{
1002
}
1002
}
1000
13
1070
     6
1002
{
1000
Prompt
1070
     4
1000
(genmsg gendwg 43)
1002
{
1002
}
1000
Value
1070
     4
1000

1002
{
1002
}
1000
EditFlag
1070
     1
1070
     1
1002
{
1002
}
1000
PosInDDATTE
1070
     1
1070
    13
1002
{
1002
}
1000
FieldLen
1070
     1
1070
    -1
1002
{
1002
}
1002
}
1000
14
1070
     6
1002
{
1000
Prompt
1070
     4
1000
(genmsg gendwg 44)
1002
{
1002
}
1000
Value
1070
     4
1000

1002
{
1002
}
1000
EditFlag
1070
     1
1070
     1
1002
{
1002
}
1000
PosInDDATTE
1070
     1
1070
    14
1002
{
1002
}
1000
FieldLen
1070
     1
1070
    -1
1002
{
1002
}
1002
}
1000
15
1070
     6
1002
{
1000
Prompt
1070
     4
1000
(genmsg gendwg 45)
1002
{
1002
}
1000
Value
1070
     4
1000

1002
{
1002
}
1000
EditFlag
1070
     1
1070
     1
1002
{
1002
}
1000
PosInDDATTE
1070
     1
1070
    15
1002
{
1002
}
1000
FieldLen
1070
     1
1070
    -1
1002
{
1002
}
1002
}
1000
16
1070
     6
1002
{
1000
Prompt
1070
     4
1000
(genmsg gendwg 46)
1002
{
1002
}
1000
Value
1070
     4
1000

1002
{
1002
}
1000
EditFlag
1070
     1
1070
     1
1002
{
1002
}
1000
PosInDDATTE
1070
     1
1070
    16
1002
{
1002
}
1000
FieldLen
1070
     1
1070
    -1
1002
{
1002
}
1002
}
1000
17
1070
     6
1002
{
1000
Prompt
1070
     4
1000
(genmsg gendwg 47)
1002
{
1002
}
1000
Value
1070
     4
1000

1002
{
1002
}
1000
EditFlag
1070
     1
1070
     1
1002
{
1002
}
1000
PosInDDATTE
1070
     1
1070
    17
1002
{
1002
}
1000
FieldLen
1070
     1
1070
    -1
1002
{
1002
}
1002
}
1000
18
1070
     6
1002
{
1000
Prompt
1070
     4
1000
(genmsg gendwg 48)
1002
{
1002
}
1000
Value
1070
     4
1000

1002
{
1002
}
1000
EditFlag
1070
     1
1070
     1
1002
{
1002
}
1000
PosInDDATTE
1070
     1
1070
    18
1002
{
1002
}
1000
FieldLen
1070
     1
1070
    -1
1002
{
1002
}
1002
}
1000
19
1070
     6
1002
{
1000
Prompt
1070
     4
1000
(genmsg gendwg 99)
1002
{
1002
}
1000
Value
1070
     4
1000

1002
{
1002
}
1000
EditFlag
1070
     1
1070
     1
1002
{
1002
}
1000
PosInDDATTE
1070
     1
1070
    19
1002
{
1002
}
1000
FieldLen
1070
     1
1070
    -1
1002
{
1002
}
1002
}
1000
20
1070
     6
1002
{
1000
Prompt
1070
     4
1000
(genmsg gendwg 100)
1002
{
1002
}
1000
Value
1070
     4
1000

1002
{
1002
}
1000
EditFlag
1070
     1
1070
     1
1002
{
1002
}
1000
PosInDDATTE
1070
     1
1070
    20
1002
{
1002
}
1000
FieldLen
1070
     1
1070
    -1
1002
{
1002
}
1002
}
1000
21
1070
     6
1002
{
1000
Prompt
1070
     4
1000
(genmsg gendwg 101)
1002
{
1002
}
1000
Value
1070
     4
1000

1002
{
1002
}
1000
EditFlag
1070
     1
1070
     1
1002
{
1002
}
1000
PosInDDATTE
1070
     1
1070
    21
1002
{
1002
}
1000
FieldLen
1070
     1
1070
    -1
1002
{
1002
}
1002
}
1000
22
1070
     6
1002
{
1000
Prompt
1070
     4
1000
(genmsg gendwg 102)
1002
{
1002
}
1000
Value
1070
     4
1000

1002
{
1002
}
1000
EditFlag
1070
     1
1070
     1
1002
{
1002
}
1000
PosInDDATTE
1070
     1
1070
    22
1002
{
1002
}
1000
FieldLen
1070
     1
1070
    -1
1002
{
1002
}
1002
}
1000
23
1070
     6
1002
{
1000
Prompt
1070
     4
1000
(genmsg gendwg 30)
1002
{
1002
}
1000
Value
1070
     4
1000

1002
{
1002
}
1000
EditFlag
1070
     1
1070
     1
1002
{
1002
}
1000
PosInDDATTE
1070
     1
1070
    23
1002
{
1002
}
1000
FieldLen
1070
     1
1070
    -1
1002
{
1002
}
1002
}
1000
24
1070
     6
1002
{
1000
Prompt
1070
     4
1000
(genmsg gendwg 104)
1002
{
1002
}
1000
Value
1070
     4
1000

1002
{
1002
}
1000
EditFlag
1070
     1
1070
     1
1002
{
1002
}
1000
PosInDDATTE
1070
     1
1070
    24
1002
{
1002
}
1000
FieldLen
1070
     1
1070
    -1
1002
{
1002
}
1002
}
1000
25
1070
     6
1002
{
1000
Prompt
1070
     4
1000
(genmsg gendwg 105)
1002
{
1002
}
1000
Value
1070
     4
1000

1002
{
1002
}
1000
EditFlag
1070
     1
1070
     1
1002
{
1002
}
1000
PosInDDATTE
1070
     1
1070
    25
1002
{
1002
}
1000
FieldLen
1070
     1
1070
    -1
1002
{
1002
}
1002
}
1000
26
1070
     6
1002
{
1000
Prompt
1070
     4
1000
(genmsg gendwg 106)
1002
{
1002
}
1000
Value
1070
     4
1000

1002
{
1002
}
1000
EditFlag
1070
     1
1070
     1
1002
{
1002
}
1000
PosInDDATTE
1070
     1
1070
    26
1002
{
1002
}
1000
FieldLen
1070
     1
1070
    -1
1002
{
1002
}
1002
}
1000
27
1070
     6
1002
{
1000
Prompt
1070
     4
1000
(genmsg gendwg 109)
1002
{
1002
}
1000
Value
1070
     4
1000

1002
{
1002
}
1000
EditFlag
1070
     1
1070
     2
1002
{
1002
}
1000
PosInDDATTE
1070
     1
1070
    27
1002
{
1002
}
1000
FieldLen
1070
     1
1070
    -1
1002
{
1002
}
1002
}
1002
}
1000
Xlate
1070
     0
1002
{
1000
>
1002
}
  0
APPID
  5
1002
330
9
100
AcDbSymbolTableRecord
100
AcDbRegAppTableRecord
  2
GENIUS_GENCFG2_13
 70
     0
1001
GENIUS_GENCFG_13
1071
912092035
1000
1002
1000
GEN@LAYER@DEFS
1070
     9
1000
GenCfgObject
1000
GenCfgShort
1000
GenCfgReal
1000
GenCfgBool
1000
GenCfgString
1000
GenCfgDim
1000
GenCfgAttrInf
1000
GenCfgLaySection
1000
GenCfgLayer
1000
Basic
1070
     0
1002
{
1000
0
1070
     8
1000
0
1002
{
1000
Color
1070
     1
1070
     7
1002
{
1002
}
1000
LType
1070
     4
1000
CONTINUOUS
1002
{
1002
}
1000
Base
1070
     3
1070
     0
1002
{
1002
}
1002
}
1000
1
1070
     8
1000
1
1002
{
1000
Color
1070
     1
1070
    14
1002
{
1002
}
1000
LType
1070
     4
1000
CONTINUOUS
1002
{
1002
}
1000
Base
1070
     3
1070
     0
1002
{
1002
}
1002
}
1000
2
1070
     8
1000
2
1002
{
1000
Color
1070
     1
1070
     5
1002
{
1002
}
1000
LType
1070
     4
1000
CONTINUOUS
1002
{
1002
}
1000
Base
1070
     3
1070
     0
1002
{
1002
}
1002
}
1000
3
1070
     8
1000
3
1002
{
1000
Color
1070
     1
1070
     6
1002
{
1002
}
1000
LType
1070
     4
1000
GEN3
1002
{
1002
}
1000
Base
1070
     3
1070
     0
1002
{
1002
}
1002
}
1000
4
1070
     8
1000
4
1002
{
1000
Color
1070
     1
1070
     3
1002
{
1002
}
1000
LType
1070
     4
1000
CONTINUOUS
1002
{
1002
}
1000
Base
1070
     3
1070
     0
1002
{
1002
}
1002
}
1000
5
1070
     8
1000
5
1002
{
1000
Color
1070
     1
1070
     3
1002
{
1002
}
1000
LType
1070
     4
1000
CONTINUOUS
1002
{
1002
}
1000
Base
1070
     3
1070
     0
1002
{
1002
}
1002
}
1000
6
1070
     8
1000
6
1002
{
1000
Color
1070
     1
1070
     2
1002
{
1002
}
1000
LType
1070
     4
1000
CONTINUOUS
1002
{
1002
}
1000
Base
1070
     3
1070
     0
1002
{
1002
}
1002
}
1000
7
1070
     8
1000
7
1002
{
1000
Color
1070
     1
1070
     4
1002
{
1002
}
1000
LType
1070
     4
1000
GEN7
1002
{
1002
}
1000
Base
1070
     3
1070
     0
1002
{
1002
}
1002
}
1000
8
1070
     8
1000
8
1002
{
1000
Color
1070
     1
1070
     1
1002
{
1002
}
1000
LType
1070
     4
1000
CONTINUOUS
1002
{
1002
}
1000
Base
1070
     3
1070
     0
1002
{
1002
}
1002
}
1000
3A
1070
     8
1000
3A
1002
{
1000
Color
1070
     1
1070
     6
1002
{
1002
}
1000
LType
1070
     4
1000
GEN3A
1002
{
1002
}
1000
Base
1070
     3
1070
     0
1002
{
1002
}
1002
}
1000
7A
1070
     8
1000
7A
1002
{
1000
Color
1070
     1
1070
     4
1002
{
1002
}
1000
LType
1070
     4
1000
GEN7A
1002
{
1002
}
1000
Base
1070
     3
1070
     0
1002
{
1002
}
1002
}
1000
2A
1070
     8
1000
2A
1002
{
1000
Color
1070
     1
1070
     7
1002
{
1002
}
1000
LType
1070
     4
1000
GEN7
1002
{
1002
}
1000
Base
1070
     3
1070
     0
1002
{
1002
}
1002
}
1000
4A
1070
     8
1000
4A
1002
{
1000
Color
1070
     1
1070
     3
1002
{
1002
}
1000
LType
1070
     4
1000
GEN4A
1002
{
1002
}
1000
Base
1070
     3
1070
     0
1002
{
1002
}
1002
}
1000
9
1070
     8
1000
9
1002
{
1000
Color
1070
     1
1070
   253
1002
{
1002
}
1000
LType
1070
     4
1000
CONTINUOUS
1002
{
1002
}
1000
Base
1070
     3
1070
     0
1002
{
1002
}
1002
}
1000
IP
1070
     8
1000
IP
1002
{
1000
Color
1070
     1
1070
     7
1002
{
1002
}
1000
LType
1070
     4
1000
CONTINUOUS
1002
{
1002
}
1000
Base
1070
     3
1070
     0
1002
{
1002
}
1002
}
1002
}
1000
Standard
1070
     0
1002
{
1000
0N
1070
     8
1000
0N
1002
{
1000
Color
1070
     1
1070
     7
1002
{
1002
}
1000
LType
1070
     4
1000
CONTINUOUS
1002
{
1002
}
1000
Base
1070
     3
1070
     0
1002
{
1002
}
1002
}
1000
1N
1070
     8
1000
1N
1002
{
1000
Color
1070
     1
1070
    14
1002
{
1002
}
1000
LType
1070
     4
1000
CONTINUOUS
1002
{
1002
}
1000
Base
1070
     3
1070
     0
1002
{
1002
}
1002
}
1000
2N
1070
     8
1000
2N
1002
{
1000
Color
1070
     1
1070
     5
1002
{
1002
}
1000
LType
1070
     4
1000
CONTINUOUS
1002
{
1002
}
1000
Base
1070
     3
1070
     0
1002
{
1002
}
1002
}
1000
3N
1070
     8
1000
3N
1002
{
1000
Color
1070
     1
1070
     6
1002
{
1002
}
1000
LType
1070
     4
1000
GEN3
1002
{
1002
}
1000
Base
1070
     3
1070
     0
1002
{
1002
}
1002
}
1000
4N
1070
     8
1000
4N
1002
{
1000
Color
1070
     1
1070
     3
1002
{
1002
}
1000
LType
1070
     4
1000
CONTINUOUS
1002
{
1002
}
1000
Base
1070
     3
1070
     0
1002
{
1002
}
1002
}
1000
5N
1070
     8
1000
5N
1002
{
1000
Color
1070
     1
1070
     3
1002
{
1002
}
1000
LType
1070
     4
1000
CONTINUOUS
1002
{
1002
}
1000
Base
1070
     3
1070
     0
1002
{
1002
}
1002
}
1000
6N
1070
     8
1000
6N
1002
{
1000
Color
1070
     1
1070
     2
1002
{
1002
}
1000
LType
1070
     4
1000
CONTINUOUS
1002
{
1002
}
1000
Base
1070
     3
1070
     0
1002
{
1002
}
1002
}
1000
7N
1070
     8
1000
7N
1002
{
1000
Color
1070
     1
1070
     4
1002
{
1002
}
1000
LType
1070
     4
1000
GEN7
1002
{
1002
}
1000
Base
1070
     3
1070
     0
1002
{
1002
}
1002
}
1000
8N
1070
     8
1000
8N
1002
{
1000
Color
1070
     1
1070
     1
1002
{
1002
}
1000
LType
1070
     4
1000
CONTINUOUS
1002
{
1002
}
1000
Base
1070
     3
1070
     0
1002
{
1002
}
1002
}
1000
3AN
1070
     8
1000
3AN
1002
{
1000
Color
1070
     1
1070
     6
1002
{
1002
}
1000
LType
1070
     4
1000
GEN3A
1002
{
1002
}
1000
Base
1070
     3
1070
     0
1002
{
1002
}
1002
}
1000
7AN
1070
     8
1000
7AN
1002
{
1000
Color
1070
     1
1070
     4
1002
{
1002
}
1000
LType
1070
     4
1000
GEN7A
1002
{
1002
}
1000
Base
1070
     3
1070
     0
1002
{
1002
}
1002
}
1000
2AN
1070
     8
1000
2AN
1002
{
1000
Color
1070
     1
1070
     7
1002
{
1002
}
1000
LType
1070
     4
1000
GEN7
1002
{
1002
}
1000
Base
1070
     3
1070
     0
1002
{
1002
}
1002
}
1000
4AN
1070
     8
1000
4AN
1002
{
1000
Color
1070
     1
1070
     3
1002
{
1002
}
1000
LType
1070
     4
1000
GEN4A
1002
{
1002
}
1000
Base
1070
     3
1070
     0
1002
{
1002
}
1002
}
1000
9N
1070
     8
1000
9N
1002
{
1000
Color
1070
     1
1070
   253
1002
{
1002
}
1000
LType
1070
     4
1000
CONTINUOUS
1002
{
1002
}
1000
Base
1070
     3
1070
     0
1002
{
1002
}
1002
}
1000
IPN
1070
     8
1000
IPN
1002
{
1000
Color
1070
     1
1070
     7
1002
{
1002
}
1000
LType
1070
     4
1000
CONTINUOUS
1002
{
1002
}
1000
Base
1070
     3
1070
     0
1002
{
1002
}
1002
}
1002
}
1000
Extra
1070
     0
1002
{
1000
Klin
1070
     8
1000
KLIN
1002
{
1000
Color
1070
     1
1070
     1
1002
{
1002
}
1000
LType
1070
     4
1000
CONTINUOUS
1002
{
1002
}
1000
Base
1070
     3
1070
     1
1002
{
1002
}
1002
}
1000
Info
1070
     8
1000
INFO
1002
{
1000
Color
1070
     1
1070
     4
1002
{
1002
}
1000
LType
1070
     4
1000
CONTINUOUS
1002
{
1002
}
1000
Base
1070
     3
1070
     1
1002
{
1002
}
1002
}
1000
Rahm2
1070
     8
1000
RAHM2
1002
{
1000
Color
1070
     1
1070
     1
1002
{
1002
}
1000
LType
1070
     4
1000
CONTINUOUS
1002
{
1002
}
1000
Base
1070
     3
1070
     1
1002
{
1002
}
1002
}
1000
Rahm3
1070
     8
1000
RAHM3
1002
{
1000
Color
1070
     1
1070
     2
1002
{
1002
}
1000
LType
1070
     4
1000
CONTINUOUS
1002
{
1002
}
1000
Base
1070
     3
1070
     1
1002
{
1002
}
1002
}
1000
Rahm5
1070
     8
1000
RAHM5
1002
{
1000
Color
1070
     1
1070
     7
1002
{
1002
}
1000
LType
1070
     4
1000
CONTINUOUS
1002
{
1002
}
1000
Base
1070
     3
1070
     1
1002
{
1002
}
1002
}
1000
View
1070
     8
1000
VIEW
1002
{
1000
Color
1070
     1
1070
     1
1002
{
1002
}
1000
LType
1070
     4
1000
CONTINUOUS
1002
{
1002
}
1000
Base
1070
     3
1070
     1
1002
{
1002
}
1002
}
1000
Behind
1070
     8
1000
BEHIND
1002
{
1000
Color
1070
     1
1070
   253
1002
{
1002
}
1000
LType
1070
     4
1000
CONTINUOUS
1002
{
1002
}
1000
Base
1070
     3
1070
     1
1002
{
1002
}
1002
}
1002
}
  0
APPID
  5
1003
330
9
100
AcDbSymbolTableRecord
100
AcDbRegAppTableRecord
  2
GENIUS_GENCFG3_13
 70
     0
1001
GENIUS_GENCFG_13
1071
912092035
1000
1003
1000
GEN@LAYER@ENTSORT
1070
    10
1000
GenCfgObject
1000
GenCfgShort
1000
GenCfgReal
1000
GenCfgBool
1000
GenCfgString
1000
GenCfgDim
1000
GenCfgAttrInf
1000
GenCfgLaySection
1000
GenCfgLayer
1000
GenCfgEntSort
1000
ADDL
1070
     9
1000
5
1002
{
1000
Class
1070
     4
1000
SYM
1002
{
1002
}
1000
Color
1070
     1
1070
     1
1002
{
1002
}
1000
LType
1070
     4
1000
BYLAYER
1002
{
1002
}
1002
}
1000
ALTR
1070
     9
1000
4
1002
{
1000
Class
1070
     4
1000

1002
{
1002
}
1000
Color
1070
     1
1070
     7
1002
{
1002
}
1000
LType
1070
     4
1000
GEN3A
1002
{
1002
}
1002
}
1000
BELI
1070
     9
1000
4
1002
{
1000
Class
1070
     4
1000

1002
{
1002
}
1000
Color
1070
     1
1070
   256
1002
{
1002
}
1000
LType
1070
     4
1000
BYLAYER
1002
{
1002
}
1002
}
1000
BHNV
1070
     9
1000
9
1002
{
1000
Class
1070
     4
1000
INV
1002
{
1002
}
1000
Color
1070
     1
1070
   256
1002
{
1002
}
1000
LType
1070
     4
1000
BYLAYER
1002
{
1002
}
1002
}
1000
BHNVS
1070
     9
1000
BEHIND
1002
{
1000
Class
1070
     4
1000
INV
1002
{
1002
}
1000
Color
1070
     1
1070
   256
1002
{
1002
}
1000
LType
1070
     4
1000
BYLAYER
1002
{
1002
}
1002
}
1000
BLID
1070
     9
1000
4A
1002
{
1000
Class
1070
     4
1000

1002
{
1002
}
1000
Color
1070
     1
1070
   256
1002
{
1002
}
1000
LType
1070
     4
1000
BYLAYER
1002
{
1002
}
1002
}
1000
BOAP
1070
     9
1000
4A
1002
{
1000
Class
1070
     4
1000

1002
{
1002
}
1000
Color
1070
     1
1070
   256
1002
{
1002
}
1000
LType
1070
     4
1000
BYLAYER
1002
{
1002
}
1002
}
1000
BOR2
1070
     9
1000
RAHM2
1002
{
1000
Class
1070
     4
1000
SPZ,SYM
1002
{
1002
}
1000
Color
1070
     1
1070
   256
1002
{
1002
}
1000
LType
1070
     4
1000
BYLAYER
1002
{
1002
}
1002
}
1000
BOR3
1070
     9
1000
RAHM3
1002
{
1000
Class
1070
     4
1000
SPZ,SYM
1002
{
1002
}
1000
Color
1070
     1
1070
   256
1002
{
1002
}
1000
LType
1070
     4
1000
BYLAYER
1002
{
1002
}
1002
}
1000
BOR5
1070
     9
1000
RAHM5
1002
{
1000
Class
1070
     4
1000
SPZ,SYM
1002
{
1002
}
1000
Color
1070
     1
1070
   256
1002
{
1002
}
1000
LType
1070
     4
1000
BYLAYER
1002
{
1002
}
1002
}
1000
BOR7
1070
     9
1000
RAHM5
1002
{
1000
Class
1070
     4
1000
SPZ,SYM
1002
{
1002
}
1000
Color
1070
     1
1070
     7
1002
{
1002
}
1000
LType
1070
     4
1000
CONTINUOUS
1002
{
1002
}
1002
}
1000
BPAP
1070
     9
1000
4A
1002
{
1000
Class
1070
     4
1000

1002
{
1002
}
1000
Color
1070
     1
1070
   256
1002
{
1002
}
1000
LType
1070
     4
1000
BYLAYER
1002
{
1002
}
1002
}
1000
BPEX
1070
     9
1000
4A
1002
{
1000
Class
1070
     4
1000

1002
{
1002
}
1000
Color
1070
     1
1070
   256
1002
{
1002
}
1000
LType
1070
     4
1000
BYLAYER
1002
{
1002
}
1002
}
1000
BTDI
1070
     9
1000
5
1002
{
1000
Class
1070
     4
1000
DIM,SYM
1002
{
1002
}
1000
Color
1070
     1
1070
   256
1002
{
1002
}
1000
LType
1070
     4
1000
BYLAYER
1002
{
1002
}
1002
}
1000
CAL2
1070
     9
1000
4
1002
{
1000
Class
1070
     4
1000
SYM
1002
{
1002
}
1000
Color
1070
     1
1070
   256
1002
{
1002
}
1000
LType
1070
     4
1000
BYLAYER
1002
{
1002
}
1002
}
1000
CAL3
1070
     9
1000
4
1002
{
1000
Class
1070
     4
1000
SYM
1002
{
1002
}
1000
Color
1070
     1
1070
     2
1002
{
1002
}
1000
LType
1070
     4
1000
BYLAYER
1002
{
1002
}
1002
}
1000
CAL5
1070
     9
1000
4
1002
{
1000
Class
1070
     4
1000
SYM
1002
{
1002
}
1000
Color
1070
     1
1070
     7
1002
{
1002
}
1000
LType
1070
     4
1000
BYLAYER
1002
{
1002
}
1002
}
1000
CAL7
1070
     9
1000
4
1002
{
1000
Class
1070
     4
1000
SYM
1002
{
1002
}
1000
Color
1070
     1
1070
     5
1002
{
1002
}
1000
LType
1070
     4
1000
BYLAYER
1002
{
1002
}
1002
}
1000
CENN
1070
     9
1000
7A
1002
{
1000
Class
1070
     4
1000
CEN
1002
{
1002
}
1000
Color
1070
     1
1070
   256
1002
{
1002
}
1000
LType
1070
     4
1000
BYLAYER
1002
{
1002
}
1002
}
1000
CENW
1070
     9
1000
7
1002
{
1000
Class
1070
     4
1000
CEN
1002
{
1002
}
1000
Color
1070
     1
1070
   256
1002
{
1002
}
1000
LType
1070
     4
1000
BYLAYER
1002
{
1002
}
1002
}
1000
CLIN
1070
     9
1000
KLIN
1002
{
1000
Class
1070
     4
1000
SPZ
1002
{
1002
}
1000
Color
1070
     1
1070
   256
1002
{
1002
}
1000
LType
1070
     4
1000
BYLAYER
1002
{
1002
}
1002
}
1000
CON1
1070
     9
1000
0
1002
{
1000
Class
1070
     4
1000
CON,BGD
1002
{
1002
}
1000
Color
1070
     1
1070
   256
1002
{
1002
}
1000
LType
1070
     4
1000
BYLAYER
1002
{
1002
}
1002
}
1000
CON2
1070
     9
1000
1
1002
{
1000
Class
1070
     4
1000
CON,BGD
1002
{
1002
}
1000
Color
1070
     1
1070
   256
1002
{
1002
}
1000
LType
1070
     4
1000
BYLAYER
1002
{
1002
}
1002
}
1000
CON3
1070
     9
1000
2
1002
{
1000
Class
1070
     4
1000
CON,BGD
1002
{
1002
}
1000
Color
1070
     1
1070
   256
1002
{
1002
}
1000
LType
1070
     4
1000
BYLAYER
1002
{
1002
}
1002
}
1000
CON4
1070
     9
1000
2
1002
{
1000
Class
1070
     4
1000
CON,BGD
1002
{
1002
}
1000
Color
1070
     1
1070
   256
1002
{
1002
}
1000
LType
1070
     4
1000
BYLAYER
1002
{
1002
}
1002
}
1000
DERP
1070
     9
1000
4
1002
{
1000
Class
1070
     4
1000

1002
{
1002
}
1000
Color
1070
     1
1070
   256
1002
{
1002
}
1000
LType
1070
     4
1000
BYLAYER
1002
{
1002
}
1002
}
1000
DETA
1070
     9
1000
4
1002
{
1000
Class
1070
     4
1000

1002
{
1002
}
1000
Color
1070
     1
1070
   256
1002
{
1002
}
1000
LType
1070
     4
1000
BYLAYER
1002
{
1002
}
1002
}
1000
DIAG
1070
     9
1000
5
1002
{
1000
Class
1070
     4
1000
SYM
1002
{
1002
}
1000
Color
1070
     1
1070
   256
1002
{
1002
}
1000
LType
1070
     4
1000
BYLAYER
1002
{
1002
}
1002
}
1000
DILI
1070
     9
1000
5
1002
{
1000
Class
1070
     4
1000
DIM,SYM
1002
{
1002
}
1000
Color
1070
     1
1070
   256
1002
{
1002
}
1000
LType
1070
     4
1000
BYLAYER
1002
{
1002
}
1002
}
1000
DITO2
1070
     9
1000
5
1002
{
1000
Class
1070
     4
1000
DIM,SYM
1002
{
1002
}
1000
Color
1070
     1
1070
     3
1002
{
1002
}
1000
LType
1070
     4
1000
BYLAYER
1002
{
1002
}
1002
}
1000
DITO3
1070
     9
1000
5
1002
{
1000
Class
1070
     4
1000
DIM,SYM
1002
{
1002
}
1000
Color
1070
     1
1070
     2
1002
{
1002
}
1000
LType
1070
     4
1000
BYLAYER
1002
{
1002
}
1002
}
1000
DITX
1070
     9
1000
5
1002
{
1000
Class
1070
     4
1000
DIM,SYM
1002
{
1002
}
1000
Color
1070
     1
1070
     2
1002
{
1002
}
1000
LType
1070
     4
1000
CONTINUOUS
1002
{
1002
}
1002
}
1000
DIXL
1070
     9
1000
5
1002
{
1000
Class
1070
     4
1000
DIM,SYM
1002
{
1002
}
1000
Color
1070
     1
1070
   256
1002
{
1002
}
1000
LType
1070
     4
1000
BYLAYER
1002
{
1002
}
1002
}
1000
EXMP
1070
     9
1000
4A
1002
{
1000
Class
1070
     4
1000

1002
{
1002
}
1000
Color
1070
     1
1070
   256
1002
{
1002
}
1000
LType
1070
     4
1000
BYLAYER
1002
{
1002
}
1002
}
1000
FEMN
1070
     9
1000
8
1002
{
1000
Class
1070
     4
1000

1002
{
1002
}
1000
Color
1070
     1
1070
   256
1002
{
1002
}
1000
LType
1070
     4
1000
BYLAYER
1002
{
1002
}
1002
}
1000
FEMPN
1070
     9
1000
8
1002
{
1000
Class
1070
     4
1000
SYM
1002
{
1002
}
1000
Color
1070
     1
1070
     3
1002
{
1002
}
1000
LType
1070
     4
1000
BYLAYER
1002
{
1002
}
1002
}
1000
FEMSP
1070
     9
1000
4A
1002
{
1000
Class
1070
     4
1000

1002
{
1002
}
1000
Color
1070
     1
1070
   256
1002
{
1002
}
1000
LType
1070
     4
1000
CONTINUOUS
1002
{
1002
}
1002
}
1000
FEMST
1070
     9
1000
4A
1002
{
1000
Class
1070
     4
1000
SYM
1002
{
1002
}
1000
Color
1070
     1
1070
     3
1002
{
1002
}
1000
LType
1070
     4
1000
BYLAYER
1002
{
1002
}
1002
}
1000
FEMVN
1070
     9
1000
2
1002
{
1000
Class
1070
     4
1000
CON
1002
{
1002
}
1000
Color
1070
     1
1070
   256
1002
{
1002
}
1000
LType
1070
     4
1000
BYLAYER
1002
{
1002
}
1002
}
1000
FEMVT
1070
     9
1000
2
1002
{
1000
Class
1070
     4
1000
SYM
1002
{
1002
}
1000
Color
1070
     1
1070
     3
1002
{
1002
}
1000
LType
1070
     4
1000
BYLAYER
1002
{
1002
}
1002
}
1000
FLAT
1070
     9
1000
0
1002
{
1000
Class
1070
     4
1000

1002
{
1002
}
1000
Color
1070
     1
1070
   256
1002
{
1002
}
1000
LType
1070
     4
1000
BYLAYER
1002
{
1002
}
1002
}
1000
FRAR
1070
     9
1000
4A
1002
{
1000
Class
1070
     4
1000

1002
{
1002
}
1000
Color
1070
     1
1070
   256
1002
{
1002
}
1000
LType
1070
     4
1000
BYLAYER
1002
{
1002
}
1002
}
1000
GRLI
1070
     9
1000
5
1002
{
1000
Class
1070
     4
1000
SYM
1002
{
1002
}
1000
Color
1070
     1
1070
   256
1002
{
1002
}
1000
LType
1070
     4
1000
BYLAYER
1002
{
1002
}
1002
}
1000
GVLI
1070
     9
1000
4A
1002
{
1000
Class
1070
     4
1000

1002
{
1002
}
1000
Color
1070
     1
1070
   256
1002
{
1002
}
1000
LType
1070
     4
1000
BYLAYER
1002
{
1002
}
1002
}
1000
HATC
1070
     9
1000
8
1002
{
1000
Class
1070
     4
1000
HTC,BGD
1002
{
1002
}
1000
Color
1070
     1
1070
   256
1002
{
1002
}
1000
LType
1070
     4
1000
BYLAYER
1002
{
1002
}
1002
}
1000
HIDN
1070
     9
1000
3A
1002
{
1000
Class
1070
     4
1000
HID,BGD
1002
{
1002
}
1000
Color
1070
     1
1070
   256
1002
{
1002
}
1000
LType
1070
     4
1000
BYLAYER
1002
{
1002
}
1002
}
1000
HIDW
1070
     9
1000
3
1002
{
1000
Class
1070
     4
1000
HID,BGD
1002
{
1002
}
1000
Color
1070
     1
1070
   256
1002
{
1002
}
1000
LType
1070
     4
1000
BYLAYER
1002
{
1002
}
1002
}
1000
HLIN
1070
     9
1000
4
1002
{
1000
Class
1070
     4
1000
BGD
1002
{
1002
}
1000
Color
1070
     1
1070
   256
1002
{
1002
}
1000
LType
1070
     4
1000
BYLAYER
1002
{
1002
}
1002
}
1000
HOCN
1070
     9
1000
7A
1002
{
1000
Class
1070
     4
1000
CEN
1002
{
1002
}
1000
Color
1070
     1
1070
   256
1002
{
1002
}
1000
LType
1070
     4
1000
BYLAYER
1002
{
1002
}
1002
}
1000
HOCW
1070
     9
1000
7
1002
{
1000
Class
1070
     4
1000
CEN
1002
{
1002
}
1000
Color
1070
     1
1070
   256
1002
{
1002
}
1000
LType
1070
     4
1000
BYLAYER
1002
{
1002
}
1002
}
1000
INFO
1070
     9
1000
INFO
1002
{
1000
Class
1070
     4
1000
SPZ,SYM
1002
{
1002
}
1000
Color
1070
     1
1070
   256
1002
{
1002
}
1000
LType
1070
     4
1000
BYLAYER
1002
{
1002
}
1002
}
1000
LADI
1070
     9
1000
4
1002
{
1000
Class
1070
     4
1000
BGD
1002
{
1002
}
1000
Color
1070
     1
1070
   256
1002
{
1002
}
1000
LType
1070
     4
1000
BYLAYER
1002
{
1002
}
1002
}
1000
LEAD
1070
     9
1000
5
1002
{
1000
Class
1070
     4
1000
SYM
1002
{
1002
}
1000
Color
1070
     1
1070
   256
1002
{
1002
}
1000
LType
1070
     4
1000
BYLAYER
1002
{
1002
}
1002
}
1000
N_ADDL
1070
     9
1000
5N
1002
{
1000
Class
1070
     4
1000
SYM
1002
{
1002
}
1000
Color
1070
     1
1070
     1
1002
{
1002
}
1000
LType
1070
     4
1000
BYLAYER
1002
{
1002
}
1002
}
1000
N_BHNV
1070
     9
1000
9N
1002
{
1000
Class
1070
     4
1000
INV
1002
{
1002
}
1000
Color
1070
     1
1070
   256
1002
{
1002
}
1000
LType
1070
     4
1000
BYLAYER
1002
{
1002
}
1002
}
1000
N_CON1
1070
     9
1000
0N
1002
{
1000
Class
1070
     4
1000
CON,BGD
1002
{
1002
}
1000
Color
1070
     1
1070
   256
1002
{
1002
}
1000
LType
1070
     4
1000
BYLAYER
1002
{
1002
}
1002
}
1000
N_CON2
1070
     9
1000
1N
1002
{
1000
Class
1070
     4
1000
CON,BGD
1002
{
1002
}
1000
Color
1070
     1
1070
   256
1002
{
1002
}
1000
LType
1070
     4
1000
BYLAYER
1002
{
1002
}
1002
}
1000
N_CON3
1070
     9
1000
2N
1002
{
1000
Class
1070
     4
1000
CON,BGD
1002
{
1002
}
1000
Color
1070
     1
1070
   256
1002
{
1002
}
1000
LType
1070
     4
1000
BYLAYER
1002
{
1002
}
1002
}
1000
N_CON4
1070
     9
1000
2N
1002
{
1000
Class
1070
     4
1000
CON,BGD
1002
{
1002
}
1000
Color
1070
     1
1070
   256
1002
{
1002
}
1000
LType
1070
     4
1000
BYLAYER
1002
{
1002
}
1002
}
1000
N_CENN
1070
     9
1000
7AN
1002
{
1000
Class
1070
     4
1000
CEN
1002
{
1002
}
1000
Color
1070
     1
1070
   256
1002
{
1002
}
1000
LType
1070
     4
1000
BYLAYER
1002
{
1002
}
1002
}
1000
N_CENW
1070
     9
1000
7N
1002
{
1000
Class
1070
     4
1000
CEN
1002
{
1002
}
1000
Color
1070
     1
1070
   256
1002
{
1002
}
1000
LType
1070
     4
1000
BYLAYER
1002
{
1002
}
1002
}
1000
N_DILI
1070
     9
1000
5N
1002
{
1000
Class
1070
     4
1000
DIM,SYM
1002
{
1002
}
1000
Color
1070
     1
1070
   256
1002
{
1002
}
1000
LType
1070
     4
1000
BYLAYER
1002
{
1002
}
1002
}
1000
N_DITX
1070
     9
1000
5N
1002
{
1000
Class
1070
     4
1000
DIM,SYM
1002
{
1002
}
1000
Color
1070
     1
1070
     2
1002
{
1002
}
1000
LType
1070
     4
1000
CONTINUOUS
1002
{
1002
}
1002
}
1000
N_DIXL
1070
     9
1000
5N
1002
{
1000
Class
1070
     4
1000
DIM,SYM
1002
{
1002
}
1000
Color
1070
     1
1070
   256
1002
{
1002
}
1000
LType
1070
     4
1000
BYLAYER
1002
{
1002
}
1002
}
1000
N_HATC
1070
     9
1000
8N
1002
{
1000
Class
1070
     4
1000
HTC,BGD
1002
{
1002
}
1000
Color
1070
     1
1070
   256
1002
{
1002
}
1000
LType
1070
     4
1000
BYLAYER
1002
{
1002
}
1002
}
1000
N_HIDN
1070
     9
1000
3AN
1002
{
1000
Class
1070
     4
1000
HID,BGD
1002
{
1002
}
1000
Color
1070
     1
1070
   256
1002
{
1002
}
1000
LType
1070
     4
1000
BYLAYER
1002
{
1002
}
1002
}
1000
N_HIDW
1070
     9
1000
3N
1002
{
1000
Class
1070
     4
1000
HID,BGD
1002
{
1002
}
1000
Color
1070
     1
1070
   256
1002
{
1002
}
1000
LType
1070
     4
1000
BYLAYER
1002
{
1002
}
1002
}
1000
N_NGIP
1070
     9
1000
IPN
1002
{
1000
Class
1070
     4
1000

1002
{
1002
}
1000
Color
1070
     1
1070
   256
1002
{
1002
}
1000
LType
1070
     4
1000
BYLAYER
1002
{
1002
}
1002
}
1000
N_PHAN
1070
     9
1000
4AN
1002
{
1000
Class
1070
     4
1000

1002
{
1002
}
1000
Color
1070
     1
1070
   256
1002
{
1002
}
1000
LType
1070
     4
1000
BYLAYER
1002
{
1002
}
1002
}
1000
N_POSL
1070
     9
1000
5N
1002
{
1000
Class
1070
     4
1000
SYM
1002
{
1002
}
1000
Color
1070
     1
1070
   256
1002
{
1002
}
1000
LType
1070
     4
1000
BYLAYER
1002
{
1002
}
1002
}
1000
N_TCON
1070
     9
1000
0N
1002
{
1000
Class
1070
     4
1000
CON,BGD
1002
{
1002
}
1000
Color
1070
     1
1070
   256
1002
{
1002
}
1000
LType
1070
     4
1000
BYLAYER
1002
{
1002
}
1002
}
1000
N_THLI
1070
     9
1000
4N
1002
{
1000
Class
1070
     4
1000
BGD
1002
{
1002
}
1000
Color
1070
     1
1070
   256
1002
{
1002
}
1000
LType
1070
     4
1000
BYLAYER
1002
{
1002
}
1002
}
1000
N_TLEN
1070
     9
1000
0N
1002
{
1000
Class
1070
     4
1000
CON,BGD
1002
{
1002
}
1000
Color
1070
     1
1070
   256
1002
{
1002
}
1000
LType
1070
     4
1000
BYLAYER
1002
{
1002
}
1002
}
1000
N_TXT3
1070
     9
1000
6N
1002
{
1000
Class
1070
     4
1000
SYM
1002
{
1002
}
1000
Color
1070
     1
1070
   256
1002
{
1002
}
1000
LType
1070
     4
1000
BYLAYER
1002
{
1002
}
1002
}
1000
N_VPLI
1070
     9
1000
2AN
1002
{
1000
Class
1070
     4
1000

1002
{
1002
}
1000
Color
1070
     1
1070
   256
1002
{
1002
}
1000
LType
1070
     4
1000
BYLAYER
1002
{
1002
}
1002
}
1000
NGIP
1070
     9
1000
IP
1002
{
1000
Class
1070
     4
1000

1002
{
1002
}
1000
Color
1070
     1
1070
   256
1002
{
1002
}
1000
LType
1070
     4
1000
BYLAYER
1002
{
1002
}
1002
}
1000
PAL2
1070
     9
1000
RAHM2
1002
{
1000
Class
1070
     4
1000
SPZ,SYM
1002
{
1002
}
1000
Color
1070
     1
1070
   256
1002
{
1002
}
1000
LType
1070
     4
1000
BYLAYER
1002
{
1002
}
1002
}
1000
PAL3
1070
     9
1000
RAHM3
1002
{
1000
Class
1070
     4
1000
SPZ,SYM
1002
{
1002
}
1000
Color
1070
     1
1070
   256
1002
{
1002
}
1000
LType
1070
     4
1000
BYLAYER
1002
{
1002
}
1002
}
1000
PAL5
1070
     9
1000
RAHM5
1002
{
1000
Class
1070
     4
1000
SPZ,SYM
1002
{
1002
}
1000
Color
1070
     1
1070
   256
1002
{
1002
}
1000
LType
1070
     4
1000
BYLAYER
1002
{
1002
}
1002
}
1000
PAL7
1070
     9
1000
RAHM5
1002
{
1000
Class
1070
     4
1000
SPZ,SYM
1002
{
1002
}
1000
Color
1070
     1
1070
     7
1002
{
1002
}
1000
LType
1070
     4
1000
CONTINUOUS
1002
{
1002
}
1002
}
1000
PHAN
1070
     9
1000
4A
1002
{
1000
Class
1070
     4
1000

1002
{
1002
}
1000
Color
1070
     1
1070
   256
1002
{
1002
}
1000
LType
1070
     4
1000
BYLAYER
1002
{
1002
}
1002
}
1000
POSL
1070
     9
1000
5
1002
{
1000
Class
1070
     4
1000
SYM
1002
{
1002
}
1000
Color
1070
     1
1070
   256
1002
{
1002
}
1000
LType
1070
     4
1000
BYLAYER
1002
{
1002
}
1002
}
1000
POSN
1070
     9
1000
6
1002
{
1000
Class
1070
     4
1000
SYM
1002
{
1002
}
1000
Color
1070
     1
1070
     7
1002
{
1002
}
1000
LType
1070
     4
1000
BYLAYER
1002
{
1002
}
1002
}
1000
POSREF
1070
     9
1000
6
1002
{
1000
Class
1070
     4
1000
SYM
1002
{
1002
}
1000
Color
1070
     1
1070
     5
1002
{
1002
}
1000
LType
1070
     4
1000
BYLAYER
1002
{
1002
}
1002
}
1000
POSX
1070
     9
1000
5
1002
{
1000
Class
1070
     4
1000
SYM
1002
{
1002
}
1000
Color
1070
     1
1070
     2
1002
{
1002
}
1000
LType
1070
     4
1000
CONTINUOUS
1002
{
1002
}
1002
}
1000
PSEC
1070
     9
1000
4A
1002
{
1000
Class
1070
     4
1000

1002
{
1002
}
1000
Color
1070
     1
1070
   256
1002
{
1002
}
1000
LType
1070
     4
1000
BYLAYER
1002
{
1002
}
1002
}
1000
RCGN
1070
     9
1000
7A
1002
{
1000
Class
1070
     4
1000
CEN
1002
{
1002
}
1000
Color
1070
     1
1070
   256
1002
{
1002
}
1000
LType
1070
     4
1000
BYLAYER
1002
{
1002
}
1002
}
1000
RCGW
1070
     9
1000
7
1002
{
1000
Class
1070
     4
1000
CEN
1002
{
1002
}
1000
Color
1070
     1
1070
   256
1002
{
1002
}
1000
LType
1070
     4
1000
BYLAYER
1002
{
1002
}
1002
}
1000
RFDI
1070
     9
1000
4
1002
{
1000
Class
1070
     4
1000
BGD
1002
{
1002
}
1000
Color
1070
     1
1070
   256
1002
{
1002
}
1000
LType
1070
     4
1000
BYLAYER
1002
{
1002
}
1002
}
1000
RQTR
1070
     9
1000
4
1002
{
1000
Class
1070
     4
1000

1002
{
1002
}
1000
Color
1070
     1
1070
     7
1002
{
1002
}
1000
LType
1070
     4
1000
GEN7A
1002
{
1002
}
1002
}
1000
RSBO
1070
     9
1000
4
1002
{
1000
Class
1070
     4
1000
BGD
1002
{
1002
}
1000
Color
1070
     1
1070
   256
1002
{
1002
}
1000
LType
1070
     4
1000
BYLAYER
1002
{
1002
}
1002
}
1000
SBRK
1070
     9
1000
4
1002
{
1000
Class
1070
     4
1000
BGD
1002
{
1002
}
1000
Color
1070
     1
1070
   256
1002
{
1002
}
1000
LType
1070
     4
1000
BYLAYER
1002
{
1002
}
1002
}
1000
SCEN
1070
     9
1000
7
1002
{
1000
Class
1070
     4
1000

1002
{
1002
}
1000
Color
1070
     1
1070
   256
1002
{
1002
}
1000
LType
1070
     4
1000
CONTINUOUS
1002
{
1002
}
1002
}
1000
SECT
1070
     9
1000
4
1002
{
1000
Class
1070
     4
1000
BGD
1002
{
1002
}
1000
Color
1070
     1
1070
   256
1002
{
1002
}
1000
LType
1070
     4
1000
BYLAYER
1002
{
1002
}
1002
}
1000
SELN
1070
     9
1000
7A
1002
{
1000
Class
1070
     4
1000

1002
{
1002
}
1000
Color
1070
     1
1070
   256
1002
{
1002
}
1000
LType
1070
     4
1000
BYLAYER
1002
{
1002
}
1002
}
1000
SELW
1070
     9
1000
7
1002
{
1000
Class
1070
     4
1000

1002
{
1002
}
1000
Color
1070
     1
1070
   256
1002
{
1002
}
1000
LType
1070
     4
1000
BYLAYER
1002
{
1002
}
1002
}
1000
SSYS
1070
     9
1000
0
1002
{
1000
Class
1070
     4
1000

1002
{
1002
}
1000
Color
1070
     1
1070
   256
1002
{
1002
}
1000
LType
1070
     4
1000
BYLAYER
1002
{
1002
}
1002
}
1000
STLI
1070
     9
1000
4
1002
{
1000
Class
1070
     4
1000

1002
{
1002
}
1000
Color
1070
     1
1070
     7
1002
{
1002
}
1000
LType
1070
     4
1000
GEN3A
1002
{
1002
}
1002
}
1000
SYB1
1070
     9
1000
5
1002
{
1000
Class
1070
     4
1000
SYM
1002
{
1002
}
1000
Color
1070
     1
1070
   256
1002
{
1002
}
1000
LType
1070
     4
1000
BYLAYER
1002
{
1002
}
1002
}
1000
SYB2
1070
     9
1000
5
1002
{
1000
Class
1070
     4
1000
SYM
1002
{
1002
}
1000
Color
1070
     1
1070
   256
1002
{
1002
}
1000
LType
1070
     4
1000
BYLAYER
1002
{
1002
}
1002
}
1000
SYB3
1070
     9
1000
6
1002
{
1000
Class
1070
     4
1000
SYM
1002
{
1002
}
1000
Color
1070
     1
1070
   256
1002
{
1002
}
1000
LType
1070
     4
1000
CONTINUOUS
1002
{
1002
}
1002
}
1000
SYB5
1070
     9
1000
5
1002
{
1000
Class
1070
     4
1000
SYM
1002
{
1002
}
1000
Color
1070
     1
1070
     7
1002
{
1002
}
1000
LType
1070
     4
1000
BYLAYER
1002
{
1002
}
1002
}
1000
SYMN
1070
     9
1000
7A
1002
{
1000
Class
1070
     4
1000
CEN
1002
{
1002
}
1000
Color
1070
     1
1070
   256
1002
{
1002
}
1000
LType
1070
     4
1000
BYLAYER
1002
{
1002
}
1002
}
1000
SYMW
1070
     9
1000
7
1002
{
1000
Class
1070
     4
1000
CEN
1002
{
1002
}
1000
Color
1070
     1
1070
   256
1002
{
1002
}
1000
LType
1070
     4
1000
BYLAYER
1002
{
1002
}
1002
}
1000
TCON
1070
     9
1000
0
1002
{
1000
Class
1070
     4
1000
CON,BGD
1002
{
1002
}
1000
Color
1070
     1
1070
   256
1002
{
1002
}
1000
LType
1070
     4
1000
BYLAYER
1002
{
1002
}
1002
}
1000
THLI
1070
     9
1000
4
1002
{
1000
Class
1070
     4
1000
BGD
1002
{
1002
}
1000
Color
1070
     1
1070
   256
1002
{
1002
}
1000
LType
1070
     4
1000
BYLAYER
1002
{
1002
}
1002
}
1000
TIT2
1070
     9
1000
RAHM2
1002
{
1000
Class
1070
     4
1000
SPZ,SYM
1002
{
1002
}
1000
Color
1070
     1
1070
   256
1002
{
1002
}
1000
LType
1070
     4
1000
BYLAYER
1002
{
1002
}
1002
}
1000
TIT3
1070
     9
1000
RAHM3
1002
{
1000
Class
1070
     4
1000
SPZ,SYM
1002
{
1002
}
1000
Color
1070
     1
1070
   256
1002
{
1002
}
1000
LType
1070
     4
1000
BYLAYER
1002
{
1002
}
1002
}
1000
TIT5
1070
     9
1000
RAHM5
1002
{
1000
Class
1070
     4
1000
SPZ,SYM
1002
{
1002
}
1000
Color
1070
     1
1070
   256
1002
{
1002
}
1000
LType
1070
     4
1000
BYLAYER
1002
{
1002
}
1002
}
1000
TIT7
1070
     9
1000
RAHM5
1002
{
1000
Class
1070
     4
1000
SPZ,SYM
1002
{
1002
}
1000
Color
1070
     1
1070
     7
1002
{
1002
}
1000
LType
1070
     4
1000
CONTINUOUS
1002
{
1002
}
1002
}
1000
TLEN
1070
     9
1000
0
1002
{
1000
Class
1070
     4
1000
CON,BGD
1002
{
1002
}
1000
Color
1070
     1
1070
   256
1002
{
1002
}
1000
LType
1070
     4
1000
BYLAYER
1002
{
1002
}
1002
}
1000
TRKN
1070
     9
1000
7A
1002
{
1000
Class
1070
     4
1000

1002
{
1002
}
1000
Color
1070
     1
1070
   256
1002
{
1002
}
1000
LType
1070
     4
1000
BYLAYER
1002
{
1002
}
1002
}
1000
TRKW
1070
     9
1000
7
1002
{
1000
Class
1070
     4
1000

1002
{
1002
}
1000
Color
1070
     1
1070
   256
1002
{
1002
}
1000
LType
1070
     4
1000
BYLAYER
1002
{
1002
}
1002
}
1000
TRLI
1070
     9
1000
4
1002
{
1000
Class
1070
     4
1000
BGD
1002
{
1002
}
1000
Color
1070
     1
1070
   256
1002
{
1002
}
1000
LType
1070
     4
1000
BYLAYER
1002
{
1002
}
1002
}
1000
TXT1
1070
     9
1000
6
1002
{
1000
Class
1070
     4
1000
SYM
1002
{
1002
}
1000
Color
1070
     1
1070
     2
1002
{
1002
}
1000
LType
1070
     4
1000
BYLAYER
1002
{
1002
}
1002
}
1000
TXT2
1070
     9
1000
6
1002
{
1000
Class
1070
     4
1000
SYM
1002
{
1002
}
1000
Color
1070
     1
1070
     2
1002
{
1002
}
1000
LType
1070
     4
1000
BYLAYER
1002
{
1002
}
1002
}
1000
TXT3
1070
     9
1000
6
1002
{
1000
Class
1070
     4
1000
SYM
1002
{
1002
}
1000
Color
1070
     1
1070
   256
1002
{
1002
}
1000
LType
1070
     4
1000
BYLAYER
1002
{
1002
}
1002
}
1000
TXT5
1070
     9
1000
6
1002
{
1000
Class
1070
     4
1000
SYM
1002
{
1002
}
1000
Color
1070
     1
1070
     7
1002
{
1002
}
1000
LType
1070
     4
1000
BYLAYER
1002
{
1002
}
1002
}
1000
TXT7
1070
     9
1000
6
1002
{
1000
Class
1070
     4
1000
SYM
1002
{
1002
}
1000
Color
1070
     1
1070
     7
1002
{
1002
}
1000
LType
1070
     4
1000
BYLAYER
1002
{
1002
}
1002
}
1000
VIEW
1070
     9
1000
VIEW
1002
{
1000
Class
1070
     4
1000
SPZ
1002
{
1002
}
1000
Color
1070
     1
1070
   256
1002
{
1002
}
1000
LType
1070
     4
1000
BYLAYER
1002
{
1002
}
1002
}
1000
VPLI
1070
     9
1000
2A
1002
{
1000
Class
1070
     4
1000

1002
{
1002
}
1000
Color
1070
     1
1070
   256
1002
{
1002
}
1000
LType
1070
     4
1000
BYLAYER
1002
{
1002
}
1002
}
1000
ZIZA
1070
     9
1000
4
1002
{
1000
Class
1070
     4
1000
BGD
1002
{
1002
}
1000
Color
1070
     1
1070
   256
1002
{
1002
}
1000
LType
1070
     4
1000
GENZIGZAG
1002
{
1002
}
1002
}
  0
APPID
  5
1004
330
9
100
AcDbSymbolTableRecord
100
AcDbRegAppTableRecord
  2
GENIUS_GENCFG4_13
 70
     0
1001
GENIUS_GENCFG_13
1071
912092039
1000
1004
1000
GEN
1070
     9
1000
GenCfgObject
1000
GenCfgShort
1000
GenCfgReal
1000
GenCfgBool
1000
GenCfgString
1000
GenCfgDim
1000
GenCfgLaySection
1000
GenCfgLType
1000
GenCfgFilter
1000
Balloon
1070
     0
1002
{
1000
GenIF
1070
     1
1070
     3
1002
{
1002
}
1000
GenPosInc
1070
     1
1070
     1
1002
{
1002
}
1000
GenPosBlk
1070
     1
1070
     8
1002
{
1002
}
1000
GenPosVar
1070
     1
1070
     0
1002
{
1002
}
1000
GenZiCir
1070
     2
1040
1.5
1002
{
1002
}
1000
MaxCharForCenteredText
1070
     1
1070
    30
1002
{
1002
}
1000
Snap
1070
     0
1002
{
1000
ActivationRadius
1070
     2
1040
1.0
1002
{
1002
}
1000
M
1070
     0
1002
{
1000
SnapStepX
1070
     2
1040
20.0
1002
{
1002
}
1000
SnapStepY
1070
     2
1040
10.0
1002
{
1002
}
1002
}
1000
I
1070
     0
1002
{
1000
SnapStepX
1070
     2
1040
1.0
1002
{
1002
}
1000
SnapStepY
1070
     2
1040
0.5
1002
{
1002
}
1002
}
1002
}
1002
}
1000
Centerline
1070
     0
1002
{
1000
ScaleNot
1070
     3
1070
     0
1002
{
1002
}
1000
M
1070
     0
1002
{
1000
GenCenAng
1070
     4
1000
45|90|135
1002
{
1002
}
1000
GenCenDia
1070
     2
1040
10.0
1002
{
1002
}
1000
GenCenDias
1070
     4
1000
10|20|30
1002
{
1002
}
1000
GenCenDist
1070
     2
1040
3.0
1002
{
1002
}
1000
GenCenLen
1070
     2
1040
10.0
1002
{
1002
}
1000
GenCenOff
1070
     2
1040
10.0
1002
{
1002
}
1002
}
1000
I
1070
     0
1002
{
1000
GenCenAng
1070
     4
1000
45|90|135
1002
{
1002
}
1000
GenCenDia
1070
     2
1040
0.5
1002
{
1002
}
1000
GenCenDias
1070
     4
1000
0.5|1.0|1.5
1002
{
1002
}
1000
GenCenDist
1070
     2
1040
0.125
1002
{
1002
}
1000
GenCenLen
1070
     2
1040
0.5
1002
{
1002
}
1000
GenCenOff
1070
     2
1040
0.5
1002
{
1002
}
1002
}
1002
}
1000
CLine
1070
     0
1002
{
1000
CAngArray
1070
     4
1000
30|45|60
1002
{
1002
}
1000
Typ
1070
     4
1000
XLINE
1002
{
1002
}
1000
M
1070
     0
1002
{
1000
CLinArray
1070
     4
1000
10|20|30
1002
{
1002
}
1002
}
1000
I
1070
     0
1002
{
1000
CLinArray
1070
     4
1000
0.125|0.25|0.5
1002
{
1002
}
1002
}
1002
}
1000
Detail
1070
     0
1002
{
1002
}
1000
Dimension
1070
     5
1002
{
1000
DIMALT
1070
     1
1070
     0
1002
{
1002
}
1000
DIMALTD
1070
     1
1070
     2
1002
{
1002
}
1000
DIMALTTD
1070
     1
1070
     4
1002
{
1002
}
1000
DIMALTTZ
1070
     1
1070
     0
1002
{
1002
}
1000
DIMALTU
1070
     1
1070
     2
1002
{
1002
}
1000
DIMALTZ
1070
     1
1070
     0
1002
{
1002
}
1000
DIMAUNIT
1070
     1
1070
     0
1002
{
1002
}
1000
DIMBLK
1070
     4
1000

1002
{
1002
}
1000
DIMBLK1
1070
     4
1000

1002
{
1002
}
1000
DIMBLK2
1070
     4
1000

1002
{
1002
}
1000
DIMCLRD
1070
     1
1070
   256
1002
{
1002
}
1000
DIMCLRE
1070
     1
1070
   256
1002
{
1002
}
1000
DIMCLRT
1070
     1
1070
     2
1002
{
1002
}
1000
DIMDLE
1070
     2
1040
0.0
1002
{
1002
}
1000
DIMFIT
1070
     1
1070
     3
1002
{
1002
}
1000
DIMJUST
1070
     1
1070
     0
1002
{
1002
}
1000
DIMLFAC
1070
     2
1040
1.0
1002
{
1002
}
1000
DIMLIM
1070
     1
1070
     0
1002
{
1002
}
1000
DIMPOST
1070
     4
1000

1002
{
1002
}
1000
DIMRND
1070
     2
1040
0.0
1002
{
1002
}
1000
DIMSAH
1070
     1
1070
     0
1002
{
1002
}
1000
DIMSCALE
1070
     2
1040
1.0
1002
{
1000
S1_5
1070
     4
1000
5
1002
{
1002
}
1000
S1_10
1070
     4
1000
10
1002
{
1002
}
1002
}
1000
DIMSD1
1070
     1
1070
     0
1002
{
1002
}
1000
DIMSD2
1070
     1
1070
     0
1002
{
1002
}
1000
DIMSE1
1070
     1
1070
     0
1002
{
1002
}
1000
DIMSE2
1070
     1
1070
     0
1002
{
1002
}
1000
DIMSOXD
1070
     1
1070
     0
1002
{
1002
}
1000
DIMTAD
1070
     1
1070
     0
1002
{
1002
}
1000
DIMTFAC
1070
     2
1040
0.71
1002
{
1002
}
1000
DIMTIH
1070
     1
1070
     0
1002
{
1002
}
1000
DIMTIX
1070
     1
1070
     0
1002
{
1002
}
1000
DIMTM
1070
     2
1040
0.1
1002
{
1002
}
1000
DIMTOFL
1070
     1
1070
     0
1002
{
1002
}
1000
DIMTOH
1070
     1
1070
     0
1002
{
1002
}
1000
DIMTOL
1070
     1
1070
     0
1002
{
1002
}
1000
DIMTOLJ
1070
     1
1070
     1
1002
{
1002
}
1000
DIMTP
1070
     2
1040
0.1
1002
{
1002
}
1000
DIMTSZ
1070
     2
1040
0.0
1002
{
1002
}
1000
DIMTVP
1070
     2
1040
0.0
1002
{
1002
}
1000
DIMTXSTY
1070
     4
1000
STANDARD
1002
{
1002
}
1000
DIMTZIN
1070
     1
1070
     0
1002
{
1002
}
1000
DIMUNIT
1070
     1
1070
     2
1002
{
1002
}
1000
DIMUPT
1070
     1
1070
     0
1002
{
1002
}
1000
M
1070
     0
1002
{
1000
DIMALTF
1070
     2
1040
0.0393701
1002
{
1002
}
1000
DIMAPOST
1070
     4
1000
"
1002
{
1002
}
1000
DIMASZ
1070
     2
1040
2.5
1002
{
1002
}
1000
DIMCEN
1070
     2
1040
0.0
1002
{
1002
}
1000
DIMDEC
1070
     1
1070
     2
1002
{
1002
}
1000
DIMDLI
1070
     2
1040
7.0
1002
{
1002
}
1000
DIMEXE
1070
     2
1040
1.0
1002
{
1002
}
1000
DIMEXO
1070
     2
1040
1.0
1002
{
1002
}
1000
DIMGAP
1070
     2
1040
0.6
1002
{
1002
}
1000
DIMTDEC
1070
     1
1070
     3
1002
{
1002
}
1000
DIMTXT
1070
     2
1040
3.5
1002
{
1002
}
1000
DIMZIN
1070
     1
1070
     8
1002
{
1002
}
1002
}
1000
I
1070
     0
1002
{
1000
DIMALTF
1070
     2
1040
25.4
1002
{
1002
}
1000
DIMAPOST
1070
     4
1000
mm
1002
{
1002
}
1000
DIMASZ
1070
     2
1040
0.1
1002
{
1002
}
1000
DIMCEN
1070
     2
1040
0.0
1002
{
1002
}
1000
DIMDEC
1070
     1
1070
     4
1002
{
1002
}
1000
DIMDLI
1070
     2
1040
0.5
1002
{
1002
}
1000
DIMEXE
1070
     2
1040
0.1
1002
{
1002
}
1000
DIMEXO
1070
     2
1040
0.05
1002
{
1002
}
1000
DIMGAP
1070
     2
1040
0.06
1002
{
1002
}
1000
DIMTDEC
1070
     1
1070
     4
1002
{
1002
}
1000
DIMTXT
1070
     2
1040
0.12
1002
{
1002
}
1000
DIMZIN
1070
     1
1070
     7
1002
{
1002
}
1002
}
1000
GEN-ISO
1070
     5
1002
{
1000
NAME
1070
     4
1000
GEN-ISO
1002
{
1002
}
1000
DIMTAD
1070
     1
1070
     1
1002
{
1002
}
1000
DIMTOLJ
1070
     1
1070
     0
1002
{
1002
}
1000
DIMTOFL
1070
     1
1070
     1
1002
{
1002
}
1000
M
1070
     0
1002
{
1000
DIMEXE
1070
     2
1040
0.0
1002
{
1002
}
1000
DIMEXO
1070
     2
1040
0.0
1002
{
1002
}
1002
}
1000
I
1070
     0
1002
{
1002
}
1002
}
1000
GEN-ISO-POS
1070
     5
1002
{
1000
NAME
1070
     4
1000
GEN-ISO-POS
1002
{
1002
}
1000
DIMTOLJ
1070
     1
1070
     0
1002
{
1002
}
1000
DIMTXSTY
1070
     4
1000
STANDARD
1002
{
1002
}
1000
M
1070
     0
1002
{
1000
DIMASZ
1070
     2
1040
2.5
1002
{
1002
}
1000
DIMGAP
1070
     2
1040
1.5
1002
{
1002
}
1000
DIMTXT
1070
     2
1040
5.0
1002
{
1002
}
1002
}
1000
I
1070
     0
1002
{
1000
DIMASZ
1070
     2
1040
0.1
1002
{
1002
}
1000
DIMGAP
1070
     2
1040
0.06
1002
{
1002
}
1000
DIMTXT
1070
     2
1040
0.2
1002
{
1002
}
1002
}
1002
}
1000
GEN-ISO-CIR
1070
     5
1002
{
1000
NAME
1070
     4
1000
GEN-ISO$3
1002
{
1002
}
1000
DIMFIT
1070
     1
1070
     0
1002
{
1002
}
1000
DIMTAD
1070
     1
1070
     1
1002
{
1002
}
1000
DIMTOH
1070
     1
1070
     1
1002
{
1002
}
1000
DIMTOLJ
1070
     1
1070
     0
1002
{
1002
}
1000
DIMUPT
1070
     1
1070
     1
1002
{
1002
}
1000
M
1070
     0
1002
{
1002
}
1000
I
1070
     0
1002
{
1002
}
1000
DIMTIH
1070
     1
1070
     0
1002
{
1002
}
1000
DIMTIX
1070
     1
1070
     0
1002
{
1002
}
1000
DIMTOFL
1070
     1
1070
     0
1002
{
1002
}
1002
}
1000
GEN-ISO-RAD
1070
     5
1002
{
1000
NAME
1070
     4
1000
GEN-ISO$4
1002
{
1002
}
1000
DIMFIT
1070
     1
1070
     0
1002
{
1002
}
1000
DIMTAD
1070
     1
1070
     1
1002
{
1002
}
1000
DIMTOH
1070
     1
1070
     1
1002
{
1002
}
1000
DIMTOLJ
1070
     1
1070
     0
1002
{
1002
}
1000
DIMUPT
1070
     1
1070
     1
1002
{
1002
}
1000
M
1070
     0
1002
{
1000
DIMASZ
1070
     2
1040
1.5
1002
{
1002
}
1000
DIMEXE
1070
     2
1040
0.0
1002
{
1002
}
1000
DIMEXO
1070
     2
1040
0.0
1002
{
1002
}
1002
}
1000
I
1070
     0
1002
{
1002
}
1000
DIMTIH
1070
     1
1070
     0
1002
{
1002
}
1000
DIMTIX
1070
     1
1070
     0
1002
{
1002
}
1000
DIMTOFL
1070
     1
1070
     0
1002
{
1002
}
1002
}
1000
GEN-ISO-ORD
1070
     5
1002
{
1000
NAME
1070
     4
1000
GEN-ISO$6
1002
{
1002
}
1000
DIMTOLJ
1070
     1
1070
     0
1002
{
1002
}
1000
M
1070
     0
1002
{
1002
}
1000
I
1070
     0
1002
{
1002
}
1002
}
1000
GEN-ISO-AXE-F
1070
     5
1002
{
1000
NAME
1070
     4
1000
GEN-ISO-AXE-F
1002
{
1002
}
1000
DIMSE1
1070
     1
1070
     1
1002
{
1002
}
1000
DIMSE2
1070
     1
1070
     1
1002
{
1002
}
1000
DIMTAD
1070
     1
1070
     1
1002
{
1002
}
1000
DIMTOLJ
1070
     1
1070
     0
1002
{
1002
}
1000
DIMTOFL
1070
     1
1070
     1
1002
{
1002
}
1000
M
1070
     0
1002
{
1002
}
1000
I
1070
     0
1002
{
1002
}
1002
}
1000
GEN-ISO-AXE-H
1070
     5
1002
{
1000
NAME
1070
     4
1000
GEN-ISO-AXE-H
1002
{
1002
}
1000
DIMBLK1
1070
     4
1000
GENAXEH
1002
{
1002
}
1000
DIMLFAC
1070
     2
1040
2.0
1002
{
1002
}
1000
DIMSAH
1070
     1
1070
     1
1002
{
1002
}
1000
DIMSE1
1070
     1
1070
     1
1002
{
1002
}
1000
DIMSE2
1070
     1
1070
     1
1002
{
1002
}
1000
DIMTAD
1070
     1
1070
     1
1002
{
1002
}
1000
DIMTOLJ
1070
     1
1070
     0
1002
{
1002
}
1000
DIMTOFL
1070
     1
1070
     1
1002
{
1002
}
1000
M
1070
     0
1002
{
1002
}
1000
I
1070
     0
1002
{
1002
}
1002
}
1000
GEN-ANSI
1070
     5
1002
{
1000
NAME
1070
     4
1000
GEN-ANSI
1002
{
1002
}
1000
DIMTIH
1070
     1
1070
     1
1002
{
1002
}
1000
DIMTOH
1070
     1
1070
     1
1002
{
1002
}
1000
DIMTAD
1070
     1
1070
     0
1002
{
1002
}
1000
DIMTOLJ
1070
     1
1070
     1
1002
{
1002
}
1000
M
1070
     0
1002
{
1002
}
1000
I
1070
     0
1002
{
1002
}
1002
}
1000
GEN-ANSI-POS
1070
     5
1002
{
1000
NAME
1070
     4
1000
GEN-ANSI-POS
1002
{
1002
}
1000
DIMTOLJ
1070
     1
1070
     1
1002
{
1002
}
1000
DIMTXSTY
1070
     4
1000
STANDARD
1002
{
1002
}
1000
M
1070
     0
1002
{
1000
DIMASZ
1070
     2
1040
2.5
1002
{
1002
}
1000
DIMGAP
1070
     2
1040
1.5
1002
{
1002
}
1000
DIMTXT
1070
     2
1040
5.0
1002
{
1002
}
1002
}
1000
I
1070
     0
1002
{
1000
DIMASZ
1070
     2
1040
0.1
1002
{
1002
}
1000
DIMGAP
1070
     2
1040
0.06
1002
{
1002
}
1000
DIMTXT
1070
     2
1040
0.2
1002
{
1002
}
1002
}
1002
}
1000
GEN-ANSI-CIR
1070
     5
1002
{
1000
NAME
1070
     4
1000
GEN-ANSI$3
1002
{
1002
}
1000
DIMFIT
1070
     1
1070
     0
1002
{
1002
}
1000
DIMTAD
1070
     1
1070
     0
1002
{
1002
}
1000
DIMTIH
1070
     1
1070
     1
1002
{
1002
}
1000
DIMTIX
1070
     1
1070
     0
1002
{
1002
}
1000
DIMTOFL
1070
     1
1070
     0
1002
{
1002
}
1000
DIMTOH
1070
     1
1070
     1
1002
{
1002
}
1000
DIMTOLJ
1070
     1
1070
     1
1002
{
1002
}
1000
DIMUPT
1070
     1
1070
     1
1002
{
1002
}
1000
M
1070
     0
1002
{
1002
}
1000
I
1070
     0
1002
{
1002
}
1002
}
1000
GEN-ANSI-RAD
1070
     5
1002
{
1000
NAME
1070
     4
1000
GEN-ANSI$4
1002
{
1002
}
1000
DIMFIT
1070
     1
1070
     0
1002
{
1002
}
1000
DIMTAD
1070
     1
1070
     0
1002
{
1002
}
1000
DIMTIH
1070
     1
1070
     1
1002
{
1002
}
1000
DIMTIX
1070
     1
1070
     0
1002
{
1002
}
1000
DIMTOFL
1070
     1
1070
     0
1002
{
1002
}
1000
DIMTOH
1070
     1
1070
     1
1002
{
1002
}
1000
DIMTOLJ
1070
     1
1070
     1
1002
{
1002
}
1000
DIMUPT
1070
     1
1070
     1
1002
{
1002
}
1000
M
1070
     0
1002
{
1002
}
1000
I
1070
     0
1002
{
1002
}
1002
}
1000
GEN-ANSI-ORD
1070
     5
1002
{
1000
NAME
1070
     4
1000
GEN-ANSI$6
1002
{
1002
}
1000
DIMTAD
1070
     1
1070
     0
1002
{
1002
}
1000
DIMTIH
1070
     1
1070
     1
1002
{
1002
}
1000
DIMTOH
1070
     1
1070
     1
1002
{
1002
}
1000
DIMTOLJ
1070
     1
1070
     1
1002
{
1002
}
1000
M
1070
     0
1002
{
1002
}
1000
I
1070
     0
1002
{
1002
}
1002
}
1000
GEN-ANSI-AXE-F
1070
     5
1002
{
1000
NAME
1070
     4
1000
GEN-ANSI-AXE-F
1002
{
1002
}
1000
DIMBLK1
1070
     4
1000
GENAXEH
1002
{
1002
}
1000
DIMSAH
1070
     1
1070
     1
1002
{
1002
}
1000
DIMSE1
1070
     1
1070
     1
1002
{
1002
}
1000
DIMSE2
1070
     1
1070
     1
1002
{
1002
}
1000
DIMTAD
1070
     1
1070
     0
1002
{
1002
}
1000
DIMTIH
1070
     1
1070
     1
1002
{
1002
}
1000
DIMTOH
1070
     1
1070
     1
1002
{
1002
}
1000
DIMTOLJ
1070
     1
1070
     1
1002
{
1002
}
1000
M
1070
     0
1002
{
1002
}
1000
I
1070
     0
1002
{
1002
}
1002
}
1000
GEN-ANSI-AXE-H
1070
     5
1002
{
1000
NAME
1070
     4
1000
GEN-ANSI-AXE-H
1002
{
1002
}
1000
DIMBLK1
1070
     4
1000
GENAXEH
1002
{
1002
}
1000
DIMLFAC
1070
     2
1040
2.0
1002
{
1002
}
1000
DIMSAH
1070
     1
1070
     1
1002
{
1002
}
1000
DIMSE1
1070
     1
1070
     1
1002
{
1002
}
1000
DIMSE2
1070
     1
1070
     1
1002
{
1002
}
1000
DIMTAD
1070
     1
1070
     0
1002
{
1002
}
1000
DIMTOFL
1070
     1
1070
     1
1002
{
1002
}
1000
DIMTOLJ
1070
     1
1070
     1
1002
{
1002
}
1000
M
1070
     0
1002
{
1002
}
1000
I
1070
     0
1002
{
1002
}
1002
}
1002
}
1000
DimSet
1070
     0
1002
{
1000
ChainSum
1070
     3
1070
     0
1002
{
1002
}
1000
DimDclTyp0
1070
     4
1000
dim23
1002
{
1002
}
1000
HorBra
1070
     3
1070
     0
1002
{
1002
}
1000
StrDia
1070
     4
1000
%%c<>
1002
{
1002
}
1000
StrRad
1070
     4
1000
R<>
1002
{
1002
}
1000
TextMinus
1070
     4
1000
<>
1002
{
1002
}
1000
TextPlus
1070
     4
1000
<>
1002
{
1002
}
1000
M
1070
     0
1002
{
1000
DimdliFirst
1070
     2
1040
10.0
1002
{
1002
}
1000
PointMakeDist
1070
     2
1040
10.0
1002
{
1002
}
1002
}
1000
I
1070
     0
1002
{
1000
DimdliFirst
1070
     2
1040
0.5
1002
{
1002
}
1000
PointMakeDist
1070
     2
1040
0.5
1002
{
1002
}
1002
}
1000
FitGrade
1070
     4
1000
h7
1002
{
1002
}
1002
}
1000
Drawing
1070
     0
1002
{
1000
ChamferDimMode
1070
     1
1070
     2
1002
{
1002
}
1000
Gen_Fiso
1070
    -3
1040
1.0
1002
{
1002
}
1000
GenDimStil
1070
     4
1000
ISO
1002
{
1002
}
1000
GenDwgUScale
1070
     2
1040
1.0
1002
{
1002
}
1000
GenInch
1070
     4
1000
M
1002
{
1002
}
1000
GenPlotScale
1070
     4
1000
1:1
1002
{
1002
}
1000
Revisi
1070
     4
1000
0
1002
{
1002
}
1000
Version
1070
    -5
1000
14.01/May 26 1998
1002
{
1002
}
1000
Platform
1070
    -5
1000
WINNT
1002
{
1002
}
1002
}
1000
DwgVar
1070
     0
1002
{
1000
M
1070
     0
1002
{
1002
}
1000
I
1070
     0
1002
{
1002
}
1002
}
1000
Hatch
1070
     0
1002
{
1000
GenHtcFlag
1070
     3
1070
     0
1002
{
1002
}
1002
}
1000
Info_Pos
1070
     0
1002
{
1000
>
1002
}
1000
Layer
1070
     6
1002
{
1000
Defs
1070
     0
1002
{
1000
>
1002
}
1000
EntSort
1070
     0
1002
{
1000
>
1002
}
1000
Match
1070
     0
1002
{
1002
}
1000
Settings
1070
     0
1002
{
1000
FocGrNC
1070
     3
1070
     0
1002
{
1002
}
1000
FocGrLo
1070
     3
1070
     0
1002
{
1002
}
1000
FocLoNC
1070
     3
1070
     0
1002
{
1002
}
1000
FocusCol
1070
     1
1070
   253
1002
{
1002
}
1000
GenStdLG
1070
     4
1000

1002
{
1002
}
1000
LayMatch
1070
     3
1070
     0
1002
{
1002
}
1000
LgOff
1070
     3
1070
     0
1002
{
1002
}
1000
CurLG
1070
    -5
1000

1002
{
1002
}
1002
}
1002
}
1000
LType
1070
     0
1002
{
1000
GEN3
1070
     7
1000
genius.lin
1002
{
1002
}
1000
GEN7
1070
     7
1000
genius.lin
1002
{
1002
}
1000
GEN4A
1070
     7
1000
genius.lin
1002
{
1002
}
1000
GEN3A
1070
     7
1000
genius.lin
1002
{
1002
}
1000
GEN7A
1070
     7
1000
genius.lin
1002
{
1002
}
1000
GENZIGZAG
1070
     7
1000
genius.lin
1002
{
1002
}
1002
}
1000
Objecter
1070
     0
1002
{
1000
CreateGroups
1070
     3
1070
     0
1002
{
1002
}
1000
LaySwitch
1070
     3
1070
     1
1002
{
1002
}
1000
LastObj
1070
    -5
1000
0
1002
{
1002
}
1000
TimeStamp
1070
    -5
1000
19981126.15535021
1002
{
1002
}
1002
}
1000
OSWiz
1070
     0
1002
{
1000
Filter
1070
     0
1002
{
1000
HATCH
1070
     8
1002
{
1000
EntityType
1070
     4
1000
LINE
1002
{
1002
}
1000
Layer
1070
     4
1000
8,8N,*-8,*-8N
1002
{
1002
}
1000
Linetype
1070
     4
1000
*
1002
{
1002
}
1000
Color
1070
     4
1000
*
1002
{
1002
}
1000
ApplyInDims
1070
     3
1070
     1
1002
{
1002
}
1002
}
1000
SYMBOLS
1070
     8
1002
{
1000
EntityType
1070
     4
1000
*
1002
{
1002
}
1000
Layer
1070
     4
1000
[5-6],[5-6]N,*-[5-6],*-[5-6]N
1002
{
1002
}
1000
Linetype
1070
     4
1000
*
1002
{
1002
}
1000
Color
1070
     4
1000
*
1002
{
1002
}
1000
ApplyInDims
1070
     3
1070
     1
1002
{
1002
}
1002
}
1000
FEM
1070
     8
1002
{
1000
EntityType
1070
     4
1000
*
1002
{
1002
}
1000
Layer
1070
     4
1000
4A,4AN,*-4A,*-4AN
1002
{
1002
}
1000
Linetype
1070
     4
1000
*
1002
{
1002
}
1000
Color
1070
     4
1000
*
1002
{
1002
}
1000
ApplyInDims
1070
     3
1070
     1
1002
{
1002
}
1002
}
1002
}
1002
}
1000
PaList
1070
     0
1002
{
1000
AutoUpdatePartList
1070
     1
1070
     0
1002
{
1002
}
1000
ReadInfoPoint
1070
     3
1070
     0
1002
{
1002
}
1000
ReadPosNr
1070
     3
1070
     1
1002
{
1002
}
1000
RevStr
1070
     4
1000
0
1002
{
1002
}
1002
}
1000
Paper
1070
     0
1002
{
1000
Layer
1070
    -5
1000
5
1002
{
1002
}
1002
}
1000
PartDB
1070
     0
1002
{
1000
GenDbOwner
1070
     4
1000

1002
{
1002
}
1002
}
1000
System
1070
     0
1002
{
1000
Menu
1070
     4
1000
GEV
1002
{
1002
}
1002
}
1000
Title
1070
     0
1002
{
1000
MakeView
1070
     1
1070
     2
1002
{
1002
}
1002
}
1000
Tools
1070
     0
1002
{
1000
Trans
1070
     0
1002
{
1000
Drawingtranslation
1070
    -4
1070
     1
1002
{
1002
}
1000
upreserve
1070
     3
1070
     1
1002
{
1002
}
1000
originally_on
1070
    -4
1070
     0
1002
{
1002
}
1000
sourcelang
1070
    -5
1000
D
1002
{
1002
}
1002
}
1002
}
  0
APPID
  5
1005
330
9
100
AcDbSymbolTableRecord
100
AcDbRegAppTableRecord
  2
GENIUS_GEVCFG0_13
 70
     0
1001
GENIUS_GENCFG_13
1071
912092035
1000
1005
1000
GEV
1070
     1
1000
GenCfgObject
1000
VED
1070
     0
1002
{
1002
}
  0
APPID
  5
112B
330
9
100
AcDbSymbolTableRecord
100
AcDbRegAppTableRecord
  2
GEV_VCCNULL_SWITCH_OFF
 70
     0
  0
APPID
  5
1138
330
9
100
AcDbSymbolTableRecord
100
AcDbRegAppTableRecord
  2
GENIUS_GENDTOL_13
 70
     0
  0
APPID
  5
1203
330
9
100
AcDbSymbolTableRecord
100
AcDbRegAppTableRecord
  2
GENIUS_GENDIM_13
 70
     0
  0
APPID
  5
1205
330
9
100
AcDbSymbolTableRecord
100
AcDbRegAppTableRecord
  2
GENIUS_GE3DTOL_13
 70
     0
  0
APPID
  5
1208
330
9
100
AcDbSymbolTableRecord
100
AcDbRegAppTableRecord
  2
ACAD_TEMP_GRAPHIC
 70
     0
  0
APPID
  5
1212
330
9
100
AcDbSymbolTableRecord
100
AcDbRegAppTableRecord
  2
ACATTRIBSERVICES
 70
     0
  0
APPID
  5
1273
330
9
100
AcDbSymbolTableRecord
100
AcDbRegAppTableRecord
  2
ACADM_DIM_EDIT
 70
     0
  0
APPID
  5
1285
330
9
100
AcDbSymbolTableRecord
100
AcDbRegAppTableRecord
  2
GENIUS_GENSCREG_15
 70
     0
  0
APPID
  5
1287
330
9
100
AcDbSymbolTableRecord
100
AcDbRegAppTableRecord
  2
GENIUS_GENODEF_13
 70
     0
  0
APPID
  5
1288
330
9
100
AcDbSymbolTableRecord
100
AcDbRegAppTableRecord
  2
GENIUS_GENOBJ-N-SDF_13
 70
     0
  0
APPID
  5
1289
330
9
100
AcDbSymbolTableRecord
100
AcDbRegAppTableRecord
  2
GENIUS_GENOENT_13
 70
     0
  0
APPID
  5
128A
330
9
100
AcDbSymbolTableRecord
100
AcDbRegAppTableRecord
  2
GENIUS_GENOREF_13
 70
     0
  0
APPID
  5
128B
330
9
100
AcDbSymbolTableRecord
100
AcDbRegAppTableRecord
  2
GENIUS_GENOLIS_13
 70
     0
  0
APPID
  5
14A0
330
9
100
AcDbSymbolTableRecord
100
AcDbRegAppTableRecord
  2
GENIUS_GEFCFG0_13
 70
     0
  0
APPID
  5
170C
330
9
100
AcDbSymbolTableRecord
100
AcDbRegAppTableRecord
  2
AMG_3D2D_5.0
 70
     0
  0
APPID
  5
176C
330
9
100
AcDbSymbolTableRecord
100
AcDbRegAppTableRecord
  2
AMDT_DM_ADJ
 70
     0
  0
APPID
  5
1AA0
330
9
100
AcDbSymbolTableRecord
100
AcDbRegAppTableRecord
  2
AVE_RENDER
 70
     0
  0
APPID
  5
1AA1
330
9
100
AcDbSymbolTableRecord
100
AcDbRegAppTableRecord
  2
AVE_ENTITY_MATERIAL
 70
     0
  0
APPID
  5
1AAE
330
9
100
AcDbSymbolTableRecord
100
AcDbRegAppTableRecord
  2
AVE_FINISH
 70
     0
  0
APPID
  5
1AAF
330
9
100
AcDbSymbolTableRecord
100
AcDbRegAppTableRecord
  2
AVE_MATERIAL
 70
     0
  0
APPID
  5
1AB0
330
9
100
AcDbSymbolTableRecord
100
AcDbRegAppTableRecord
  2
AVE_GLOBAL
 70
     0
  0
APPID
  5
2918
330
9
100
AcDbSymbolTableRecord
100
AcDbRegAppTableRecord
  2
GENIUS_GENBLLY_14
 70
     0
  0
APPID
  5
2964
330
9
100
AcDbSymbolTableRecord
100
AcDbRegAppTableRecord
  2
GENIUS_GENTRA_14
 70
     0
  0
APPID
  5
297C
330
9
100
AcDbSymbolTableRecord
100
AcDbRegAppTableRecord
  2
GENIUS_GENOBJ-N-TIT_13
 70
     0
  0
APPID
  5
297D
330
9
100
AcDbSymbolTableRecord
100
AcDbRegAppTableRecord
  2
GENIUS_GENTITLE_13
 70
     0
  0
APPID
  5
29D0
330
9
100
AcDbSymbolTableRecord
100
AcDbRegAppTableRecord
  2
ACAD_DIMASSOC_CALC_DIMLFAC
 70
     0
  0
APPID
  5
29D1
330
9
100
AcDbSymbolTableRecord
100
AcDbRegAppTableRecord
  2
ACAD_DIMASSOC_DIMLFAC
 70
     0
  0
APPID
  5
29D2
330
9
100
AcDbSymbolTableRecord
100
AcDbRegAppTableRecord
  2
ACAD_DIMASSOC_OVERRIDDEN_DIMLFAC
 70
     0
  0
APPID
  5
2EAE
330
9
100
AcDbSymbolTableRecord
100
AcDbRegAppTableRecord
  2
GEVID1081330304
 70
     0
  0
APPID
  5
2EAF
330
9
100
AcDbSymbolTableRecord
100
AcDbRegAppTableRecord
  2
GEVDC
 70
     0
  0
APPID
  5
2EB0
330
9
100
AcDbSymbolTableRecord
100
AcDbRegAppTableRecord
  2
GENIUS_GENBH_13
 70
     0
  0
APPID
  5
2EB1
330
9
100
AcDbSymbolTableRecord
100
AcDbRegAppTableRecord
  2
GENIUS_GENOBJ-NBEHI-BHF_13
 70
     0
  0
APPID
  5
2EB2
330
9
100
AcDbSymbolTableRecord
100
AcDbRegAppTableRecord
  2
GENIUS_GENOBJ-NBEHI-BHB_13
 70
     0
  0
APPID
  5
2EB3
330
9
100
AcDbSymbolTableRecord
100
AcDbRegAppTableRecord
  2
GEVID1081330305
 70
     0
  0
APPID
  5
2EB4
330
9
100
AcDbSymbolTableRecord
100
AcDbRegAppTableRecord
  2
GEVMK
 70
     0
  0
APPID
  5
2EB5
330
9
100
AcDbSymbolTableRecord
100
AcDbRegAppTableRecord
  2
GENIUS_GENZVEED_13
 70
     0
  0
APPID
  5
2EB6
330
9
100
AcDbSymbolTableRecord
100
AcDbRegAppTableRecord
  2
AD_SKETCHDIM
 70
     0
  0
APPID
  5
2EB7
330
9
100
AcDbSymbolTableRecord
100
AcDbRegAppTableRecord
  2
GENIUS_GENDIMSH_14
 70
     0
  0
ENDTAB
  0
TABLE
  2
DIMSTYLE
  5
A
330
0
100
AcDbSymbolTable
 70
    36
100
AcDbDimStyleTable
 71
     1
340
10B
  0
DIMSTYLE
105
10B
102
{ACAD_REACTORS
330
2ECB
330
2ECC
330
2ECD
330
2ECE
330
2ECF
330
2ED0
330
2ED3
330
2ED4
330
2EE0
330
2EED
330
2EFA
330
2F07
330
2F14
330
2F33
330
2F40
330
2F5A
330
2F8E
102
}
330
A
100
AcDbSymbolTableRecord
100
AcDbDimStyleTableRecord
  2
PALETTI
 70
     0
 41
2.0
 42
0.0
 43
0.0
 44
1.5
 47
0.2
 48
0.2
 73
     0
 74
     0
 77
     1
 78
     8
140
3.5
141
-2.5
146
0.5
147
0.4
172
     1
176
   256
177
   256
178
   256
271
     1
272
     1
283
     2
284
     8
288
     1
340
10
  0
DIMSTYLE
105
1278
330
A
100
AcDbSymbolTableRecord
100
AcDbDimStyleTableRecord
  2
GEN-ISO
 70
     0
  4
"
 41
2.5
 42
0.0
 43
7.0
 44
0.0
 47
0.1
 48
0.1
 73
     0
 74
     0
 77
     1
 78
     8
140
3.5
141
0.0
143
0.0393701
146
0.71
147
0.6
172
     1
176
   256
177
   256
178
     2
271
     2
272
     3
274
     4
283
     0
340
10
  0
DIMSTYLE
105
1279
330
A
100
AcDbSymbolTableRecord
100
AcDbDimStyleTableRecord
  2
GEN-ISO$3
 70
     0
  4
"
 41
2.5
 42
1.0
 43
7.0
 44
1.0
 47
0.1
 48
0.1
 73
     0
 77
     1
 78
     8
140
3.5
141
0.0
143
0.0393701
146
0.71
147
0.6
176
   256
177
   256
178
     2
271
     2
272
     3
274
     4
283
     0
288
     1
289
     0
340
10
  0
DIMSTYLE
105
127A
330
A
100
AcDbSymbolTableRecord
100
AcDbDimStyleTableRecord
  2
GEN-ISO$4
 70
     0
  4
"
 41
1.5
 42
0.0
 43
7.0
 44
0.0
 47
0.1
 48
0.1
 73
     0
 77
     1
 78
     8
140
3.5
141
0.0
143
0.0393701
146
0.71
147
0.6
176
   256
177
   256
178
     2
271
     2
272
     3
274
     4
283
     0
288
     1
289
     0
340
10
  0
DIMSTYLE
105
127B
330
A
100
AcDbSymbolTableRecord
100
AcDbDimStyleTableRecord
  2
GEN-ISO$6
 70
     0
  4
"
 41
2.5
 42
1.0
 43
7.0
 44
1.0
 47
0.1
 48
0.1
 73
     0
 74
     0
 78
     8
140
3.5
141
0.0
143
0.0393701
146
0.71
147
0.6
176
   256
177
   256
178
     2
271
     2
272
     3
274
     4
283
     0
340
10
  0
DIMSTYLE
105
127C
330
A
100
AcDbSymbolTableRecord
100
AcDbDimStyleTableRecord
  2
GEN-ISO-POS
 70
     0
  4
"
 41
2.5
 42
1.0
 43
7.0
 44
1.0
 47
0.1
 48
0.1
 73
     0
 74
     0
 78
     8
140
5.0
141
0.0
143
0.0393701
146
0.71
147
1.5
176
   256
177
   256
178
     2
271
     2
272
     3
274
     4
283
     0
340
10
  0
DIMSTYLE
105
127D
330
A
100
AcDbSymbolTableRecord
100
AcDbDimStyleTableRecord
  2
GEN-ISO-AXE-F
 70
     0
  4
"
 41
2.5
 42
1.0
 43
7.0
 44
1.0
 47
0.1
 48
0.1
 73
     0
 74
     0
 75
     1
 76
     1
 77
     1
 78
     8
140
3.5
141
0.0
143
0.0393701
146
0.71
147
0.6
172
     1
176
   256
177
   256
178
     2
271
     2
272
     3
274
     4
283
     0
340
10
  0
DIMSTYLE
105
127E
330
A
100
AcDbSymbolTableRecord
100
AcDbDimStyleTableRecord
  2
GEN-ISO-AXE-H
 70
     0
  4
"
 41
2.5
 42
1.0
 43
7.0
 44
1.0
 47
0.1
 48
0.1
 73
     0
 74
     0
 75
     1
 76
     1
 77
     1
 78
     8
140
3.5
141
0.0
143
0.0393701
144
2.0
146
0.71
147
0.6
172
     1
173
     1
176
   256
177
   256
178
     2
271
     2
272
     3
274
     4
283
     0
340
10
  0
DIMSTYLE
105
1740
330
A
100
AcDbSymbolTableRecord
100
AcDbDimStyleTableRecord
  2
AM_BSI
 70
     0
  4
"
 41
4.0
 42
1.0
 43
10.0
 44
1.0
 47
0.1
 48
0.1
 73
     0
 74
     0
 77
     1
 78
     8
 79
     2
140
3.5
141
0.0
143
0.0393701
146
0.71
147
1.5
172
     1
176
   256
177
   256
178
     2
271
     2
272
     3
274
     4
283
     0
284
     8
340
10
371
    -1
372
    -1
  0
DIMSTYLE
105
1741
330
A
100
AcDbSymbolTableRecord
100
AcDbDimStyleTableRecord
  2
AM_BSI$3
 70
     0
  4
"
 41
4.0
 42
1.0
 43
10.0
 44
1.0
 47
0.1
 48
0.1
 73
     0
 77
     1
 78
     8
 79
     2
140
3.5
141
0.0
143
0.0393701
146
0.71
147
1.5
176
   256
177
   256
178
     2
271
     2
272
     3
274
     4
283
     0
284
     8
288
     1
289
     0
340
10
371
    -1
372
    -1
  0
DIMSTYLE
105
1742
330
A
100
AcDbSymbolTableRecord
100
AcDbDimStyleTableRecord
  2
AM_BSI$4
 70
     0
  4
"
 41
4.0
 42
1.0
 43
10.0
 44
1.0
 47
0.1
 48
0.1
 73
     0
 77
     1
 78
     8
 79
     2
140
3.5
141
0.0
143
0.0393701
146
0.71
147
1.5
176
   256
177
   256
178
     2
271
     2
272
     3
274
     4
283
     0
284
     8
288
     1
289
     0
340
10
371
    -1
372
    -1
  0
DIMSTYLE
105
1743
330
A
100
AcDbSymbolTableRecord
100
AcDbDimStyleTableRecord
  2
AM_BSI$6
 70
     0
  4
"
 41
4.0
 42
1.0
 43
10.0
 44
1.0
 47
0.1
 48
0.1
 73
     0
 74
     0
 78
     8
 79
     2
140
3.5
141
0.0
143
0.0393701
146
0.71
147
1.5
172
     1
176
   256
177
   256
178
     2
271
     2
272
     3
274
     4
283
     0
284
     8
340
10
371
    -1
372
    -1
  0
DIMSTYLE
105
1744
330
A
100
AcDbSymbolTableRecord
100
AcDbDimStyleTableRecord
  2
AM_BSI$7
 70
     0
  4
"
 41
2.5
 42
1.0
 43
10.0
 44
1.0
 47
0.1
 48
0.1
 73
     0
 74
     0
 77
     1
 78
     8
 79
     2
140
5.0
141
0.0
143
0.0393701
146
0.71
147
1.5
172
     1
176
   256
177
   256
178
     2
271
     2
272
     3
274
     4
283
     0
284
     8
340
10
371
    -1
372
    -1
  0
DIMSTYLE
105
1745
330
A
100
AcDbSymbolTableRecord
100
AcDbDimStyleTableRecord
  2
AM_BSI$SF
 70
     0
  4
"
 41
4.0
 42
1.0
 43
10.0
 44
1.0
 47
0.1
 48
0.1
 73
     0
 74
     0
 75
     1
 76
     1
 77
     1
 78
     8
 79
     2
140
3.5
141
0.0
143
0.0393701
146
0.71
147
1.5
172
     1
176
   256
177
   256
178
     2
271
     2
272
     3
274
     4
283
     0
284
     8
340
10
371
    -1
372
    -1
  0
DIMSTYLE
105
174A
330
A
100
AcDbSymbolTableRecord
100
AcDbDimStyleTableRecord
  2
AM_BSI$SH
 70
     0
  4
"
 41
4.0
 42
1.0
 43
10.0
 44
1.0
 47
0.1
 48
0.1
 73
     0
 74
     0
 75
     1
 76
     1
 77
     1
 78
     8
 79
     2
140
3.5
141
0.0
143
0.0393701
144
2.0
146
0.71
147
1.5
172
     1
173
     1
176
   256
177
   256
178
     2
271
     2
272
     3
274
     4
283
     0
284
     8
340
10
343
1746
371
    -1
372
    -1
  0
DIMSTYLE
105
174C
330
A
100
AcDbSymbolTableRecord
100
AcDbDimStyleTableRecord
  2
AM_DIN
 70
     0
  4
"
 41
2.5
 42
1.0
 43
10.0
 44
1.0
 47
0.1
 48
0.1
 73
     0
 74
     0
 77
     1
 78
     8
 79
     2
140
3.5
141
0.0
143
0.0393701
146
0.71
147
1.5
172
     1
176
   256
177
   256
178
     2
271
     2
272
     3
274
     4
283
     0
284
     8
340
10
371
    -1
372
    -1
  0
DIMSTYLE
105
174D
330
A
100
AcDbSymbolTableRecord
100
AcDbDimStyleTableRecord
  2
AM_DIN$3
 70
     0
  4
"
 41
2.5
 42
1.0
 43
10.0
 44
1.0
 47
0.1
 48
0.1
 73
     0
 77
     1
 78
     8
 79
     2
140
3.5
141
0.0
143
0.0393701
146
0.71
147
1.5
176
   256
177
   256
178
     2
271
     2
272
     3
274
     4
283
     0
284
     8
288
     1
289
     0
340
10
371
    -1
372
    -1
  0
DIMSTYLE
105
174E
330
A
100
AcDbSymbolTableRecord
100
AcDbDimStyleTableRecord
  2
AM_DIN$4
 70
     0
  4
"
 41
2.5
 42
1.0
 43
10.0
 44
1.0
 47
0.1
 48
0.1
 73
     0
 77
     1
 78
     8
 79
     2
140
3.5
141
0.0
143
0.0393701
146
0.71
147
1.5
176
   256
177
   256
178
     2
271
     2
272
     3
274
     4
283
     0
284
     8
288
     1
289
     0
340
10
371
    -1
372
    -1
  0
DIMSTYLE
105
174F
330
A
100
AcDbSymbolTableRecord
100
AcDbDimStyleTableRecord
  2
AM_DIN$6
 70
     0
  4
"
 41
2.5
 42
1.0
 43
10.0
 44
1.0
 47
0.1
 48
0.1
 73
     0
 74
     0
 78
     8
 79
     2
140
3.5
141
0.0
143
0.0393701
146
0.71
147
1.5
172
     1
176
   256
177
   256
178
     2
271
     2
272
     3
274
     4
283
     0
284
     8
340
10
371
    -1
372
    -1
  0
DIMSTYLE
105
1750
330
A
100
AcDbSymbolTableRecord
100
AcDbDimStyleTableRecord
  2
AM_DIN$7
 70
     0
  4
"
 41
2.5
 42
1.0
 43
10.0
 44
1.0
 47
0.1
 48
0.1
 73
     0
 74
     0
 77
     1
 78
     8
 79
     2
140
5.0
141
0.0
143
0.0393701
146
0.71
147
1.5
172
     1
176
   256
177
   256
178
     2
271
     2
272
     3
274
     4
283
     0
284
     8
340
10
371
    -1
372
    -1
  0
DIMSTYLE
105
1751
330
A
100
AcDbSymbolTableRecord
100
AcDbDimStyleTableRecord
  2
AM_DIN$SF
 70
     0
  4
"
 41
2.5
 42
1.0
 43
10.0
 44
1.0
 47
0.1
 48
0.1
 73
     0
 74
     0
 75
     1
 76
     1
 77
     1
 78
     8
 79
     2
140
3.5
141
0.0
143
0.0393701
146
0.71
147
1.5
172
     1
176
   256
177
   256
178
     2
271
     2
272
     3
274
     4
283
     0
284
     8
340
10
371
    -1
372
    -1
  0
DIMSTYLE
105
1752
330
A
100
AcDbSymbolTableRecord
100
AcDbDimStyleTableRecord
  2
AM_DIN$SH
 70
     0
  4
"
 41
2.5
 42
1.0
 43
10.0
 44
1.0
 47
0.1
 48
0.1
 73
     0
 74
     0
 75
     1
 76
     1
 77
     1
 78
     8
 79
     2
140
3.5
141
0.0
143
0.0393701
144
2.0
146
0.71
147
1.5
172
     1
173
     1
176
   256
177
   256
178
     2
271
     2
272
     3
274
     4
283
     0
284
     8
340
10
343
1746
371
    -1
372
    -1
  0
DIMSTYLE
105
1754
330
A
100
AcDbSymbolTableRecord
100
AcDbDimStyleTableRecord
  2
AM_ISO
 70
     0
  4
"
 41
2.5
 42
1.0
 43
10.0
 44
1.0
 47
0.1
 48
0.1
 73
     0
 74
     0
 77
     1
 78
     8
 79
     2
140
3.5
141
0.0
143
0.0393701
146
0.71
147
1.5
172
     1
176
   256
177
   256
178
     2
271
     2
272
     3
274
     4
283
     0
284
     8
340
10
371
    -1
372
    -1
  0
DIMSTYLE
105
1755
330
A
100
AcDbSymbolTableRecord
100
AcDbDimStyleTableRecord
  2
AM_ISO$3
 70
     0
  4
"
 41
2.5
 42
1.0
 43
10.0
 44
1.0
 47
0.1
 48
0.1
 73
     0
 77
     1
 78
     8
 79
     2
140
3.5
141
0.0
143
0.0393701
146
0.71
147
1.5
176
   256
177
   256
178
     2
271
     2
272
     3
274
     4
283
     0
284
     8
288
     1
289
     0
340
10
371
    -1
372
    -1
  0
DIMSTYLE
105
1756
330
A
100
AcDbSymbolTableRecord
100
AcDbDimStyleTableRecord
  2
AM_ISO$4
 70
     0
  4
"
 41
2.5
 42
1.0
 43
10.0
 44
1.0
 47
0.1
 48
0.1
 73
     0
 77
     1
 78
     8
 79
     2
140
3.5
141
0.0
143
0.0393701
146
0.71
147
1.5
176
   256
177
   256
178
     2
271
     2
272
     3
274
     4
283
     0
284
     8
288
     1
289
     0
340
10
371
    -1
372
    -1
  0
DIMSTYLE
105
1757
330
A
100
AcDbSymbolTableRecord
100
AcDbDimStyleTableRecord
  2
AM_ISO$6
 70
     0
  4
"
 41
2.5
 42
1.0
 43
10.0
 44
1.0
 47
0.1
 48
0.1
 73
     0
 74
     0
 78
     8
 79
     2
140
3.5
141
0.0
143
0.0393701
146
0.71
147
1.5
172
     1
176
   256
177
   256
178
     2
271
     2
272
     3
274
     4
283
     0
284
     8
340
10
371
    -1
372
    -1
  0
DIMSTYLE
105
1758
330
A
100
AcDbSymbolTableRecord
100
AcDbDimStyleTableRecord
  2
AM_ISO$7
 70
     0
  4
"
 41
2.5
 42
1.0
 43
10.0
 44
1.0
 47
0.1
 48
0.1
 73
     0
 74
     0
 77
     1
 78
     8
 79
     2
140
5.0
141
0.0
143
0.0393701
146
0.71
147
1.5
172
     1
176
   256
177
   256
178
     2
271
     2
272
     3
274
     4
283
     0
284
     8
340
10
371
    -1
372
    -1
  0
DIMSTYLE
105
1759
330
A
100
AcDbSymbolTableRecord
100
AcDbDimStyleTableRecord
  2
AM_ISO$SF
 70
     0
  4
"
 41
2.5
 42
1.0
 43
10.0
 44
1.0
 47
0.1
 48
0.1
 73
     0
 74
     0
 75
     1
 76
     1
 77
     1
 78
     8
 79
     2
140
3.5
141
0.0
143
0.0393701
146
0.71
147
1.5
172
     1
176
   256
177
   256
178
     2
271
     2
272
     3
274
     4
283
     0
284
     8
340
10
371
    -1
372
    -1
  0
DIMSTYLE
105
175A
330
A
100
AcDbSymbolTableRecord
100
AcDbDimStyleTableRecord
  2
AM_ISO$SH
 70
     0
  4
"
 41
2.5
 42
1.0
 43
10.0
 44
1.0
 47
0.1
 48
0.1
 73
     0
 74
     0
 75
     1
 76
     1
 77
     1
 78
     8
 79
     2
140
3.5
141
0.0
143
0.0393701
144
2.0
146
0.71
147
1.5
172
     1
173
     1
176
   256
177
   256
178
     2
271
     2
272
     3
274
     4
283
     0
284
     8
340
10
343
1746
371
    -1
372
    -1
  0
DIMSTYLE
105
175C
330
A
100
AcDbSymbolTableRecord
100
AcDbDimStyleTableRecord
  2
AM_JIS
 70
     0
  4
"
 41
2.5
 42
1.0
 43
10.0
 44
1.0
 47
0.1
 48
0.1
 73
     0
 74
     0
 77
     3
 78
     8
 79
     2
140
3.5
141
0.0
143
0.0393701
146
0.71
147
1.5
172
     1
176
   256
177
   256
178
     2
271
     2
272
     3
274
     4
283
     0
284
     8
340
10
341
175D
342
175D
343
175D
344
175D
371
    -1
372
    -1
  0
DIMSTYLE
105
1763
330
A
100
AcDbSymbolTableRecord
100
AcDbDimStyleTableRecord
  2
AM_JIS$3
 70
     0
  4
"
 41
2.5
 42
1.0
 43
10.0
 44
1.0
 47
0.1
 48
0.1
 73
     0
 77
     3
 78
     8
 79
     2
140
3.5
141
0.0
143
0.0393701
146
0.71
147
1.5
176
   256
177
   256
178
     2
271
     2
272
     3
274
     4
283
     0
284
     8
288
     1
289
     0
340
10
341
175D
342
175D
343
175D
344
175D
371
    -1
372
    -1
  0
DIMSTYLE
105
1764
330
A
100
AcDbSymbolTableRecord
100
AcDbDimStyleTableRecord
  2
AM_JIS$4
 70
     0
  4
"
 41
2.5
 42
1.0
 43
10.0
 44
1.0
 47
0.1
 48
0.1
 73
     0
 77
     3
 78
     8
 79
     2
140
3.5
141
0.0
143
0.0393701
146
0.71
147
1.5
176
   256
177
   256
178
     2
271
     2
272
     3
274
     4
283
     0
284
     8
288
     1
289
     0
340
10
341
175D
342
175D
343
175D
344
175D
371
    -1
372
    -1
  0
DIMSTYLE
105
1765
330
A
100
AcDbSymbolTableRecord
100
AcDbDimStyleTableRecord
  2
AM_JIS$6
 70
     0
  4
"
 41
2.5
 42
1.0
 43
10.0
 44
1.0
 47
0.1
 48
0.1
 73
     0
 74
     0
 78
     8
 79
     2
140
3.5
141
0.0
143
0.0393701
146
0.71
147
1.5
172
     1
176
   256
177
   256
178
     2
271
     2
272
     3
274
     4
283
     0
284
     8
340
10
341
175D
342
175D
343
175D
344
175D
371
    -1
372
    -1
  0
DIMSTYLE
105
1766
330
A
100
AcDbSymbolTableRecord
100
AcDbDimStyleTableRecord
  2
AM_JIS$7
 70
     0
  4
"
 41
2.5
 42
1.0
 43
10.0
 44
1.0
 47
0.1
 48
0.1
 73
     0
 74
     0
 77
     3
 78
     8
 79
     2
140
5.0
141
0.0
143
0.0393701
146
0.71
147
1.5
172
     1
176
   256
177
   256
178
     2
271
     2
272
     3
274
     4
283
     0
284
     8
340
10
341
175D
342
175D
343
175D
344
175D
371
    -1
372
    -1
  0
DIMSTYLE
105
1767
330
A
100
AcDbSymbolTableRecord
100
AcDbDimStyleTableRecord
  2
AM_JIS$SF
 70
     0
  4
"
 41
2.5
 42
1.0
 43
10.0
 44
1.0
 47
0.1
 48
0.1
 73
     0
 74
     0
 75
     1
 76
     1
 77
     3
 78
     8
 79
     2
140
3.5
141
0.0
143
0.0393701
146
0.71
147
1.5
172
     1
176
   256
177
   256
178
     2
271
     2
272
     3
274
     4
283
     0
284
     8
340
10
341
175D
342
175D
343
175D
344
175D
371
    -1
372
    -1
  0
DIMSTYLE
105
1768
330
A
100
AcDbSymbolTableRecord
100
AcDbDimStyleTableRecord
  2
AM_JIS$SH
 70
     0
  4
"
 41
2.5
 42
1.0
 43
10.0
 44
1.0
 47
0.1
 48
0.1
 73
     0
 74
     0
 75
     1
 76
     1
 77
     3
 78
     8
 79
     2
140
3.5
141
0.0
143
0.0393701
144
2.0
146
0.71
147
1.5
172
     1
173
     1
176
   256
177
   256
178
     2
271
     2
272
     3
274
     4
283
     0
284
     8
340
10
341
175D
342
175D
343
1746
344
175D
371
    -1
372
    -1
  0
ENDTAB
  0
TABLE
  2
BLOCK_RECORD
  5
1
330
0
100
AcDbSymbolTable
 70
    32
  0
BLOCK_RECORD
  5
1A
102
{ACAD_XDICTIONARY
360
10AA
102
}
330
1
100
AcDbSymbolTableRecord
100
AcDbBlockTableRecord
  2
*MODEL_SPACE
340
11EE
  0
BLOCK_RECORD
  5
17
330
1
100
AcDbSymbolTableRecord
100
AcDbBlockTableRecord
  2
*PAPER_SPACE
340
11EF
  0
BLOCK_RECORD
  5
1746
330
1
100
AcDbSymbolTableRecord
100
AcDbBlockTableRecord
  2
GENAXEH
340
0
  0
BLOCK_RECORD
  5
175D
330
1
100
AcDbSymbolTableRecord
100
AcDbBlockTableRecord
  2
_Open30
340
0
  0
BLOCK_RECORD
  5
1AA3
330
1
100
AcDbSymbolTableRecord
100
AcDbBlockTableRecord
  2
AVE_RENDER
340
0
102
{BLKREFS
331
1AA6
331
1AA7
331
1AA8
331
1AA9
331
1AAA
331
1AAB
331
1AAC
331
1AAD
331
2EBD
331
2EBE
331
2EBF
331
2EC0
331
2EC1
331
2EC2
331
2EC3
331
2EC4
102
}
  0
BLOCK_RECORD
  5
1AB1
330
1
100
AcDbSymbolTableRecord
100
AcDbBlockTableRecord
  2
AVE_GLOBAL
340
0
102
{BLKREFS
331
1AB4
331
2EC5
102
}
  0
BLOCK_RECORD
  5
2E46
102
{ACAD_XDICTIONARY
360
2E47
102
}
330
1
100
AcDbSymbolTableRecord
100
AcDbBlockTableRecord
  2
SV1490B
340
0
102
{BLKREFS
331
2EC6
102
}
1001
ACAD
1000
DesignCenter Data
1002
{
1070
     1
1070
     4
1002
}
  0
BLOCK_RECORD
  5
2E4A
330
1
100
AcDbSymbolTableRecord
100
AcDbBlockTableRecord
  2
*D14
340
0
  0
BLOCK_RECORD
  5
2E56
330
1
100
AcDbSymbolTableRecord
100
AcDbBlockTableRecord
  2
*D15
340
0
  0
BLOCK_RECORD
  5
2E62
330
1
100
AcDbSymbolTableRecord
100
AcDbBlockTableRecord
  2
*D16
340
0
  0
BLOCK_RECORD
  5
2E6E
330
1
100
AcDbSymbolTableRecord
100
AcDbBlockTableRecord
  2
*D17
340
0
  0
BLOCK_RECORD
  5
2E7A
330
1
100
AcDbSymbolTableRecord
100
AcDbBlockTableRecord
  2
*D18
340
0
  0
BLOCK_RECORD
  5
2E88
330
1
100
AcDbSymbolTableRecord
100
AcDbBlockTableRecord
  2
*D19
340
0
  0
BLOCK_RECORD
  5
2E96
330
1
100
AcDbSymbolTableRecord
100
AcDbBlockTableRecord
  2
*D20
340
0
  0
BLOCK_RECORD
  5
2EA2
330
1
100
AcDbSymbolTableRecord
100
AcDbBlockTableRecord
  2
*D21
340
0
  0
BLOCK_RECORD
  5
2EBB
102
{ACAD_XDICTIONARY
360
2ED5
102
}
330
1
100
AcDbSymbolTableRecord
100
AcDbBlockTableRecord
  2
Sp685_neu
340
0
  0
BLOCK_RECORD
  5
2EE1
330
1
100
AcDbSymbolTableRecord
100
AcDbBlockTableRecord
  2
*D23
340
0
  0
BLOCK_RECORD
  5
2EEE
330
1
100
AcDbSymbolTableRecord
100
AcDbBlockTableRecord
  2
*D24
340
0
  0
BLOCK_RECORD
  5
2EFB
330
1
100
AcDbSymbolTableRecord
100
AcDbBlockTableRecord
  2
*D25
340
0
  0
BLOCK_RECORD
  5
2F08
330
1
100
AcDbSymbolTableRecord
100
AcDbBlockTableRecord
  2
*D26
340
0
  0
BLOCK_RECORD
  5
2F15
330
1
100
AcDbSymbolTableRecord
100
AcDbBlockTableRecord
  2
*D27
340
0
  0
BLOCK_RECORD
  5
2F34
330
1
100
AcDbSymbolTableRecord
100
AcDbBlockTableRecord
  2
*D28
340
0
  0
BLOCK_RECORD
  5
2F41
330
1
100
AcDbSymbolTableRecord
100
AcDbBlockTableRecord
  2
*D29
340
0
  0
BLOCK_RECORD
  5
2F5B
330
1
100
AcDbSymbolTableRecord
100
AcDbBlockTableRecord
  2
*D30
340
0
  0
BLOCK_RECORD
  5
2F8F
330
1
100
AcDbSymbolTableRecord
100
AcDbBlockTableRecord
  2
*D31
340
0
  0
ENDTAB
  0
ENDSEC
  0
SECTION
  2
BLOCKS
  0
BLOCK
  5
1B
330
1A
100
AcDbEntity
  8
0
100
AcDbBlockBegin
  2
*MODEL_SPACE
 70
     0
 10
0.0
 20
0.0
 30
0.0
  3
*MODEL_SPACE
  1

  0
ENDBLK
  5
1C
330
1A
100
AcDbEntity
  8
0
100
AcDbBlockEnd
  0
BLOCK
  5
18
330
17
100
AcDbEntity
 67
     1
  8
0
100
AcDbBlockBegin
  2
*PAPER_SPACE
 70
     0
 10
0.0
 20
0.0
 30
0.0
  3
*PAPER_SPACE
  1

  0
ENDBLK
  5
19
330
17
100
AcDbEntity
 67
     1
  8
0
100
AcDbBlockEnd
  0
BLOCK
  5
1748
330
1746
100
AcDbEntity
  8
0
100
AcDbBlockBegin
  2
GENAXEH
 70
     0
 10
0.0
 20
0.0
 30
0.0
  3
GENAXEH
  1

  0
LINE
  5
1747
330
1746
100
AcDbEntity
  8
0
100
AcDbLine
 10
-1.0
 20
0.0
 30
0.0
 11
1.0
 21
0.0
 31
0.0
  0
ENDBLK
  5
1749
330
1746
100
AcDbEntity
  8
0
100
AcDbBlockEnd
  0
BLOCK
  5
1761
330
175D
100
AcDbEntity
  8
0
100
AcDbBlockBegin
  2
_Open30
 70
     0
 10
0.0
 20
0.0
 30
0.0
  3
_Open30
  1

  0
LINE
  5
175E
330
175D
100
AcDbEntity
  8
0
  6
ByBlock
 62
     0
370
    -2
100
AcDbLine
 10
-1.0
 20
0.26794919
 30
0.0
 11
0.0
 21
0.0
 31
0.0
  0
LINE
  5
175F
330
175D
100
AcDbEntity
  8
0
  6
ByBlock
 62
     0
370
    -2
100
AcDbLine
 10
0.0
 20
0.0
 30
0.0
 11
-1.0
 21
-0.26794919
 31
0.0
  0
LINE
  5
1760
330
175D
100
AcDbEntity
  8
0
  6
ByBlock
 62
     0
370
    -2
100
AcDbLine
 10
0.0
 20
0.0
 30
0.0
 11
-1.0
 21
0.0
 31
0.0
  0
ENDBLK
  5
1762
330
175D
100
AcDbEntity
  8
0
100
AcDbBlockEnd
  0
BLOCK
  5
1AA4
330
1AA3
100
AcDbEntity
  8
ASHADE
100
AcDbBlockBegin
  2
AVE_RENDER
 70
     0
 10
0.0
 20
0.0
 30
0.0
  3
AVE_RENDER
  1
AVE_RENDER
  0
ENDBLK
  5
1AA5
330
1AA3
100
AcDbEntity
  8
0
100
AcDbBlockEnd
  0
BLOCK
  5
1AB2
330
1AB1
100
AcDbEntity
  8
ASHADE
100
AcDbBlockBegin
  2
AVE_GLOBAL
 70
     0
 10
0.0
 20
0.0
 30
0.0
  3
AVE_GLOBAL
  1
AVE_GLOBAL
  0
ENDBLK
  5
1AB3
330
1AB1
100
AcDbEntity
  8
0
100
AcDbBlockEnd
  0
BLOCK
  5
2E48
330
2E46
100
AcDbEntity
  8
0
100
AcDbBlockBegin
  2
SV1490B
 70
     0
 10
0.0
 20
0.0
 30
0.0
  3
SV1490B
  1

  0
ENDBLK
  5
2E49
330
2E46
100
AcDbEntity
  8
0
100
AcDbBlockEnd
  0
BLOCK
  5
2E4B
330
2E4A
100
AcDbEntity
  8
0
100
AcDbBlockBegin
  2
*D14
 70
     1
 10
0.0
 20
0.0
 30
0.0
  3
*D14
  1

  0
LINE
  5
2E4C
330
2E4A
100
AcDbEntity
  8
Dimension1_Bemaßung1
370
    -2
100
AcDbLine
 10
-25.00002776253183
 20
24.00004031522013
 30
0.0
 11
-25.00002776253183
 21
55.56514429309811
 31
0.0
  0
LINE
  5
2E4D
330
2E4A
100
AcDbEntity
  8
Dimension1_Bemaßung1
370
    -2
100
AcDbLine
 10
24.99997223746806
 20
24.00004031522013
 30
0.0
 11
24.99997223746806
 21
55.56514429309811
 31
0.0
  0
LINE
  5
2E4E
330
2E4A
100
AcDbEntity
  8
Dimension1_Bemaßung1
370
    -2
100
AcDbLine
 10
-23.00002776253183
 20
54.06514429309812
 30
0.0
 11
22.99997223746806
 21
54.06514429309812
 31
0.0
  0
SOLID
  5
2E4F
330
2E4A
100
AcDbEntity
  8
Dimension1_Bemaßung1
100
AcDbTrace
 10
-23.00002776253183
 20
54.39847762643145
 30
0.0
 11
-23.00002776253183
 21
53.73181095976478
 31
0.0
 12
-25.00002776253183
 22
54.06514429309812
 32
0.0
 13
-25.00002776253183
 23
54.06514429309812
 33
0.0
  0
SOLID
  5
2E50
330
2E4A
100
AcDbEntity
  8
Dimension1_Bemaßung1
100
AcDbTrace
 10
22.99997223746806
 20
54.39847762643145
 30
0.0
 11
22.99997223746806
 21
53.73181095976478
 31
0.0
 12
24.99997223746806
 22
54.06514429309812
 32
0.0
 13
24.99997223746806
 23
54.06514429309812
 33
0.0
  0
MTEXT
  5
2E51
330
2E4A
100
AcDbEntity
  8
Dimension1_Bemaßung1
100
AcDbMText
 10
0.8727618540797267
 20
56.21514429309812
 30
0.0
 40
3.5
 41
0.0
 71
     5
 72
     1
  1
\A2;50
 73
     1
 44
1.0
1001
ACAD
1000
MTEXTBEGIN
1070
    73
1070
     1
1070
    44
1040
1.0
1070
    74
1070
     0
1000
MTEXTEND
  0
POINT
  5
2E52
330
2E4A
100
AcDbEntity
  8
Defpoints
 62
     0
100
AcDbPoint
 10
-25.00002776253183
 20
24.00004031522013
 30
0.0
  0
POINT
  5
2E53
330
2E4A
100
AcDbEntity
  8
Defpoints
 62
     0
100
AcDbPoint
 10
24.99997223746806
 20
24.00004031522013
 30
0.0
  0
POINT
  5
2E54
330
2E4A
100
AcDbEntity
  8
Defpoints
 62
     0
100
AcDbPoint
 10
24.99997223746806
 20
54.06514429309812
 30
0.0
  0
ENDBLK
  5
2E55
330
2E4A
100
AcDbEntity
  8
0
100
AcDbBlockEnd
  0
BLOCK
  5
2E57
330
2E56
100
AcDbEntity
  8
0
100
AcDbBlockBegin
  2
*D15
 70
     1
 10
0.0
 20
0.0
 30
0.0
  3
*D15
  1

  0
LINE
  5
2E58
330
2E56
100
AcDbEntity
  8
Dimension1_Bemaßung1
370
    -2
100
AcDbLine
 10
-24.00002776253183
 20
25.00004031522012
 30
0.0
 11
-48.64588645205116
 21
25.00004031522013
 31
0.0
  0
LINE
  5
2E59
330
2E56
100
AcDbEntity
  8
Dimension1_Bemaßung1
370
    -2
100
AcDbLine
 10
-24.00002776253183
 20
-24.99995968477993
 30
0.0
 11
-48.64588645205117
 21
-24.99995968477992
 31
0.0
  0
LINE
  5
2E5A
330
2E56
100
AcDbEntity
  8
Dimension1_Bemaßung1
370
    -2
100
AcDbLine
 10
-47.14588645205116
 20
23.00004031522012
 30
0.0
 11
-47.14588645205117
 21
-22.99995968477992
 31
0.0
  0
SOLID
  5
2E5B
330
2E56
100
AcDbEntity
  8
Dimension1_Bemaßung1
100
AcDbTrace
 10
-47.47921978538449
 20
23.00004031522012
 30
0.0
 11
-46.81255311871782
 21
23.00004031522012
 31
0.0
 12
-47.14588645205116
 22
25.00004031522013
 32
0.0
 13
-47.14588645205116
 23
25.00004031522013
 33
0.0
  0
SOLID
  5
2E5C
330
2E56
100
AcDbEntity
  8
Dimension1_Bemaßung1
100
AcDbTrace
 10
-47.4792197853845
 20
-22.99995968477992
 30
0.0
 11
-46.81255311871783
 21
-22.99995968477992
 31
0.0
 12
-47.14588645205117
 22
-24.99995968477992
 32
0.0
 13
-47.14588645205117
 23
-24.99995968477992
 33
0.0
  0
MTEXT
  5
2E5D
330
2E56
100
AcDbEntity
  8
Dimension1_Bemaßung1
100
AcDbMText
 10
-49.29588645205116
 20
0.4146314276394636
 30
0.0
 40
3.5
 41
0.0
 71
     5
 72
     1
  1
\A2;50
 11
0.0000000000000001
 21
1.0
 31
0.0
 73
     1
 44
1.0
1001
ACAD
1000
MTEXTBEGIN
1070
    73
1070
     1
1070
    44
1040
1.0
1070
    74
1070
     0
1000
MTEXTEND
  0
POINT
  5
2E5E
330
2E56
100
AcDbEntity
  8
Defpoints
 62
     0
100
AcDbPoint
 10
-24.00002776253183
 20
25.00004031522012
 30
0.0
  0
POINT
  5
2E5F
330
2E56
100
AcDbEntity
  8
Defpoints
 62
     0
100
AcDbPoint
 10
-24.00002776253183
 20
-24.99995968477993
 30
0.0
  0
POINT
  5
2E60
330
2E56
100
AcDbEntity
  8
Defpoints
 62
     0
100
AcDbPoint
 10
-47.14588645205117
 20
-24.99995968477992
 30
0.0
  0
ENDBLK
  5
2E61
330
2E56
100
AcDbEntity
  8
0
100
AcDbBlockEnd
  0
BLOCK
  5
2E63
330
2E62
100
AcDbEntity
  8
0
100
AcDbBlockBegin
  2
*D16
 70
     1
 10
0.0
 20
0.0
 30
0.0
  3
*D16
  1

  0
LINE
  5
2E64
330
2E62
100
AcDbEntity
  8
Dimension1_Bemaßung1
370
    -2
100
AcDbLine
 10
-12.50002776253188
 20
24.50004031522012
 30
0.0
 11
-12.50002776253188
 21
43.48287300376898
 31
0.0
  0
LINE
  5
2E65
330
2E62
100
AcDbEntity
  8
Dimension1_Bemaßung1
370
    -2
100
AcDbLine
 10
12.49997223746811
 20
24.50004031522012
 30
0.0
 11
12.49997223746811
 21
43.48287300376898
 31
0.0
  0
LINE
  5
2E66
330
2E62
100
AcDbEntity
  8
Dimension1_Bemaßung1
370
    -2
100
AcDbLine
 10
-10.50002776253188
 20
41.98287300376899
 30
0.0
 11
10.49997223746811
 21
41.98287300376899
 31
0.0
  0
SOLID
  5
2E67
330
2E62
100
AcDbEntity
  8
Dimension1_Bemaßung1
100
AcDbTrace
 10
-10.50002776253188
 20
42.31620633710232
 30
0.0
 11
-10.50002776253188
 21
41.64953967043564
 31
0.0
 12
-12.50002776253188
 22
41.98287300376899
 32
0.0
 13
-12.50002776253188
 23
41.98287300376899
 33
0.0
  0
SOLID
  5
2E68
330
2E62
100
AcDbEntity
  8
Dimension1_Bemaßung1
100
AcDbTrace
 10
10.49997223746811
 20
42.31620633710232
 30
0.0
 11
10.49997223746811
 21
41.64953967043564
 31
0.0
 12
12.49997223746811
 22
41.98287300376899
 32
0.0
 13
12.49997223746811
 23
41.98287300376899
 33
0.0
  0
MTEXT
  5
2E69
330
2E62
100
AcDbEntity
  8
Dimension1_Bemaßung1
100
AcDbMText
 10
1.010108027419164
 20
44.13321749195796
 30
0.0
 40
3.5
 41
0.0
 71
     5
 72
     1
  1
\A2;25
 73
     1
 44
1.0
1001
ACAD
1000
MTEXTBEGIN
1070
    73
1070
     1
1070
    44
1040
1.0
1070
    74
1070
     0
1000
MTEXTEND
  0
POINT
  5
2E6A
330
2E62
100
AcDbEntity
  8
Defpoints
 62
     0
100
AcDbPoint
 10
-12.50002776253188
 20
24.50004031522012
 30
0.0
  0
POINT
  5
2E6B
330
2E62
100
AcDbEntity
  8
Defpoints
 62
     0
100
AcDbPoint
 10
12.49997223746811
 20
24.50004031522012
 30
0.0
  0
POINT
  5
2E6C
330
2E62
100
AcDbEntity
  8
Defpoints
 62
     0
100
AcDbPoint
 10
12.49997223746811
 20
41.98287300376899
 30
0.0
  0
ENDBLK
  5
2E6D
330
2E62
100
AcDbEntity
  8
0
100
AcDbBlockEnd
  0
BLOCK
  5
2E6F
330
2E6E
100
AcDbEntity
  8
0
100
AcDbBlockBegin
  2
*D17
 70
     1
 10
0.0
 20
0.0
 30
0.0
  3
*D17
  1

  0
LINE
  5
2E70
330
2E6E
100
AcDbEntity
  8
Dimension1_Bemaßung1
370
    -2
100
AcDbLine
 10
2.499972237468114
 20
19.0000403152201
 30
0.0
 11
2.499972237468115
 21
38.12822957912897
 31
0.0
  0
LINE
  5
2E71
330
2E6E
100
AcDbEntity
  8
Dimension1_Bemaßung1
370
    -2
100
AcDbLine
 10
-2.500027762531885
 20
19.0000403152201
 30
0.0
 11
-2.500027762531884
 21
38.12822957912897
 31
0.0
  0
LINE
  5
2E72
330
2E6E
100
AcDbEntity
  8
Dimension1_Bemaßung1
370
    -2
100
AcDbLine
 10
0.4999722374681151
 20
36.62822957912897
 30
0.0
 11
-0.500027762531885
 21
36.62822957912897
 31
0.0
  0
SOLID
  5
2E73
330
2E6E
100
AcDbEntity
  8
Dimension1_Bemaßung1
100
AcDbTrace
 10
0.4999722374681151
 20
36.96156291246231
 30
0.0
 11
0.4999722374681151
 21
36.29489624579564
 31
0.0
 12
2.499972237468115
 22
36.62822957912897
 32
0.0
 13
2.499972237468115
 23
36.62822957912897
 33
0.0
  0
SOLID
  5
2E74
330
2E6E
100
AcDbEntity
  8
Dimension1_Bemaßung1
100
AcDbTrace
 10
-0.500027762531885
 20
36.96156291246231
 30
0.0
 11
-0.500027762531885
 21
36.29489624579564
 31
0.0
 12
-2.500027762531884
 22
36.62822957912897
 32
0.0
 13
-2.500027762531884
 23
36.62822957912897
 33
0.0
  0
MTEXT
  5
2E75
330
2E6E
100
AcDbEntity
  8
Dimension1_Bemaßung1
100
AcDbMText
 10
1.010108027419164
 20
38.77822957912897
 30
0.0
 40
3.5
 41
0.0
 71
     5
 72
     1
  1
\A2;5
 73
     1
 44
1.0
1001
ACAD
1000
MTEXTBEGIN
1070
    73
1070
     1
1070
    44
1040
1.0
1070
    74
1070
     0
1000
MTEXTEND
  0
POINT
  5
2E76
330
2E6E
100
AcDbEntity
  8
Defpoints
 62
     0
100
AcDbPoint
 10
2.499972237468114
 20
19.0000403152201
 30
0.0
  0
POINT
  5
2E77
330
2E6E
100
AcDbEntity
  8
Defpoints
 62
     0
100
AcDbPoint
 10
-2.500027762531885
 20
19.0000403152201
 30
0.0
  0
POINT
  5
2E78
330
2E6E
100
AcDbEntity
  8
Defpoints
 62
     0
100
AcDbPoint
 10
-2.500027762531884
 20
36.62822957912897
 30
0.0
  0
ENDBLK
  5
2E79
330
2E6E
100
AcDbEntity
  8
0
100
AcDbBlockEnd
  0
BLOCK
  5
2E7B
330
2E7A
100
AcDbEntity
  8
0
100
AcDbBlockBegin
  2
*D18
 70
     1
 10
0.0
 20
0.0
 30
0.0
  3
*D18
  1

  0
LINE
  5
2E7C
330
2E7A
100
AcDbEntity
  8
Dimension1_Bemaßung1
370
    -2
100
AcDbLine
 10
-25.00002776253183
 20
13.00004031522014
 30
0.0
 11
-32.99046482876954
 21
20.99047738145917
 31
0.0
  0
LINE
  5
2E7D
330
2E7A
100
AcDbEntity
  8
Dimension1_Bemaßung1
370
    -2
100
AcDbLine
 10
-25.00002776253189
 20
12.00004031522025
 30
0.0
 11
-32.99046482877134
 21
4.00960324898287
 31
0.0
  0
ARC
  5
2E7E
330
2E7A
100
AcDbEntity
  8
Dimension1_Bemaßung1
370
    -2
100
AcDbCircle
 10
-24.50002776253189
 20
12.50004031522012
 30
0.0
 40
10.50729124954951
100
AcDbArc
 50
145.9224399288864
 51
214.0775600711014
  0
SOLID
  5
2E7F
330
2E7A
100
AcDbEntity
  8
Dimension1_Bemaßung1
100
AcDbTrace
 10
-33.46006996574211
 20
18.59962955527093
 30
0.0
 11
-32.94594070978523
 21
18.17522932834631
 31
0.0
 12
-31.92980465698981
 22
19.92981720967926
 32
0.0
 13
-31.92980465698981
 23
19.92981720967926
 33
0.0
  0
SOLID
  5
2E80
330
2E7A
100
AcDbEntity
  8
Dimension1_Bemaßung1
100
AcDbTrace
 10
-32.94594070978642
 20
6.824851302095721
 30
0.0
 11
-33.46006996574339
 21
6.40045107517121
 31
0.0
 12
-31.92980465699138
 22
5.070263420762553
 32
0.0
 13
-31.92980465699138
 23
5.070263420762553
 33
0.0
  0
MTEXT
  5
2E81
330
2E7A
100
AcDbEntity
  8
Dimension1_Bemaßung1
100
AcDbMText
 10
-37.40748140387716
 20
13.06452807280099
 30
0.0
 40
3.5
 41
0.0
 71
     5
 72
     1
  1
\A2;0,5x90°
 11
0.0436917088424757
 21
0.9990450613352855
 31
0.0
 73
     1
 44
1.0
1001
ACAD
1000
MTEXTBEGIN
1070
    73
1070
     1
1070
    44
1040
1.0
1070
    74
1070
     0
1000
MTEXTEND
  0
POINT
  5
2E82
330
2E7A
100
AcDbEntity
  8
Defpoints
 62
     0
100
AcDbPoint
 10
-34.64929174481321
 20
9.780553227398803
 30
0.0
  0
POINT
  5
2E83
330
2E7A
100
AcDbEntity
  8
Defpoints
 62
     0
100
AcDbPoint
 10
-25.00002776253183
 20
13.00004031522014
 30
0.0
  0
POINT
  5
2E84
330
2E7A
100
AcDbEntity
  8
Defpoints
 62
     0
100
AcDbPoint
 10
-25.00002776253189
 20
12.00004031522025
 30
0.0
  0
POINT
  5
2E85
330
2E7A
100
AcDbEntity
  8
Defpoints
 62
     0
100
AcDbPoint
 10
-24.50002776253189
 20
12.50004031522012
 30
0.0
  0
POINT
  5
2E86
330
2E7A
100
AcDbEntity
  8
Defpoints
 62
     0
100
AcDbPoint
 10
-24.50002776253189
 20
12.50004031522012
 30
0.0
  0
ENDBLK
  5
2E87
330
2E7A
100
AcDbEntity
  8
0
100
AcDbBlockEnd
  0
BLOCK
  5
2E89
330
2E88
100
AcDbEntity
  8
0
100
AcDbBlockBegin
  2
*D19
 70
     1
 10
0.0
 20
0.0
 30
0.0
  3
*D19
  1

  0
LINE
  5
2E8A
330
2E88
100
AcDbEntity
  8
Dimension1_Bemaßung1
370
    -2
100
AcDbLine
 10
-24.00002776253183
 20
25.00004031522012
 30
0.0
 11
-24.00002776253183
 21
33.61013946394633
 31
0.0
  0
LINE
  5
2E8B
330
2E88
100
AcDbEntity
  8
Dimension1_Bemaßung1
370
    -2
100
AcDbLine
 10
-25.00002776253183
 20
24.00004031522013
 30
0.0
 11
-25.00002776253183
 21
33.61013946394633
 31
0.0
  0
LINE
  5
2E8C
330
2E88
100
AcDbEntity
  8
Dimension1_Bemaßung1
370
    -2
100
AcDbLine
 10
-22.00002776253183
 20
32.11013946394633
 30
0.0
 11
-20.00002776253183
 21
32.11013946394633
 31
0.0
  0
LINE
  5
2E8D
330
2E88
100
AcDbEntity
  8
Dimension1_Bemaßung1
370
    -2
100
AcDbLine
 10
-27.00002776253183
 20
32.11013946394633
 30
0.0
 11
-40.30002776253183
 21
32.11013946394633
 31
0.0
  0
LINE
  5
2E8E
330
2E88
100
AcDbEntity
  8
Dimension1_Bemaßung1
370
    -2
100
AcDbLine
 10
-24.00002776253183
 20
32.11013946394633
 30
0.0
 11
-25.00002776253183
 21
32.11013946394633
 31
0.0
  0
SOLID
  5
2E8F
330
2E88
100
AcDbEntity
  8
Dimension1_Bemaßung1
100
AcDbTrace
 10
-22.00002776253183
 20
32.44347279727966
 30
0.0
 11
-22.00002776253183
 21
31.776806130613
 31
0.0
 12
-24.00002776253183
 22
32.11013946394633
 32
0.0
 13
-24.00002776253183
 23
32.11013946394633
 33
0.0
  0
SOLID
  5
2E90
330
2E88
100
AcDbEntity
  8
Dimension1_Bemaßung1
100
AcDbTrace
 10
-27.00002776253183
 20
32.44347279727966
 30
0.0
 11
-27.00002776253183
 21
31.776806130613
 31
0.0
 12
-25.00002776253183
 22
32.11013946394633
 32
0.0
 13
-25.00002776253183
 23
32.11013946394633
 33
0.0
  0
MTEXT
  5
2E91
330
2E88
100
AcDbEntity
  8
Dimension1_Bemaßung1
100
AcDbMText
 10
-34.65002776253183
 20
34.26013946394633
 30
0.0
 40
3.5
 41
0.0
 71
     5
 72
     1
  1
\A2;1x45°
 73
     1
 44
1.0
1001
ACAD
1000
MTEXTBEGIN
1070
    73
1070
     1
1070
    44
1040
1.0
1070
    74
1070
     0
1000
MTEXTEND
  0
POINT
  5
2E92
330
2E88
100
AcDbEntity
  8
Defpoints
 62
     0
100
AcDbPoint
 10
-24.00002776253183
 20
25.00004031522012
 30
0.0
  0
POINT
  5
2E93
330
2E88
100
AcDbEntity
  8
Defpoints
 62
     0
100
AcDbPoint
 10
-25.00002776253183
 20
24.00004031522013
 30
0.0
  0
POINT
  5
2E94
330
2E88
100
AcDbEntity
  8
Defpoints
 62
     0
100
AcDbPoint
 10
-25.00002776253183
 20
32.11013946394633
 30
0.0
  0
ENDBLK
  5
2E95
330
2E88
100
AcDbEntity
  8
0
100
AcDbBlockEnd
  0
BLOCK
  5
2E97
330
2E96
100
AcDbEntity
  8
0
100
AcDbBlockBegin
  2
*D20
 70
     1
 10
0.0
 20
0.0
 30
0.0
  3
*D20
  1

  0
LINE
  5
2E98
330
2E96
100
AcDbEntity
  8
Dimension1_Bemaßung1
370
    -2
100
AcDbLine
 10
-20.00002776253183
 20
18.50004031522012
 30
0.0
 11
-20.00002776253182
 21
50.50569560156009
 31
0.0
  0
LINE
  5
2E99
330
2E96
100
AcDbEntity
  8
Dimension1_Bemaßung1
370
    -2
100
AcDbLine
 10
19.99997223746811
 20
18.50004031522012
 30
0.0
 11
19.99997223746811
 21
50.50569560156009
 31
0.0
  0
LINE
  5
2E9A
330
2E96
100
AcDbEntity
  8
Dimension1_Bemaßung1
370
    -2
100
AcDbLine
 10
-18.00002776253182
 20
49.00569560156009
 30
0.0
 11
17.99997223746812
 21
49.00569560156009
 31
0.0
  0
SOLID
  5
2E9B
330
2E96
100
AcDbEntity
  8
Dimension1_Bemaßung1
100
AcDbTrace
 10
-18.00002776253182
 20
49.33902893489342
 30
0.0
 11
-18.00002776253182
 21
48.67236226822676
 31
0.0
 12
-20.00002776253182
 22
49.00569560156009
 32
0.0
 13
-20.00002776253182
 23
49.00569560156009
 33
0.0
  0
SOLID
  5
2E9C
330
2E96
100
AcDbEntity
  8
Dimension1_Bemaßung1
100
AcDbTrace
 10
17.99997223746812
 20
49.33902893489342
 30
0.0
 11
17.99997223746812
 21
48.67236226822676
 31
0.0
 12
19.99997223746811
 22
49.00569560156009
 32
0.0
 13
19.99997223746811
 23
49.00569560156009
 33
0.0
  0
MTEXT
  5
2E9D
330
2E96
100
AcDbEntity
  8
Dimension1_Bemaßung1
100
AcDbMText
 10
0.2731660990215233
 20
51.15569560156009
 30
0.0
 40
3.5
 41
0.0
 71
     5
 72
     1
  1
\A2;40
 73
     1
 44
1.0
1001
ACAD
1000
MTEXTBEGIN
1070
    73
1070
     1
1070
    44
1040
1.0
1070
    74
1070
     0
1000
MTEXTEND
  0
POINT
  5
2E9E
330
2E96
100
AcDbEntity
  8
Defpoints
 62
     0
100
AcDbPoint
 10
-20.00002776253183
 20
18.50004031522012
 30
0.0
  0
POINT
  5
2E9F
330
2E96
100
AcDbEntity
  8
Defpoints
 62
     0
100
AcDbPoint
 10
19.99997223746811
 20
18.50004031522012
 30
0.0
  0
POINT
  5
2EA0
330
2E96
100
AcDbEntity
  8
Defpoints
 62
     0
100
AcDbPoint
 10
19.99997223746811
 20
49.00569560156009
 30
0.0
  0
ENDBLK
  5
2EA1
330
2E96
100
AcDbEntity
  8
0
100
AcDbBlockEnd
  0
BLOCK
  5
2EA3
330
2EA2
100
AcDbEntity
  8
0
100
AcDbBlockBegin
  2
*D21
 70
     1
 10
0.0
 20
0.0
 30
0.0
  3
*D21
  1

  0
LINE
  5
2EA4
330
2EA2
100
AcDbEntity
  8
Dimension1_Bemaßung1
370
    -2
100
AcDbLine
 10
-18.50002776253183
 20
20.00004031522012
 30
0.0
 11
-42.83947241964551
 21
20.00004031522013
 31
0.0
  0
LINE
  5
2EA5
330
2EA2
100
AcDbEntity
  8
Dimension1_Bemaßung1
370
    -2
100
AcDbLine
 10
-18.50002776253183
 20
-19.99995968477984
 30
0.0
 11
-42.83947241964552
 21
-19.99995968477984
 31
0.0
  0
LINE
  5
2EA6
330
2EA2
100
AcDbEntity
  8
Dimension1_Bemaßung1
370
    -2
100
AcDbLine
 10
-41.33947241964551
 20
18.00004031522012
 30
0.0
 11
-41.33947241964552
 21
-17.99995968477984
 31
0.0
  0
SOLID
  5
2EA7
330
2EA2
100
AcDbEntity
  8
Dimension1_Bemaßung1
100
AcDbTrace
 10
-41.67280575297884
 20
18.00004031522012
 30
0.0
 11
-41.00613908631217
 21
18.00004031522012
 31
0.0
 12
-41.33947241964551
 22
20.00004031522013
 32
0.0
 13
-41.33947241964551
 23
20.00004031522013
 33
0.0
  0
SOLID
  5
2EA8
330
2EA2
100
AcDbEntity
  8
Dimension1_Bemaßung1
100
AcDbTrace
 10
-41.67280575297886
 20
-17.99995968477984
 30
0.0
 11
-41.00613908631219
 21
-17.99995968477984
 31
0.0
 12
-41.33947241964552
 22
-19.99995968477984
 32
0.0
 13
-41.33947241964552
 23
-19.99995968477984
 33
0.0
  0
MTEXT
  5
2EA9
330
2EA2
100
AcDbEntity
  8
Dimension1_Bemaßung1
100
AcDbMText
 10
-43.48947241964551
 20
-0.60826715626888
 30
0.0
 40
3.5
 41
0.0
 71
     5
 72
     1
  1
\A2;40
 11
0.0000000000000001
 21
1.0
 31
0.0
 73
     1
 44
1.0
1001
ACAD
1000
MTEXTBEGIN
1070
    73
1070
     1
1070
    44
1040
1.0
1070
    74
1070
     0
1000
MTEXTEND
  0
POINT
  5
2EAA
330
2EA2
100
AcDbEntity
  8
Defpoints
 62
     0
100
AcDbPoint
 10
-18.50002776253183
 20
20.00004031522012
 30
0.0
  0
POINT
  5
2EAB
330
2EA2
100
AcDbEntity
  8
Defpoints
 62
     0
100
AcDbPoint
 10
-18.50002776253183
 20
-19.99995968477984
 30
0.0
  0
POINT
  5
2EAC
330
2EA2
100
AcDbEntity
  8
Defpoints
 62
     0
100
AcDbPoint
 10
-41.33947241964552
 20
-19.99995968477984
 30
0.0
  0
ENDBLK
  5
2EAD
330
2EA2
100
AcDbEntity
  8
0
100
AcDbBlockEnd
  0
BLOCK
  5
2ED6
330
2EBB
100
AcDbEntity
  8
0
100
AcDbBlockBegin
  2
Sp685_neu
 70
     0
 10
0.0
 20
0.0
 30
0.0
  3
Sp685_neu
  1

  0
POINT
  5
2EBC
330
2EBB
100
AcDbEntity
  8
0
 60
     1
100
AcDbPoint
 10
0.0
 20
0.0
 30
0.0
1001
GENIUS_GENODEF_13
1002
{
1000
HIER
1070
     1
1002
}
1002
{
1000
MANEDIT
1070
     0
1002
}
1002
{
1000
NOSEL
1070
     0
1002
}
1002
{
1000
BEHIND
1070
     0
1002
}
1002
{
1000
REACTOR
1002
}
1001
GENIUS_GENOBJ-N-SDF_13
1002
{
1000
OWNER
1000
GEN
1002
}
1001
GENIUS_GENOENT_13
1002
{
1000
MYREF
1005
2EBC
1002
}
1002
{
1000
GRP
1005
0
1002
}
1001
GENIUS_GENOLIS_13
1002
{
1000
ENT
1005
0
1002
}
  0
INSERT
  5
2EBD
330
2EBB
100
AcDbEntity
  8
ASHADE
 62
     1
100
AcDbBlockReference
  2
AVE_RENDER
 10
0.0
 20
0.0
 30
0.0
1001
AVE_RENDER
1002
{
1070
     7
1000
Pref
1070
    30
1070
    20
1070
     1
1070
     0
1000

1070
    10
1070
     1
1070
    10
1040
1.0
1070
     1
1040
0.7
1040
1.0
1040
0.0
1040
10.0
1010
-1.0
1020
-1.0
1030
-1.0
1040
0.3
1070
    49
1070
     0
1070
     0
1010
1.0
1020
1.0
1030
1.0
1040
45.0
1070
     1
1070
     0
1000
WCS
1040
0.0
1070
     0
1040
10.0
1002
}
  0
INSERT
  5
2EBE
330
2EBB
100
AcDbEntity
  8
ASHADE
 62
     3
100
AcDbBlockReference
  2
AVE_RENDER
 10
0.0
 20
0.0
 30
0.0
1001
AVE_RENDER
1002
{
1070
     0
1000
Full Opt
1070
     0
1070
     1
1070
     1
1070
     1
1070
     0
1070
     0
1070
     0
1070
     1
1070
     1
1040
0.0001
1040
0.0001
1002
}
  0
INSERT
  5
2EBF
330
2EBB
100
AcDbEntity
  8
ASHADE
 62
     4
100
AcDbBlockReference
  2
AVE_RENDER
 10
0.0
 20
0.0
 30
0.0
1001
AVE_RENDER
1002
{
1070
     0
1000
Quick Opt
1070
     0
1070
     1
1070
     1
1070
     1
1070
     0
1070
     0
1070
     1
1002
}
  0
INSERT
  5
2EC0
330
2EBB
100
AcDbEntity
  8
ASHADE
 62
     5
100
AcDbBlockReference
  2
AVE_RENDER
 10
0.0
 20
0.0
 30
0.0
1001
AVE_RENDER
1002
{
1070
     1
1000
Scanl Opt
1070
     2
1070
     0
1070
     2
1040
2.0
1040
4.0
1070
     0
1070
     1
1070
     0
1040
0.03
1002
}
  0
INSERT
  5
2EC1
330
2EBB
100
AcDbEntity
  8
ASHADE
 62
     6
100
AcDbBlockReference
  2
AVE_RENDER
 10
0.0
 20
0.0
 30
0.0
1001
AVE_RENDER
1002
{
1070
     2
1000
Raytr Opt
1070
     2
1070
     0
1070
     2
1040
2.0
1040
4.0
1070
     0
1070
     1
1070
     1
1040
0.03
1070
     3
1040
0.03
1002
}
  0
INSERT
  5
2EC2
330
2EBB
100
AcDbEntity
  8
ASHADE
 62
     7
100
AcDbBlockReference
  2
AVE_RENDER
 10
0.0
 20
0.0
 30
0.0
1001
AVE_RENDER
1002
{
1070
     0
1000
RFile Opt
1070
     1
1070
   640
1070
   480
1070
 10000
1070
     1
1070
     8
1070
     8
1070
     0
1070
     0
1070
     0
1070
     0
1070
     0
1070
     0
1070
     0
1002
}
  0
INSERT
  5
2EC3
330
2EBB
100
AcDbEntity
  8
ASHADE
 62
     8
100
AcDbBlockReference
  2
AVE_RENDER
 10
0.0
 20
0.0
 30
0.0
1001
AVE_RENDER
1002
{
1070
     0
1000
Fog Opt
1070
     0
1070
     0
1040
0.0
1040
1.0
1040
0.0
1040
1.0
1010
0.5
1020
0.5
1030
0.5
1002
}
  0
INSERT
  5
2EC4
330
2EBB
100
AcDbEntity
  8
ASHADE
 62
     9
100
AcDbBlockReference
  2
AVE_RENDER
 10
0.0
 20
0.0
 30
0.0
1001
AVE_RENDER
1002
{
1070
     0
1000
BG Opt
1070
     0
1070
     1
1010
0.0
1020
0.0
1030
0.0
1010
1.0
1020
0.0
1030
0.0
1010
0.0
1020
1.0
1030
0.0
1010
0.0
1020
0.0
1030
1.0
1040
0.5
1040
0.33
1040
0.0
1000

1070
     1
1000

1070
     1
1070
     1
1040
1.0
1040
1.0
1040
0.0
1040
0.0
1070
     0
1002
}
  0
INSERT
  5
2EC5
330
2EBB
100
AcDbEntity
  8
ASHADE
 62
     1
100
AcDbBlockReference
  2
AVE_GLOBAL
 10
0.0
 20
0.0
 30
0.0
1001
AVE_MATERIAL
1002
{
1000
*GLOBAL*
1000
2
1000
Globales Material.
1002
{
1002
}
1002
{
1070
    63
1002
{
1002
{
1010
-1.0
1020
-1.0
1030
-1.0
1002
}
1040
0.6999999880790711
1000

1040
0.0
1002
{
1002
}
1040
0.0
1002
{
1002
}
1040
0.0
1002
}
1002
{
1002
{
1010
-1.0
1020
-1.0
1030
-1.0
1002
}
1040
1.0
1000

1040
0.0
1002
{
1002
}
1040
0.0
1002
{
1002
}
1040
0.0
1002
}
1002
{
1002
{
1010
-1.0
1020
-1.0
1030
-1.0
1002
}
1040
0.2000000029802322
1000

1040
0.0
1002
{
1002
}
1040
0.0
1002
{
1002
}
1040
0.0
1002
}
1002
{
1070
     0
1002
{
1070
     1
1002
{
1040
1.0
1040
1.0
1000

1040
0.0
1002
{
1002
}
1040
0.0
1002
{
1002
}
1040
0.0
1002
}
1002
}
1040
1.0
1040
0.0
1040
0.0
1002
}
1002
{
1040
1.0
1040
1.0
1000

1040
0.0
1002
{
1002
}
1040
0.0
1002
{
1002
}
1040
0.0
1002
}
1002
{
1040
0.5
1040
1.0
1000

1040
0.0
1002
{
1002
}
1040
0.0
1002
{
1002
}
1040
0.0
1002
}
1002
{
1070
     0
1040
0.0
1002
{
1002
}
1040
1.0
1002
{
1002
}
1040
0.0
1002
}
1002
{
1040
0.0
1002
{
1002
{
1010
0.0
1020
0.0
1030
0.0
1002
}
1040
1.0
1000

1040
0.0
1002
{
1002
}
1040
0.0
1002
{
1002
}
1040
0.0
1002
}
1002
}
1002
{
1002
{
1070
     1
1002
{
1040
0.0
1040
1.0
1000

1040
0.0
1002
{
1002
}
1040
0.0
1002
{
1002
}
1040
0.0
1002
}
1002
}
1040
0.0
1002
{
1002
}
1010
1.0
1020
0.0
1030
0.0
1010
0.0
1020
1.0
1030
0.0
1010
0.0
1020
0.0
1030
1.0
1070
     0
1002
}
1002
{
1002
{
1040
1.0
1040
1.0
1002
{
1070
     1
1002
{
1040
1.0
1040
1.0
1000

1040
0.0
1002
{
1002
}
1040
0.0
1002
{
1002
}
1040
0.0
1002
}
1002
}
1002
}
1070
     0
1040
0.0
1002
{
1002
}
1002
}
1002
{
1002
}
1002
}
1002
{
1071
        3
1070
     3
1070
     0
1002
{
1070
     2
1070
     0
1070
     0
1040
0.0
1002
}
1070
     0
1070
     2
1002
{
1002
}
1002
}
1002
{
1040
8030.0
1040
190.3000030517578
1040
0.3050000071525574
1040
228.0
1040
545.0
1040
14.0
1040
17.39999961853027
1040
0.4560000002384186
1002
}
1002
}
  0
INSERT
  5
2EC6
330
2EBB
100
AcDbEntity
  8
0
100
AcDbBlockReference
  2
SV1490B
 10
-233.576167
 20
43.496243
 30
0.0
  0
LINE
  5
2EC7
330
2EBB
100
AcDbEntity
  8
Center of gravity_Schwerpunkt
100
AcDbLine
 10
-26.40524250459043
 20
0.0
 30
0.0
 11
26.4163605799979
 21
0.0
 31
0.0
  0
LINE
  5
2EC8
330
2EBB
100
AcDbEntity
  8
Center of gravity_Schwerpunkt
100
AcDbLine
 10
0.0
 20
-26.37035931799221
 30
0.0
 11
0.0
 21
26.29339776869449
 31
0.0
  0
TEXT
  5
2EC9
330
2EBB
100
AcDbEntity
  8
Center of gravity_Schwerpunkt
100
AcDbText
 10
27.67401610512343
 20
-2.762467449983205
 30
0.0
 40
5.0
  1
X
100
AcDbText
  0
TEXT
  5
2ECA
330
2EBB
100
AcDbEntity
  8
Center of gravity_Schwerpunkt
100
AcDbText
 10
-2.370016025348149
 20
27.27124062957126
 30
0.0
 40
5.0
  1
Y
100
AcDbText
  0
DIMENSION
  5
2ECB
330
2EBB
100
AcDbEntity
  8
Dimension1_Bemaßung1
100
AcDbDimension
  2
*D14
 10
24.99997223746806
 20
54.06514429309812
 30
0.0
 11
0.8727618540797266
 21
54.06514429309812
 31
0.0
 70
   128
 71
     5
 42
49.99999999999989
  3
PALETTI
100
AcDbAlignedDimension
 13
-25.00002776253183
 23
24.00004031522013
 33
0.0
 14
24.99997223746806
 24
24.00004031522013
 34
0.0
100
AcDbRotatedDimension
1001
ACAD
1000
DSTYLE
1002
{
1070
    47
1040
0.05
1070
    48
1040
0.05
1070
   272
1070
     2
1002
}
  0
DIMENSION
  5
2ECC
330
2EBB
100
AcDbEntity
  8
Dimension1_Bemaßung1
100
AcDbDimension
  2
*D15
 10
-47.14588645205117
 20
-24.99995968477992
 30
0.0
 11
-47.14588645205116
 21
0.4146314276394634
 31
0.0
 70
   128
 71
     5
 42
50.00000000000004
  3
PALETTI
100
AcDbAlignedDimension
 13
-24.00002776253183
 23
25.00004031522012
 33
0.0
 14
-24.00002776253183
 24
-24.99995968477993
 34
0.0
 50
90.0
100
AcDbRotatedDimension
1001
ACAD
1000
DSTYLE
1002
{
1070
    47
1040
0.05
1070
    48
1040
0.05
1070
   272
1070
     2
1002
}
  0
DIMENSION
  5
2ECD
330
2EBB
100
AcDbEntity
  8
Dimension1_Bemaßung1
100
AcDbDimension
  2
*D16
 10
12.49997223746811
 20
41.98287300376899
 30
0.0
 11
1.010108027419164
 21
41.98287300376899
 31
0.0
 70
   128
 71
     5
 42
25.0
  3
PALETTI
100
AcDbAlignedDimension
 13
-12.50002776253188
 23
24.50004031522012
 33
0.0
 14
12.49997223746811
 24
24.50004031522012
 34
0.0
100
AcDbRotatedDimension
1001
ACAD
1000
DSTYLE
1002
{
1070
    47
1040
0.05
1070
    48
1040
0.05
1070
   272
1070
     2
1002
}
  0
DIMENSION
  5
2ECE
330
2EBB
100
AcDbEntity
  8
Dimension1_Bemaßung1
100
AcDbDimension
  2
*D17
 10
-2.500027762531884
 20
36.62822957912897
 30
0.0
 11
1.010108027419164
 21
36.62822957912897
 31
0.0
 70
   128
 71
     5
 42
5.0
  3
PALETTI
100
AcDbAlignedDimension
 13
2.499972237468114
 23
19.0000403152201
 33
0.0
 14
-2.500027762531885
 24
19.0000403152201
 34
0.0
100
AcDbRotatedDimension
1001
ACAD
1000
DSTYLE
1002
{
1070
    47
1040
0.05
1070
    48
1040
0.05
1070
   272
1070
     2
1002
}
  0
DIMENSION
  5
2ECF
330
2EBB
100
AcDbEntity
  8
Dimension1_Bemaßung1
100
AcDbDimension
  2
*D18
 10
-24.50002776253189
 20
12.50004031522012
 30
0.0
 11
-34.99728519340579
 21
12.95912182521852
 31
0.0
 70
   130
  1
0,5x<>
 71
     5
 42
1.570796326794849
  3
PALETTI
100
AcDb2LineAngularDimension
 13
-25.00002776253189
 23
12.00004031522025
 33
0.0
 14
-24.50002776253189
 24
12.50004031522012
 34
0.0
 15
-25.00002776253183
 25
13.00004031522014
 35
0.0
 16
-34.64929174481321
 26
9.780553227398803
 36
0.0
1001
ACAD
1000
DSTYLE
1002
{
1070
    47
1040
0.05
1070
    48
1040
0.05
1070
   272
1070
     2
1002
}
  0
DIMENSION
  5
2ED0
330
2EBB
100
AcDbEntity
  8
Dimension1_Bemaßung1
100
AcDbDimension
  2
*D19
 10
-25.00002776253183
 20
32.11013946394633
 30
0.0
 11
-34.65002776253183
 21
32.11013946394633
 31
0.0
 70
   128
  1
<>x45°
 71
     5
  3
PALETTI
100
AcDbAlignedDimension
 13
-24.00002776253183
 23
25.00004031522012
 33
0.0
 14
-25.00002776253183
 24
24.00004031522013
 34
0.0
100
AcDbRotatedDimension
1001
ACAD
1000
DSTYLE
1002
{
1070
    47
1040
0.05
1070
    48
1040
0.05
1070
   272
1070
     2
1002
}
  0
REGION
  5
2ED1
330
2EBB
100
AcDbEntity
  8
0
100
AcDbModelerGeometry
 70
     1
  1
koo kon n o         
  1
lj ^ *+0;:,4 R:<7>16<>3 [:,4+0/ mook [G nh ^ LR iqoqkqhooh QK mk K*: P<+ nf ogejiejl mook 
  1
n fqfffffffffffffffj:rooh n:rono 
  1
=0;& {n {m {rn {rn |
  1
-:9@)+r:&:r>++-6= {rn {rn {rn {o {l {k |
  1
3*2/ {j {rn {i {o |
  1
:&:@-:961:2:1+ {rn j 8-6;  n l +-6 n k ,*-9 o l >;5 o k 8->; o f /0,+<7:<4 o k ,+03 oqniikmmnnkjonnlfnk k 1+03 lo k ;,63 o g 93>+1:,, o h /6'>-:> o k 72>' o i 8-6;>- o j 28-6; looo j *8-6; o j )8-6; o no :1;@96:3;, |
  1
):-+:'@+:2/3>+: {rn l o n g |
  1
-:9@)+r:&:r>++-6= {rn {rn {rn {m {l {k |
  1
,7:33 {h {rn {rn {g {rn {m |
  1
-:9@)+r:&:r>++-6= {rn {rn {rn {i {l {k |
  1
9><: {f {rn {no {i {rn {nn 90-(>-; ;0*=3: 0*+ |
  1
92:,7r:&:r>++-6= {rn {nm {rn {g |
  1
300/ {rn {nl {nk {g |
  1
/3>1:r,*-9><: {rn rmqhhimjlngjflgljkk:rooj kqolnjmmonljkmmgg:rooj o o o n n o o 90-(>-;@) V V V V |
  1
-:9@)+r:&:r>++-6= {rn {rn {f {g {l {k |
  1
300/ {rn {nj {ni {g |
  1
<0:;8: {rn {nh {ng {rn {nf 90-(>-; {no {rn |
  1
300/ {rn {mo {mn {g |
  1
<0:;8: {rn {mm {ml {rn {mk 90-(>-; {nl {rn |
  1
<0:;8: {rn {mj {nk {rn {mi 90-(>-; {no {rn |
  1
<0:;8: {rn {nk {mh {rn {mg 90-(>-; {no {rn |
  1
:;8: {mf {lo {ln {nk {lm 90-(>-; |
  1
300/ {rn {ll {lk {g |
  1
<0:;8: {rn {lj {li {rn {lh 90-(>-; {nj {rn |
  1
<0:;8: {rn {lg {ni {rn {lf 90-(>-; {nl {rn |
  1
<0:;8: {rn {ni {ko {rn {kn 90-(>-; {nl {rn |
  1
:;8: {km {kl {kk {ni {kj 90-(>-; |
  1
<0:;8: {rn {ki {nh {rn {kh 90-(>-; {no {rn |
  1
:;8: {kg {ln {kf {nh {jo 90-(>-; |
  1
<0:;8: {rn {ng {jn {rn {jm 90-(>-; {no {rn |
  1
:;8: {jl {jk {lo {ng {jj 90-(>-; |
  1
/+36,+r:&:r>++-6= {rn {rn {rn {nf |
  1
):-+:' {rn {nf {ji |
  1
):-+:' {rn {nf {jh |
  1
,+->687+r<*-): {rn nfqffffhmmlhkignnn kqooookolnjmmoofkh o rmqkjonkhlikigfffih:roni rn o Y rnkqjoooooooooooomj Y o |
  1
300/ {rn {rn {jg {g |
  1
<0:;8: {rn {jf {io {rn {in 90-(>-; {mo {rn |
  1
<0:;8: {rn {im {mn {rn {il 90-(>-; {nj {rn |
  1
<0:;8: {rn {mn {ik {rn {ij 90-(>-; {nj {rn |
  1
:;8: {ii {ih {ig {mn {if 90-(>-; |
  1
<0:;8: {rn {ho {mm {rn {hn 90-(>-; {nl {rn |
  1
:;8: {hm {kk {hl {mm {hk 90-(>-; |
  1
<0:;8: {rn {ml {hj {rn {hi 90-(>-; {nl {rn |
  1
:;8: {hh {hg {kl {ml {hf 90-(>-; |
  1
/+36,+r:&:r>++-6= {rn {rn {rn {mk |
  1
):-+:' {rn {mk {go |
  1
):-+:' {rn {mk {gn |
  1
,+->687+r<*-): {rn rmoqoooomhhimjlngmj rlqffffjfigkhhfgmli o mqkjonkhlikigfffhm:roni n o Y rnkqjoooooooooooomn Y o |
  1
<0:;8: {rn {gm {mj {rn {gl 90-(>-; {no {rn |
  1
:;8: {gk {kf {gj {mj {gi 90-(>-; |
  1
/+36,+r:&:r>++-6= {rn {rn {rn {mi |
  1
):-+:' {rn {kh {gh |
  1
:336/,:r<*-): {rn ngqkfffhmmlhkignnn kqooookolnjmmoofkh o o o rn nqj o o n Y o Y nqjhohfilmihfkgfii |
  1
<0:;8: {rn {mh {gm {rn {gg 90-(>-; {no {rn |
  1
:;8: {gf {fo {jk {mh {fn 90-(>-; |
  1
/+36,+r:&:r>++-6= {rn {rn {rn {mg |
  1
):-+:' {rn {mg {fm |
  1
:336/,:r<*-): {rn ngqkfffhmmlhkignnk ngqjoookolnjmmonnf o o o rn nqj o o n Y rnqjhohfilmihfkgfii Y o |
  1
/061+ {rn nfqffffhmmlhkignnk ngqjoookolnjmmonnf o |
  1
/061+ {rn nfqffffhmmlhkignnn kqooookolnjmmoofkh o |
  1
<0:;8: {rn {fl {fk {rn {fj 90-(>-; {ll {rn |
  1
<0:;8: {rn {fi {lk {rn {fh 90-(>-; {mo {rn |
  1
<0:;8: {rn {lk {fg {rn {ff 90-(>-; {mo {rn |
  1
:;8: {noo {non {nom {lk {nol 90-(>-; |
  1
<0:;8: {rn {nok {lj {rn {noj 90-(>-; {nj {rn |
  1
:;8: {noi {ig {noh {lj {nog 90-(>-; |
  1
<0:;8: {rn {li {nof {rn {nno 90-(>-; {nj {rn |
  1
:;8: {nnn {nnm {ih {li {nnl 90-(>-; |
  1
/+36,+r:&:r>++-6= {rn {rn {rn {lh |
  1
):-+:' {rn {lh {nnk |
  1
):-+:' {rn {lh {nnj |
  1
:336/,:r<*-): {rn ngqkfffhmmlhkignnn rlqffffjfigkhhfgmli o o o rn nqj o o n Y rnqjhohfilmihfkgff Y o |
  1
<0:;8: {rn {nni {lg {rn {nnh 90-(>-; {nl {rn |
  1
:;8: {nng {hl {nnf {lg {nmo 90-(>-; |
  1
/+36,+r:&:r>++-6= {rn {rn {rn {lf |
  1
):-+:' {rn {hn {nmn |
  1
:336/,:r<*-): {rn rngqjooomhhimjlngmj rlqffffjfigkhhfgmli o o o rn nqj o o n Y rlqnknjfmijljgfhfln Y rnqjhohfilmihfkgfii |
  1
<0:;8: {rn {ko {nni {rn {nmm 90-(>-; {nl {rn |
  1
:;8: {nml {nmk {hg {ko {nmj 90-(>-; |
  1
/+36,+r:&:r>++-6= {rn {rn {rn {kn |
  1
):-+:' {rn {kn {nmi |
  1
:336/,:r<*-): {rn rngqjooomhhimjlngmf rngqkfffjfigkhhfgki o o o rn nqj o o n Y nqjhohfilmihfkgfii Y lqnknjfmijljgfhfln |
  1
/061+ {rn rmoqoooomhhimjlngmf rngqkfffjfigkhhfgki o |
  1
/061+ {rn rmoqoooomhhimjlngmj rlqffffjfigkhhfgmli o |
  1
<0:;8: {rn {jn {ki {rn {nmh 90-(>-; {no {rn |
  1
:;8: {nmg {gj {nmf {ki {nlo 90-(>-; |
  1
/+36,+r:&:r>++-6= {rn {rn {rn {kh |
  1
):-+:' {rn {gl {nln |
  1
,+->687+r<*-): {rn lqffffhmmlhkignnkn mqjoookolnjmmonnni o rn nqnilgnfffgmmhhjoh:ronj o Y rnkqkfffffffffffffi Y kqkkogfmofgjooimim:roni |
  1
/061+ {rn ngqkfffhmmlhkignnn mqjoookolnjmmoofkh o |
  1
:;8: {nlm {nll {fo {jn {nlk 90-(>-; |
  1
/+36,+r:&:r>++-6= {rn {rn {rn {jm |
  1
):-+:' {rn {jm {nlj |
  1
,+->687+r<*-): {rn ngqkfffhmmlhkignnk moqooookolnjmmonnf o n mqkjonkhlikifoon:roni o Y rnkqkffffffffffffkj Y o |
  1
/061+ {rn ngqkfffhmmlhkignnk moqooookolnjmmonnf o |
  1
<0:;8: {rn {nli {jg {rn {nlh 90-(>-; {ll {rn |
  1
<0:;8: {rn {jg {nlg {rn {nlf -:):-,:; {ll {rn |
  1
:;8: {nko {nkn {nkm {jg {nkl 90-(>-; |
  1
<0:;8: {rn {nkk {jf {rn {nkj 90-(>-; {mo {rn |
  1
:;8: {nki {nom {nkh {jf {nkg 90-(>-; |
  1
<0:;8: {rn {io {nkf {rn {njo 90-(>-; {mo {rn |
  1
:;8: {njn {njm {non {io {njl 90-(>-; |
  1
/+36,+r:&:r>++-6= {rn {rn {rn {in |
  1
):-+:' {rn {in {njk |
  1
):-+:' {rn {in {njj |
  1
:336/,:r<*-): {rn rngqjooomhhimjlngmj kqooookolnjmmoofkh o o o rn nqj o o n Y nqjhohfilmihfkgfkl Y lqnknjfmijljgfhfln |
  1
<0:;8: {rn {nji {im {rn {njh 90-(>-; {nj {rn |
  1
:;8: {njg {noh {njf {im {nio 90-(>-; |
  1
/+36,+r:&:r>++-6= {rn {rn {rn {il |
  1
):-+:' {rn {noj {nin |
  1
,+->687+r<*-): {rn nfqffffhmmlhkignnn rlqffffjfigkhhfgmli o mqkjonkhlikigfffhm:roni rn o Y o Y nkqjoooooooooooomn |
  1
<0:;8: {rn {ik {nji {rn {nim 90-(>-; {nj {rn |
  1
:;8: {nil {nik {nnm {ik {nij 90-(>-; |
  1
/+36,+r:&:r>++-6= {rn {rn {rn {ij |
  1
):-+:' {rn {ij {nii |
  1
,+->687+r<*-): {rn lqffffhmmlhkignnkn rmqkfffjfigkhhfgkok o n nqnilgnfffgmmhhjoh:ronj o Y o Y nkqkfffffffffffffl |
  1
/061+ {rn ngqkfffhmmlhkignoh rmqkfffjfigkhhfgmli o |
  1
/061+ {rn nfqffffhmmlhkignnn rlqffffjfigkhhfgmli o |
  1
<0:;8: {rn {hj {ho {rn {nih 90-(>-; {nl {rn |
  1
:;8: {nig {nnf {nif {ho {nho 90-(>-; |
  1
/+36,+r:&:r>++-6= {rn {rn {rn {hn |
  1
):-+:' {rn {nnh {nhn |
  1
,+->687+r<*-): {rn rkqoooomhhimjlngmf rmqkfffjfigkhhfgkok o n rnqnilgnfffgmmhhjoh:ronj o Y rnkqkfffffffffffffi Y rgqggnhgknfhoonmjml:roni |
  1
/061+ {rn rngqjooomhhimjlngmj rmqkfffjfigkhhfgmli o |
  1
:;8: {nhm {nhl {nmk {hj {nhk 90-(>-; |
  1
/+36,+r:&:r>++-6= {rn {rn {rn {hi |
  1
):-+:' {rn {hi {nhj |
  1
,+->687+r<*-): {rn rngqjooomhhimjlngmf rnfqffffjfigkhhfgki o rn o o Y rnkqkffffffffffffkj Y o |
  1
/061+ {rn rngqjooomhhimjlngmf rnfqffffjfigkhhfgki o |
  1
:;8: {nhi {nmf {nll {gm {nhh 90-(>-; |
  1
/+36,+r:&:r>++-6= {rn {rn {rn {gl |
  1
):-+:' {rn {nmh {nhg |
  1
:336/,:r<*-): {rn lqffffhmmlhkignnkn kqooookolnjmmonnni o o o rn nqj o o n Y nqjhohfilmihfkgfh Y lqnknjfmijljgfhfln |
  1
/061+ {rn lqffffhmmlhkignnlh mqjoookolnjmmonnni o |
  1
/+36,+r:&:r>++-6= {rn {rn {rn {gg |
  1
):-+:' {rn {gg {nhf |
  1
:336/,:r<*-): {rn lqffffhmmlhkignifm ngqjoookolnjmmonnj o o o rn nqj o o n Y rlqnknjfmijljgfhggh Y rnqjhohfilmihfkgfii |
  1
/061+ {rn lqffffhmmlhkignifm moqooookolnjmmonnj o |
  1
<0:;8: {rn {ngo {fl {rn {ngn -:):-,:; {ll {rn |
  1
:;8: {ngm {nkm {ngl {fl {ngk 90-(>-; |
  1
<0:;8: {rn {fk {ngj {rn {ngi 90-(>-; {ll {rn |
  1
:;8: {ngh {nkn {ngg {fk {ngf 90-(>-; |
  1
/+36,+r:&:r>++-6= {rn {rn {rn {fj |
  1
):-+:' {rn {fj {nfo |
  1
):-+:' {rn {fj {nfn |
  1
,+->687+r<*-): {rn rnmqoooomhhimjlngmf rmkqffffjfigkhhfgki o n o o V V |
  1
<0:;8: {rn {nfm {fi {rn {nfl 90-(>-; {mo {rn |
  1
:;8: {nfk {nkh {nfj {fi {nfi 90-(>-; |
  1
/+36,+r:&:r>++-6= {rn {rn {rn {fh |
  1
):-+:' {rn {nkj {nfh |
  1
,+->687+r<*-): {rn rmoqoooomhhimjlngmj kqooookolnjmmoofkh o rmqkjonkhlikigfffih:roni n o Y o Y nkqjoooooooooooomj |
  1
<0:;8: {rn {fg {nfm {rn {nfg 90-(>-; {mo {rn |
  1
:;8: {nff {moo {njm {fg {mon 90-(>-; |
  1
/+36,+r:&:r>++-6= {rn {rn {rn {ff |
  1
):-+:' {rn {ff {mom |
  1
,+->687+r<*-): {rn rkqoooomhhimjlngmf mqjoookolnjmmonnni o rn rnqnilgnfffgmmhhjoh:ronj o Y o Y nkqkfffffffffffffl |
  1
/061+ {rn rngqjooomhhimjlngmm mqjoookolnjmmoofkh o |
  1
/061+ {rn rmoqoooomhhimjlngmj kqooookolnjmmoofkh o |
  1
<0:;8: {rn {nof {nok {rn {mol 90-(>-; {nj {rn |
  1
:;8: {mok {njf {moj {nok {moi 90-(>-; |
  1
/+36,+r:&:r>++-6= {rn {rn {rn {noj |
  1
):-+:' {rn {njh {moh |
  1
:336/,:r<*-): {rn ngqkfffhmmlhkignnk rngqkfffjfigkhhfgki o o o rn nqj o o n Y o Y nqjhohfilmihfkgfii |
  1
/061+ {rn nfqffffhmmlhkignnk rngqkfffjfigkhhfgki o |
  1
:;8: {mog {mof {nik {nof {mno 90-(>-; |
  1
/+36,+r:&:r>++-6= {rn {rn {rn {nno |
  1
):-+:' {rn {nno {mnn |
  1
:336/,:r<*-): {rn lqffffhmmlhkignnkn rlqffffjfigkhhfgkok o o o rn nqj o o n Y rlqnknjfmijljgfhfln Y rnqjhohfilmihfkgfii |
  1
/061+ {rn lqffffhmmlhkignnkn rmqkfffjfigkhhfgkok o |
  1
:;8: {mnm {nif {nhl {nni {mnl 90-(>-; |
  1
/+36,+r:&:r>++-6= {rn {rn {rn {nnh |
  1
):-+:' {rn {nih {mnk |
  1
:336/,:r<*-): {rn rkqoooomhhimjlngmf rlqffffjfigkhhfgkok o o o rn nqj o o n Y rnqjhohfilmihfkgfhm Y o |
  1
/061+ {rn rkqoooomhhimjlngmff rmqkfffjfigkhhfgkok o |
  1
/+36,+r:&:r>++-6= {rn {rn {rn {nmm |
  1
):-+:' {rn {nmm {mnj |
  1
:336/,:r<*-): {rn rkqoooomhhimjlnggkn rngqkfffjfigkhhfgki o o o rn nqj o o n Y kqhlifjnjhnhlkoon:ronj Y nqjhohfilmihfkgfii |
  1
/061+ {rn rkqoooomhhimjlnggkn rnfqffffjfigkhhfgki o |
  1
/+36,+r:&:r>++-6= {rn {rn {rn {nmh |
  1
,+->687+r<*-): {rn mqkfffhmmlhkignifm ngqjoookolnjmmonmm o lqhfhhmgknjmifkfgl:ronj n o Y rnkqjoooooooooooonn Y o |
  1
/061+ {rn mqkfffhmmlhkignnkn kqooookolnjmmonnni o |
  1
/061+ {rn mqkfffhmmlhkignifm ngqjoookolnjmmonmm o |
  1
<0:;8: {rn {mni {nli {rn {mnh 90-(>-; {ll {rn |
  1
:;8: {mng {mnf {ngl {nli {mmo 90-(>-; |
  1
/+36,+r:&:r>++-6= {rn {rn {rn {nlh |
  1
):-+:' {rn {nlh {mmn |
  1
,+->687+r<*-): {rn nnqffffhmmlhkignnk rmkqffffjfigkhhfgki o oqhohnoihgnngijghij oqhohnoihgnngijohmh o V V |
  1
<0:;8: {rn {nlg {mmm {rn {mml -:):-,:; {ll {rn |
  1
:;8: {mmk {mmj {ngg {nlg {mmi 90-(>-; |
  1
/+36,+r:&:r>++-6= {rn {rn {rn {nlf |
  1
):-+:' {rn {ngi {mmh |
  1
,+->687+r<*-): {rn rnmqoooomhhimjlngmf rmkqffffjfigkhhfgki o roqhohnoihgnngijghij oqhohnoihgnngijohmh o V V |
  1
/061+ {rn rnmqoooomhhimjlngmf rmkqffffjfigkhhfgki o |
  1
/061+ {rn nnqffffhmmlhkignnk rmkqffffjfigkhhfgki o |
  1
<0:;8: {rn {nkf {nkk {rn {mmg 90-(>-; {mo {rn |
  1
:;8: {mmf {nfj {mlo {nkk {mln 90-(>-; |
  1
/+36,+r:&:r>++-6= {rn {rn {rn {nkj |
  1
):-+:' {rn {nfl {mlm |
  1
:336/,:r<*-): {rn rngqjooomhhimjlngmf ngqjoookolnjmmonnf o o o rn nqj o o n Y rlqnknjfmijljgfhfln Y rnqjhohfilmihfkgfii |
  1
/061+ {rn rmoqoooomhhimjlngmf ngqjoookolnjmmonnf o |
  1
:;8: {mll {mlk {moo {nkf {mlj 90-(>-; |
  1
/+36,+r:&:r>++-6= {rn {rn {rn {njo |
  1
):-+:' {rn {njo {mli |
  1
:336/,:r<*-): {rn rkqoooomhhimjlngmf kqooookolnjmmonnni o o o rn nqj o o n Y o Y nqjhohfilmihfkgfii |
  1
/061+ {rn rkqoooomhhimjlngmf mqjoookolnjmmonnni o |
  1
:;8: {mlh {moj {mof {nji {mlg 90-(>-; |
  1
/+36,+r:&:r>++-6= {rn {rn {rn {njh |
  1
):-+:' {rn {mol {mlf |
  1
,+->687+r<*-): {rn ngqkfffhmmlhkignnk rnfqffffjfigkhhfgki o rn o o Y o Y nkqkffffffffffffkj |
  1
/061+ {rn ngqkfffhmmlhkignnk rnfqffffjfigkhhfgki o |
  1
/+36,+r:&:r>++-6= {rn {rn {rn {nim |
  1
):-+:' {rn {nim {mko |
  1
,+->687+r<*-): {rn mqkfffhmmlhkignifm rngqkfffjfigkhhfgjl o rlqhfhhmgknjmifkfhj:ronj n o Y o Y nkqjoooooooooooonm |
  1
/061+ {rn mqkfffhmmlhkignnkn rlqffffjfigkhhfgkok o |
  1
/+36,+r:&:r>++-6= {rn {rn {rn {nih |
  1
,+->687+r<*-): {rn rmqjooomhhimjlnggkn rngqkfffjfigkhhfgjl o rlqhfhhmgknjmifkfhj:ronj rn o Y rnkqjoooooooooooonm Y o |
  1
/061+ {rn rmqjooomhhimjlngmf rlqffffjfigkhhfgkok o |
  1
/061+ {rn rmqjooomhhimjlnggkn rngqkfffjfigkhhfgjl o |
  1
<0:;8: {rn {mkn {ngo {rn {mkm 90-(>-; {ll {rn |
  1
:;8: {mkl {mnf {mkk {ngo {mkj 90-(>-; |
  1
/+36,+r:&:r>++-6= {rn {rn {rn {ngn |
  1
):-+:' {rn {ngn {mki |
  1
,+->687+r<*-): {rn nmqffffhmmlhkigmmg rmkqffffjfigkhhfgki o roqhohnoihgnngijghij oqhohnoihgnngijohmh o V V |
  1
/061+ {rn nmqkfffhmmlhkignhn rmkqkfffjfigkhhfgki o |
  1
<0:;8: {rn {ngj {mkh {rn {mkg -:):-,:; {ll {rn |
  1
:;8: {mkf {mmj {mjo {ngj {mjn 90-(>-; |
  1
/+36,+r:&:r>++-6= {rn {rn {rn {ngi |
  1
):-+:' {rn {mml {mjm |
  1
,+->687+r<*-): {rn rnlqoooomhhimjlnfkl rmkqffffjfigkhhfgki o oqhohnoihgnngijghij oqhohnoihgnngijohmh o V V |
  1
/061+ {rn rnmqjooomhhimjlnggi rmkqkfffjfigkhhfgki o |
  1
:;8: {mjl {mlo {mlk {nfm {mjk 90-(>-; |
  1
/+36,+r:&:r>++-6= {rn {rn {rn {nfl |
  1
):-+:' {rn {mmg {mjj |
  1
,+->687+r<*-): {rn rngqjooomhhimjlngmf moqooookolnjmmonnf o n rmqkjonkhlikifoon:roni o Y o Y nkqkffffffffffffkj |
  1
/061+ {rn rngqjooomhhimjlngmf moqooookolnjmmonnf o |
  1
/+36,+r:&:r>++-6= {rn {rn {rn {nfg |
  1
):-+:' {rn {nfg {mji |
  1
,+->687+r<*-): {rn rmqjooomhhimjlnggkn ngqjoookolnjmmonmm o lqhfhhmgknjmifkfgl:ronj rn o Y o Y nkqjoooooooooooonn |
  1
/061+ {rn rmqjooomhhimjlngmf kqooookolnjmmonnni o |
  1
/+36,+r:&:r>++-6= {rn {rn {rn {mol |
  1
:336/,:r<*-): {rn lqffffhmmlhkignifm rngqkfffjfigkhhfgki o o o rn nqj o o n Y nqjhohfilmihfkgfh Y lqnknjfmijljgfhggh |
  1
/061+ {rn lqffffhmmlhkignigg rnfqffffjfigkhhfgki o |
  1
/061+ {rn mqkfffhmmlhkignifm rngqkfffjfigkhhfgjl o |
  1
<0:;8: {rn {mjh {mni {rn {mjg 90-(>-; {ll {rn |
  1
:;8: {mjf {mkk {mio {mni {min 90-(>-; |
  1
/+36,+r:&:r>++-6= {rn {rn {rn {mnh |
  1
):-+:' {rn {mnh {mim |
  1
,+->687+r<*-): {rn nmqffffhmmlhkigmmg rmkqffffjfigkhhfgki o n riqkjfkhfkniooofhg:roni o V V |
  1
/061+ {rn nmqffffhmmlhkigmmg rmkqffffjfigkhhfgki o |
  1
<0:;8: {rn {mmm {mil {rn {mik -:):-,:; {ll {rn |
  1
:;8: {mij {mjo {mii {mmm {mih 90-(>-; |
  1
/+36,+r:&:r>++-6= {rn {rn {rn {mml |
  1
):-+:' {rn {mkg {mig |
  1
,+->687+r<*-): {rn rnlqoooomhhimjlnfkl rmkqffffjfigkhhfgki o rn riqkjfkhfkniooofhg:roni o V V |
  1
/061+ {rn rnlqoooomhhimjlnfkl rmkqffffjfigkhhfgki o |
  1
/+36,+r:&:r>++-6= {rn {rn {rn {mmg |
  1
:336/,:r<*-): {rn rkqoooomhhimjlnggkn ngqjoookolnjmmonnj o o o rn nqj o o n Y rnqjhohfilmihfkgfii Y rkqhlifjnjhnhlkoon:ronj |
  1
/061+ {rn rkqoooomhhimjlnggkn moqooookolnjmmonnj o |
  1
/061+ {rn rmqjooomhhimjlnggkn ngqjoookolnjmmonmm o |
  1
<0:;8: {rn {mif {mkn {rn {mho 90-(>-; {ll {rn |
  1
:;8: {mhn {mio {mhm {mkn {mhl 90-(>-; |
  1
/+36,+r:&:r>++-6= {rn {rn {rn {mkm |
  1
):-+:' {rn {mkm {mhk |
  1
,+->687+r<*-): {rn mlqffffhmmlhkignnk rmkqffffjfigkhhfgjl o oqhohnoihgnngijkhki oqhohnoihgnngijkhki o V V |
  1
/061+ {rn mlqffffhmmlhkignnk rmkqffffjfigkhhfgjl o |
  1
<0:;8: {rn {mkh {mhj {rn {mhi -:):-,:; {ll {rn |
  1
:;8: {mhh {mii {mhg {mkh {mhf 90-(>-; |
  1
/+36,+r:&:r>++-6= {rn {rn {rn {mkg |
  1
):-+:' {rn {mik {mgo |
  1
,+->687+r<*-): {rn rmkqoooomhhimjlngmf rmkqffffjfigkhhfgjl o roqhohnoihgnngijkhki oqhohnoihgnngijkhki o V V |
  1
/061+ {rn rmkqoooomhhimjlngmf rmkqffffjfigkhhfgjl o |
  1
<0:;8: {rn {mgn {mjh {rn {mgm -:):-,:; {ll {rn |
  1
:;8: {mgl {mhm {mgk {mjh {mgj 90-(>-; |
  1
/+36,+r:&:r>++-6= {rn {rn {rn {mjg |
  1
):-+:' {rn {mjg {mgi |
  1
,+->687+r<*-): {rn mkqffffhmmlhkignnk rmlqffffjfigkhhfgjl o o n o V V |
  1
/061+ {rn mkqffffhmmlhkignnk rmlqffffjfigkhhfgjl o |
  1
<0:;8: {rn {mil {mgh {rn {mgg 90-(>-; {ll {rn |
  1
:;8: {mgf {mhg {mfo {mil {mfn 90-(>-; |
  1
/+36,+r:&:r>++-6= {rn {rn {rn {mik |
  1
):-+:' {rn {mhi {mfm |
  1
,+->687+r<*-): {rn rmjqoooomhhimjlngmf rmlqffffjfigkhhfgjl o o n o V V |
  1
/061+ {rn rmjqoooomhhimjlngmf rmlqffffjfigkhhfgjl o |
  1
<0:;8: {rn {mfl {mif {rn {mfk -:):-,:; {ll {rn |
  1
:;8: {mfj {mfi {mgk {mif {mfh 90-(>-; |
  1
/+36,+r:&:r>++-6= {rn {rn {rn {mho |
  1
):-+:' {rn {mho {mfg |
  1
,+->687+r<*-): {rn mkqffffhmmlhkignnk rnmqffffjfigkhhfghm o roqhohnoihgnngikfofj oqhohnoihgnngiiolfh o V V |
  1
/061+ {rn mkqffffhmmlhkignnk rnmqffffjfigkhhfghm o |
  1
<0:;8: {rn {mhj {mff {rn {loo -:):-,:; {ll {rn |
  1
:;8: {lon {lom {mfo {mhj {lol 90-(>-; |
  1
/+36,+r:&:r>++-6= {rn {rn {rn {mhi |
  1
):-+:' {rn {mgg {lok |
  1
,+->687+r<*-): {rn rmjqoooomhhimjlngmf rnmqffffjfigkhhfghm o oqhohnoihgnngikfofj oqhohnoihgnngiiolfh o V V |
  1
/061+ {rn rmjqoooomhhimjlngmf rnmqffffjfigkhhfghm o |
  1
<0:;8: {rn {loj {mgn {rn {loi 90-(>-; {ll {rn |
  1
:;8: {loh {log {mfi {mgn {lof 90-(>-; |
  1
/+36,+r:&:r>++-6= {rn {rn {rn {mgm |
  1
):-+:' {rn {mgm {lno |
  1
,+->687+r<*-): {rn mkqffffhmmlhkignhn rnnqffffjfigkhhffhf o roqhohnoihgnngiilfnh roqhohnoihgnngikjjhi o V V |
  1
/061+ {rn mkqkfffhmmlhkignhn rnmqkfffjfigkhhfgkf o |
  1
<0:;8: {rn {mgh {lnn {rn {lnm -:):-,:; {ll {rn |
  1
:;8: {lnl {lom {lnk {mgh {lnj 90-(>-; |
  1
/+36,+r:&:r>++-6= {rn {rn {rn {mgg |
  1
):-+:' {rn {loo {lni |
  1
,+->687+r<*-): {rn rmjqoooomhhimjlnggi rnnqffffjfigkhhffhf o oqhohnoihgnngiilfnh roqhohnoihgnngikjjhi o V V |
  1
/061+ {rn rmkqjooomhhimjlnggi rnmqkfffjfigkhhfgkf o |
  1
<0:;8: {rn {lnh {mfl {rn {lng -:):-,:; {ll {rn |
  1
:;8: {lnf {log {lmo {mfl {lmn 90-(>-; |
  1
/+36,+r:&:r>++-6= {rn {rn {rn {mfk |
  1
):-+:' {rn {mfk {lmm |
  1
,+->687+r<*-): {rn mkqffffhmmlhkignhj kqolnjmmonljjgfknk:rooj o rmqfiojfkhlmlllhmmj:roni rn o V V |
  1
/061+ {rn mkqffffhmmlhkignhn rnnqffffjfigkhhffhf o |
  1
<0:;8: {rn {mff {lml {rn {lmk 90-(>-; {ll {rn |
  1
:;8: {lmj {lnk {lmi {mff {lmh 90-(>-; |
  1
/+36,+r:&:r>++-6= {rn {rn {rn {loo |
  1
):-+:' {rn {lnm {lmg |
  1
,+->687+r<*-): {rn rmjqoooomhhimjlnggf kqolnjmmonljjgfknk:rooj o mqfiojfkhlmlllhmmj:roni n o V V |
  1
/061+ {rn rmjqoooomhhimjlnggi rnnqffffjfigkhhffhf o |
  1
<0:;8: {rn {lmf {loj {rn {llo -:):-,:; {ll {rn |
  1
:;8: {lln {llm {lmo {loj {lll 90-(>-; |
  1
/+36,+r:&:r>++-6= {rn {rn {rn {loi |
  1
):-+:' {rn {loi {llk |
  1
,+->687+r<*-): {rn mkqffffhmmlhkignhn nmqooookolnjmmomj o roqhohnoihgnngiilfnh oqhohnoihgnngikjjhi o V V |
  1
/061+ {rn mkqffffhmmlhkignhn nmqooookolnjmmomj o |
  1
<0:;8: {rn {lnn {llj {rn {lli 90-(>-; {ll {rn |
  1
:;8: {llh {llg {lmi {lnn {llf 90-(>-; |
  1
/+36,+r:&:r>++-6= {rn {rn {rn {lnm |
  1
):-+:' {rn {lmk {lko |
  1
,+->687+r<*-): {rn rmjqoooomhhimjlnggi nmqooookolnjmmomj o oqhohnoihgnngiilfnh oqhohnoihgnngikjjhi o V V |
  1
/061+ {rn rmjqoooomhhimjlnggi nmqooookolnjmmomj o |
  1
<0:;8: {rn {lkn {lnh {rn {lkm -:):-,:; {ll {rn |
  1
:;8: {lkl {lkk {llm {lnh {lkj 90-(>-; |
  1
/+36,+r:&:r>++-6= {rn {rn {rn {lng |
  1
):-+:' {rn {lng {lki |
  1
,+->687+r<*-): {rn mkqffffhmmlhkignnk nlqooookolnjmmonkk o roqhohnoihgnngikfofj roqhohnoihgnngiiolfh o V V |
  1
/061+ {rn mkqkfffhmmlhkignhn nmqjoookolnjmmonm o |
  1
<0:;8: {rn {lml {lkh {rn {lkg 90-(>-; {ll {rn |
  1
:;8: {lkf {ljo {llg {lml {ljn 90-(>-; |
  1
/+36,+r:&:r>++-6= {rn {rn {rn {lmk |
  1
):-+:' {rn {lli {ljm |
  1
,+->687+r<*-): {rn rmjqoooomhhimjlngmf nlqooookolnjmmonkk o oqhohnoihgnngikfofj roqhohnoihgnngiiolfh o V V |
  1
/061+ {rn rmkqjooomhhimjlnggi nmqjoookolnjmmonm o |
  1
<0:;8: {rn {ljl {lmf {rn {ljk -:):-,:; {ll {rn |
  1
:;8: {ljj {lji {lkk {lmf {ljh 90-(>-; |
  1
/+36,+r:&:r>++-6= {rn {rn {rn {llo |
  1
):-+:' {rn {llo {ljg |
  1
,+->687+r<*-): {rn mkqffffhmmlhkignnk mkqooookolnjmmonmm o o rn o V V |
  1
/061+ {rn mkqffffhmmlhkignnk nlqooookolnjmmonkk o |
  1
<0:;8: {rn {llj {ljf {rn {lio 90-(>-; {ll {rn |
  1
:;8: {lin {lim {ljo {llj {lil 90-(>-; |
  1
/+36,+r:&:r>++-6= {rn {rn {rn {lli |
  1
):-+:' {rn {lkg {lik |
  1
,+->687+r<*-): {rn rmjqoooomhhimjlngmf mkqooookolnjmmonmm o o rn o V V |
  1
/061+ {rn rmjqoooomhhimjlngmf nlqooookolnjmmonkk o |
  1
<0:;8: {rn {lij {lkn {rn {lii 90-(>-; {ll {rn |
  1
:;8: {lih {lig {lji {lkn {lif 90-(>-; |
  1
/+36,+r:&:r>++-6= {rn {rn {rn {lkm |
  1
):-+:' {rn {lkm {lho |
  1
,+->687+r<*-): {rn mlqffffhmmlhkignnk mjqooookolnjmmonmm o oqhohnoihgnngijkhki roqhohnoihgnngijkhki o V V |
  1
/061+ {rn mkqffffhmmlhkignnk mkqooookolnjmmonmm o |
  1
<0:;8: {rn {lkh {lhn {rn {lhm -:):-,:; {ll {rn |
  1
:;8: {lhl {lhk {lim {lkh {lhj 90-(>-; |
  1
/+36,+r:&:r>++-6= {rn {rn {rn {lkg |
  1
):-+:' {rn {lio {lhi |
  1
,+->687+r<*-): {rn rmkqoooomhhimjlngmf mjqooookolnjmmonmm o roqhohnoihgnngijkhki roqhohnoihgnngijkhki o V V |
  1
/061+ {rn rmjqoooomhhimjlngmf mkqooookolnjmmonmm o |
  1
<0:;8: {rn {lhh {ljl {rn {lhg -:):-,:; {ll {rn |
  1
:;8: {lhf {lig {lgo {ljl {lgn 90-(>-; |
  1
/+36,+r:&:r>++-6= {rn {rn {rn {ljk |
  1
):-+:' {rn {ljk {lgm |
  1
,+->687+r<*-): {rn nmqffffhmmlhkigmmg mjqooookolnjmmonnj o n iqkjfkhfkniooofhg:roni o V V |
  1
/061+ {rn mlqffffhmmlhkignnk mjqooookolnjmmonmm o |
  1
<0:;8: {rn {ljf {lhh {rn {lgl 90-(>-; {ll {rn |
  1
:;8: {lgk {lhk {lgj {ljf {lgi 90-(>-; |
  1
/+36,+r:&:r>++-6= {rn {rn {rn {lio |
  1
):-+:' {rn {lhm {lgh |
  1
,+->687+r<*-): {rn rnlqoooomhhimjlnfkl mjqooookolnjmmonnj o rn iqkjfkhfkniooofhg:roni o V V |
  1
/061+ {rn rmkqoooomhhimjlngmf mjqooookolnjmmonmm o |
  1
<0:;8: {rn {lhn {lij {rn {lgg 90-(>-; {ll {rn |
  1
:;8: {lgf {lfo {lgo {lij {lfn 90-(>-; |
  1
/+36,+r:&:r>++-6= {rn {rn {rn {lii |
  1
):-+:' {rn {lii {lfm |
  1
,+->687+r<*-): {rn nmqffffhmmlhkigmmg mjqooookolnjmmonnj o roqhohnoihgnngijfomn roqhohnoihgnngijokgl o V V |
  1
/061+ {rn nmqffffhmmlhkigmmg mjqooookolnjmmonnj o |
  1
:;8: {lfl {lfk {lgj {lhn {lfj 90-(>-; |
  1
/+36,+r:&:r>++-6= {rn {rn {rn {lhm |
  1
):-+:' {rn {lgl {lfi |
  1
,+->687+r<*-): {rn rnlqoooomhhimjlnfkl mjqooookolnjmmonnj o oqhohnoihgnngijfomn roqhohnoihgnngijokgl o V V |
  1
/061+ {rn rnlqoooomhhimjlnfkl mjqooookolnjmmonnj o |
  1
:;8: {lfh {lfo {lfk {lhh {lfg 90-(>-; |
  1
/+36,+r:&:r>++-6= {rn {rn {rn {lhg |
  1
):-+:' {rn {lhg {lff |
  1
,+->687+r<*-): {rn nnqffffhmmlhkignnk mjqooookolnjmmonnf o oqhohnoihgnngijghij roqhohnoihgnngijohmh o V V |
  1
/061+ {rn nmqkfffhmmlhkignhn mkqjoookolnjmmonnf o |
  1
/+36,+r:&:r>++-6= {rn {rn {rn {lgl |
  1
):-+:' {rn {lgg {koo |
  1
,+->687+r<*-): {rn rnmqoooomhhimjlngmf mjqooookolnjmmonnf o roqhohnoihgnngijghij roqhohnoihgnngijohmh o V V |
  1
/061+ {rn rnmqjooomhhimjlnggi mkqjoookolnjmmonnf o |
  1
/+36,+r:&:r>++-6= {rn {rn {rn {lgg |
  1
,+->687+r<*-): {rn nnqffffhmmlhkignnk mjqooookolnjmmonnf o rn rmqfiojfkhlmlllhjg:roni o V V |
  1
/061+ {rn nnqffffhmmlhkignnk mjqooookolnjmmonnf o |
  1
/061+ {rn rnmqoooomhhimjlngmf mjqooookolnjmmonnf o |
  0
MTEXT
  5
2ED2
102
{ACAD_XDICTIONARY
360
2FCC
102
}
330
2EBB
100
AcDbEntity
  8
0
100
AcDbMText
 10
-29.05869396745675
 20
-66.6229646501694
 30
0.0
 40
2.45
 41
77.56087499999999
 71
     1
 72
     1
  3
                              \PProfilberechnung:             13. Apr. 04    \P\PProfil: SP 685           50x50                    \P                              \P\PFlächenträgheitsmoment  Ix                   33,41  cm4\PFlächenträgheitsmoment  Iy
  1
                   33,41  cm4\P\PWiderstandsmoment Wx              13,36   cm3\PWiderstandsmoment Wy              13,36   cm3\P\PFläche A                 12,79  cm2\P\PGewicht G               3,45    kg/m\P\P
 73
     1
 44
1.0
1001
ACAD
1000
MTEXTBEGIN
1070
    73
1070
     1
1070
    44
1040
1.0
1070
    74
1070
     0
1000
MTEXTEND
  0
DIMENSION
  5
2ED3
330
2EBB
100
AcDbEntity
  8
Dimension1_Bemaßung1
100
AcDbDimension
  2
*D20
 10
19.99997223746811
 20
49.00569560156009
 30
0.0
 11
0.2731660990215232
 21
49.00569560156009
 31
0.0
 70
   128
 71
     5
 42
39.99999999999995
  3
PALETTI
100
AcDbAlignedDimension
 13
-20.00002776253183
 23
18.50004031522012
 33
0.0
 14
19.99997223746811
 24
18.50004031522012
 34
0.0
100
AcDbRotatedDimension
1001
ACAD
1000
DSTYLE
1002
{
1070
    47
1040
0.05
1070
    48
1040
0.05
1070
   272
1070
     2
1002
}
  0
DIMENSION
  5
2ED4
330
2EBB
100
AcDbEntity
  8
Dimension1_Bemaßung1
100
AcDbDimension
  2
*D21
 10
-41.33947241964552
 20
-19.99995968477984
 30
0.0
 11
-41.33947241964551
 21
-0.6082671562688802
 31
0.0
 70
   128
 71
     5
 42
39.99999999999996
  3
PALETTI
100
AcDbAlignedDimension
 13
-18.50002776253183
 23
20.00004031522012
 33
0.0
 14
-18.50002776253183
 24
-19.99995968477984
 34
0.0
 50
90.0
100
AcDbRotatedDimension
1001
ACAD
1000
DSTYLE
1002
{
1070
    47
1040
0.05
1070
    48
1040
0.05
1070
   272
1070
     2
1002
}
  0
ENDBLK
  5
2ED7
330
2EBB
100
AcDbEntity
  8
0
100
AcDbBlockEnd
  0
BLOCK
  5
2EEB
330
2EE1
100
AcDbEntity
  8
0
100
AcDbBlockBegin
  2
*D23
 70
     1
 10
0.0
 20
0.0
 30
0.0
  3
*D23
  1

  0
LINE
  5
2EE2
330
2EE1
100
AcDbEntity
  8
Dimension1_Bemaßung1
370
    -2
100
AcDbLine
 10
-12.49995598846816
 20
23.99998114427265
 30
0.0
 11
-12.49995598846816
 21
57.57643504206851
 31
0.0
  0
LINE
  5
2EE3
330
2EE1
100
AcDbEntity
  8
Dimension1_Bemaßung1
370
    -2
100
AcDbLine
 10
12.50004401153184
 20
23.99998114427265
 30
0.0
 11
12.50004401153184
 21
57.57643504206851
 31
0.0
  0
LINE
  5
2EE4
330
2EE1
100
AcDbEntity
  8
Dimension1_Bemaßung1
370
    -2
100
AcDbLine
 10
-10.49995598846816
 20
56.07643504206851
 30
0.0
 11
10.50004401153184
 21
56.07643504206851
 31
0.0
  0
SOLID
  5
2EE5
330
2EE1
100
AcDbEntity
  8
Dimension1_Bemaßung1
100
AcDbTrace
 10
-10.49995598846816
 20
56.40976837540184
 30
0.0
 11
-10.49995598846816
 21
55.74310170873517
 31
0.0
 12
-12.49995598846816
 22
56.07643504206851
 32
0.0
 13
-12.49995598846816
 23
56.07643504206851
 33
0.0
  0
SOLID
  5
2EE6
330
2EE1
100
AcDbEntity
  8
Dimension1_Bemaßung1
100
AcDbTrace
 10
10.50004401153184
 20
56.40976837540184
 30
0.0
 11
10.50004401153184
 21
55.74310170873517
 31
0.0
 12
12.50004401153184
 22
56.07643504206851
 32
0.0
 13
12.50004401153184
 23
56.07643504206851
 33
0.0
  0
MTEXT
  5
2EE7
330
2EE1
100
AcDbEntity
  8
Dimension1_Bemaßung1
100
AcDbMText
 10
1.156745414255283
 20
58.22677953025749
 30
0.0
 40
3.5
 41
0.0
 71
     5
 72
     1
  1
\A2;25
 73
     1
 44
1.0
1001
ACAD
1000
MTEXTBEGIN
1070
    73
1070
     1
1070
    44
1040
1.0
1070
    74
1070
     0
1000
MTEXTEND
  0
POINT
  5
2EE8
330
2EE1
100
AcDbEntity
  8
Defpoints
 62
     0
100
AcDbPoint
 10
-12.49995598846816
 20
23.99998114427265
 30
0.0
  0
POINT
  5
2EE9
330
2EE1
100
AcDbEntity
  8
Defpoints
 62
     0
100
AcDbPoint
 10
12.50004401153184
 20
23.99998114427265
 30
0.0
  0
POINT
  5
2EEA
330
2EE1
100
AcDbEntity
  8
Defpoints
 62
     0
100
AcDbPoint
 10
12.50004401153184
 20
56.07643504206851
 30
0.0
  0
ENDBLK
  5
2EEC
330
2EE1
100
AcDbEntity
  8
0
100
AcDbBlockEnd
  0
BLOCK
  5
2EF8
330
2EEE
100
AcDbEntity
  8
0
100
AcDbBlockBegin
  2
*D24
 70
     1
 10
0.0
 20
0.0
 30
0.0
  3
*D24
  1

  0
LINE
  5
2F21
330
2EEE
100
AcDbEntity
  8
Dimension1_Bemaßung1
370
    -2
100
AcDbLine
 10
-11.49995598846816
 20
24.99998114427266
 30
0.0
 11
-42.5467397162058
 21
24.99998114427266
 31
0.0
  0
LINE
  5
2F22
330
2EEE
100
AcDbEntity
  8
Dimension1_Bemaßung1
370
    -2
100
AcDbLine
 10
-11.49995598846816
 20
-25.00001885572736
 30
0.0
 11
-42.54673971620582
 21
-25.00001885572735
 31
0.0
  0
LINE
  5
2F23
330
2EEE
100
AcDbEntity
  8
Dimension1_Bemaßung1
370
    -2
100
AcDbLine
 10
-41.0467397162058
 20
22.99998114427266
 30
0.0
 11
-41.04673971620582
 21
-23.00001885572735
 31
0.0
  0
SOLID
  5
2F24
330
2EEE
100
AcDbEntity
  8
Dimension1_Bemaßung1
100
AcDbTrace
 10
-41.38007304953914
 20
22.99998114427266
 30
0.0
 11
-40.71340638287247
 21
22.99998114427266
 31
0.0
 12
-41.0467397162058
 22
24.99998114427266
 32
0.0
 13
-41.0467397162058
 23
24.99998114427266
 33
0.0
  0
SOLID
  5
2F25
330
2EEE
100
AcDbEntity
  8
Dimension1_Bemaßung1
100
AcDbTrace
 10
-41.38007304953915
 20
-23.00001885572735
 30
0.0
 11
-40.71340638287249
 21
-23.00001885572735
 31
0.0
 12
-41.04673971620582
 22
-25.00001885572735
 32
0.0
 13
-41.04673971620582
 23
-25.00001885572735
 33
0.0
  0
MTEXT
  5
2F26
330
2EEE
100
AcDbEntity
  8
Dimension1_Bemaßung1
100
AcDbMText
 10
-43.19673971620581
 20
1.882459144974177
 30
0.0
 40
3.5
 41
0.0
 71
     5
 72
     1
  1
\A2;50
 11
0.0000000000000001
 21
1.0
 31
0.0
 73
     1
 44
1.0
1001
ACAD
1000
MTEXTBEGIN
1070
    73
1070
     1
1070
    44
1040
1.0
1070
    74
1070
     0
1000
MTEXTEND
  0
POINT
  5
2F27
330
2EEE
100
AcDbEntity
  8
Defpoints
 62
     0
100
AcDbPoint
 10
-11.49995598846816
 20
24.99998114427266
 30
0.0
  0
POINT
  5
2F28
330
2EEE
100
AcDbEntity
  8
Defpoints
 62
     0
100
AcDbPoint
 10
-11.49995598846816
 20
-25.00001885572736
 30
0.0
  0
POINT
  5
2F29
330
2EEE
100
AcDbEntity
  8
Defpoints
 62
     0
100
AcDbPoint
 10
-41.04673971620582
 20
-25.00001885572735
 30
0.0
  0
ENDBLK
  5
2EF9
330
2EEE
100
AcDbEntity
  8
0
100
AcDbBlockEnd
  0
BLOCK
  5
2F05
330
2EFB
100
AcDbEntity
  8
0
100
AcDbBlockBegin
  2
*D25
 70
     1
 10
0.0
 20
0.0
 30
0.0
  3
*D25
  1

  0
LINE
  5
2EFC
330
2EFB
100
AcDbEntity
  8
Dimension2_Bemaßung2
370
    -2
100
AcDbLine
 10
-7.499955988468162
 20
18.49998114427264
 30
0.0
 11
-7.49995598846816
 21
50.88793812692734
 31
0.0
  0
LINE
  5
2EFD
330
2EFB
100
AcDbEntity
  8
Dimension2_Bemaßung2
370
    -2
100
AcDbLine
 10
7.50004401153184
 20
18.49998114427264
 30
0.0
 11
7.500044011531842
 21
50.88793812692734
 31
0.0
  0
LINE
  5
2EFE
330
2EFB
100
AcDbEntity
  8
Dimension2_Bemaßung2
370
    -2
100
AcDbLine
 10
-5.49995598846816
 20
49.38793812692733
 30
0.0
 11
5.500044011531842
 21
49.38793812692733
 31
0.0
  0
SOLID
  5
2EFF
330
2EFB
100
AcDbEntity
  8
Dimension2_Bemaßung2
100
AcDbTrace
 10
-5.49995598846816
 20
49.72127146026068
 30
0.0
 11
-5.49995598846816
 21
49.054604793594
 31
0.0
 12
-7.49995598846816
 22
49.38793812692733
 32
0.0
 13
-7.49995598846816
 23
49.38793812692733
 33
0.0
  0
SOLID
  5
2F00
330
2EFB
100
AcDbEntity
  8
Dimension2_Bemaßung2
100
AcDbTrace
 10
5.500044011531842
 20
49.72127146026068
 30
0.0
 11
5.500044011531842
 21
49.054604793594
 31
0.0
 12
7.500044011531842
 22
49.38793812692733
 32
0.0
 13
7.500044011531842
 23
49.38793812692733
 33
0.0
  0
MTEXT
  5
2F01
330
2EFB
100
AcDbEntity
  8
Dimension2_Bemaßung2
100
AcDbMText
 10
1.3283051574831
 20
51.53793812692733
 30
0.0
 40
3.5
 41
0.0
 71
     5
 72
     1
  1
\A2;15
 73
     1
 44
1.0
1001
ACAD
1000
MTEXTBEGIN
1070
    73
1070
     1
1070
    44
1040
1.0
1070
    74
1070
     0
1000
MTEXTEND
  0
POINT
  5
2F02
330
2EFB
100
AcDbEntity
  8
Defpoints
 62
     0
100
AcDbPoint
 10
-7.499955988468162
 20
18.49998114427264
 30
0.0
  0
POINT
  5
2F03
330
2EFB
100
AcDbEntity
  8
Defpoints
 62
     0
100
AcDbPoint
 10
7.50004401153184
 20
18.49998114427264
 30
0.0
  0
POINT
  5
2F04
330
2EFB
100
AcDbEntity
  8
Defpoints
 62
     0
100
AcDbPoint
 10
7.500044011531842
 20
49.38793812692733
 30
0.0
  0
ENDBLK
  5
2F06
330
2EFB
100
AcDbEntity
  8
0
100
AcDbBlockEnd
  0
BLOCK
  5
2F12
330
2F08
100
AcDbEntity
  8
0
100
AcDbBlockBegin
  2
*D26
 70
     1
 10
0.0
 20
0.0
 30
0.0
  3
*D26
  1

  0
LINE
  5
2F2A
330
2F08
100
AcDbEntity
  8
Dimension2_Bemaßung2
370
    -2
100
AcDbLine
 10
-5.999955988468162
 20
19.99998114427264
 30
0.0
 11
-34.48347215170679
 21
19.99998114427265
 31
0.0
  0
LINE
  5
2F2B
330
2F08
100
AcDbEntity
  8
Dimension2_Bemaßung2
370
    -2
100
AcDbLine
 10
-5.999955988468164
 20
-20.00001885572736
 30
0.0
 11
-34.4834721517068
 21
-20.00001885572735
 31
0.0
  0
LINE
  5
2F2C
330
2F08
100
AcDbEntity
  8
Dimension2_Bemaßung2
370
    -2
100
AcDbLine
 10
-32.98347215170679
 20
17.99998114427265
 30
0.0
 11
-32.9834721517068
 21
-18.00001885572735
 31
0.0
  0
SOLID
  5
2F2D
330
2F08
100
AcDbEntity
  8
Dimension2_Bemaßung2
100
AcDbTrace
 10
-33.31680548504012
 20
17.99998114427265
 30
0.0
 11
-32.65013881837345
 21
17.99998114427265
 31
0.0
 12
-32.98347215170679
 22
19.99998114427265
 32
0.0
 13
-32.98347215170679
 23
19.99998114427265
 33
0.0
  0
SOLID
  5
2F2E
330
2F08
100
AcDbEntity
  8
Dimension2_Bemaßung2
100
AcDbTrace
 10
-33.31680548504014
 20
-18.00001885572735
 30
0.0
 11
-32.65013881837346
 21
-18.00001885572735
 31
0.0
 12
-32.9834721517068
 22
-20.00001885572735
 32
0.0
 13
-32.9834721517068
 23
-20.00001885572735
 33
0.0
  0
MTEXT
  5
2F2F
330
2F08
100
AcDbEntity
  8
Dimension2_Bemaßung2
100
AcDbMText
 10
-35.13347215170679
 20
0.8534596731095691
 30
0.0
 40
3.5
 41
0.0
 71
     5
 72
     1
  1
\A2;40
 11
0.0000000000000001
 21
1.0
 31
0.0
 73
     1
 44
1.0
1001
ACAD
1000
MTEXTBEGIN
1070
    73
1070
     1
1070
    44
1040
1.0
1070
    74
1070
     0
1000
MTEXTEND
  0
POINT
  5
2F30
330
2F08
100
AcDbEntity
  8
Defpoints
 62
     0
100
AcDbPoint
 10
-5.999955988468162
 20
19.99998114427264
 30
0.0
  0
POINT
  5
2F31
330
2F08
100
AcDbEntity
  8
Defpoints
 62
     0
100
AcDbPoint
 10
-5.999955988468164
 20
-20.00001885572736
 30
0.0
  0
POINT
  5
2F32
330
2F08
100
AcDbEntity
  8
Defpoints
 62
     0
100
AcDbPoint
 10
-32.9834721517068
 20
-20.00001885572735
 30
0.0
  0
ENDBLK
  5
2F13
330
2F08
100
AcDbEntity
  8
0
100
AcDbBlockEnd
  0
BLOCK
  5
2F1F
330
2F15
100
AcDbEntity
  8
0
100
AcDbBlockBegin
  2
*D27
 70
     1
 10
0.0
 20
0.0
 30
0.0
  3
*D27
  1

  0
LINE
  5
2F16
330
2F15
100
AcDbEntity
  8
Dimension2_Bemaßung2
370
    -2
100
AcDbLine
 10
-5.999955989633428
 20
2.499981139999996
 30
0.0
 11
-22.13123253569017
 21
2.49998114
 31
0.0
  0
LINE
  5
2F17
330
2F15
100
AcDbEntity
  8
Dimension2_Bemaßung2
370
    -2
100
AcDbLine
 10
-5.999955987302897
 20
-2.500018859999996
 30
0.0
 11
-22.13123253569017
 21
-2.500018859999992
 31
0.0
  0
LINE
  5
2F18
330
2F15
100
AcDbEntity
  8
Dimension2_Bemaßung2
370
    -2
100
AcDbLine
 10
-20.63123253569017
 20
0.4999811400000003
 30
0.0
 11
-20.63123253569017
 21
-0.5000188599999928
 31
0.0
  0
SOLID
  5
2F19
330
2F15
100
AcDbEntity
  8
Dimension2_Bemaßung2
100
AcDbTrace
 10
-20.96456586902351
 20
0.4999811400000003
 30
0.0
 11
-20.29789920235684
 21
0.4999811400000002
 31
0.0
 12
-20.63123253569017
 22
2.49998114
 32
0.0
 13
-20.63123253569017
 23
2.49998114
 33
0.0
  0
SOLID
  5
2F1A
330
2F15
100
AcDbEntity
  8
Dimension2_Bemaßung2
100
AcDbTrace
 10
-20.96456586902351
 20
-0.5000188599999927
 30
0.0
 11
-20.29789920235684
 21
-0.5000188599999928
 31
0.0
 12
-20.63123253569017
 22
-2.500018859999992
 32
0.0
 13
-20.63123253569017
 23
-2.500018859999992
 33
0.0
  0
MTEXT
  5
2F1B
330
2F15
100
AcDbEntity
  8
Dimension2_Bemaßung2
100
AcDbMText
 10
-22.78123253569017
 20
1.196459265050521
 30
0.0
 40
3.5
 41
0.0
 71
     5
 72
     1
  1
\A2;5
 11
0.0000000000000001
 21
1.0
 31
0.0
 73
     1
 44
1.0
1001
ACAD
1000
MTEXTBEGIN
1070
    73
1070
     1
1070
    44
1040
1.0
1070
    74
1070
     0
1000
MTEXTEND
  0
POINT
  5
2F1C
330
2F15
100
AcDbEntity
  8
Defpoints
 62
     0
100
AcDbPoint
 10
-5.999955989633428
 20
2.499981139999996
 30
0.0
  0
POINT
  5
2F1D
330
2F15
100
AcDbEntity
  8
Defpoints
 62
     0
100
AcDbPoint
 10
-5.999955987302897
 20
-2.500018859999996
 30
0.0
  0
POINT
  5
2F1E
330
2F15
100
AcDbEntity
  8
Defpoints
 62
     0
100
AcDbPoint
 10
-20.63123253569017
 20
-2.500018859999992
 30
0.0
  0
ENDBLK
  5
2F20
330
2F15
100
AcDbEntity
  8
0
100
AcDbBlockEnd
  0
BLOCK
  5
2F3E
330
2F34
100
AcDbEntity
  8
0
100
AcDbBlockBegin
  2
*D28
 70
     1
 10
0.0
 20
0.0
 30
0.0
  3
*D28
  1

  0
LINE
  5
2F35
330
2F34
100
AcDbEntity
  8
Dimension2_Bemaßung2
370
    -2
100
AcDbLine
 10
-11.99995598846816
 20
12.49998114427265
 30
0.0
 11
-27.580393654764
 21
12.49998114427266
 31
0.0
  0
LINE
  5
2F36
330
2F34
100
AcDbEntity
  8
Dimension2_Bemaßung2
370
    -2
100
AcDbLine
 10
-11.99995598846816
 20
-12.50001885572736
 30
0.0
 11
-27.58039365476401
 21
-12.50001885572735
 31
0.0
  0
LINE
  5
2F37
330
2F34
100
AcDbEntity
  8
Dimension2_Bemaßung2
370
    -2
100
AcDbLine
 10
-26.080393654764
 20
10.49998114427265
 30
0.0
 11
-26.08039365476401
 21
-10.50001885572735
 31
0.0
  0
SOLID
  5
2F38
330
2F34
100
AcDbEntity
  8
Dimension2_Bemaßung2
100
AcDbTrace
 10
-26.41372698809734
 20
10.49998114427265
 30
0.0
 11
-25.74706032143067
 21
10.49998114427265
 31
0.0
 12
-26.080393654764
 22
12.49998114427265
 32
0.0
 13
-26.080393654764
 23
12.49998114427265
 33
0.0
  0
SOLID
  5
2F39
330
2F34
100
AcDbEntity
  8
Dimension2_Bemaßung2
100
AcDbTrace
 10
-26.41372698809734
 20
-10.50001885572735
 30
0.0
 11
-25.74706032143068
 21
-10.50001885572735
 31
0.0
 12
-26.08039365476401
 22
-12.50001885572736
 32
0.0
 13
-26.08039365476401
 23
-12.50001885572736
 33
0.0
  0
MTEXT
  5
2F3A
330
2F34
100
AcDbEntity
  8
Dimension2_Bemaßung2
100
AcDbMText
 10
-28.23073814295298
 20
1.580418810568576
 30
0.0
 40
3.5
 41
0.0
 71
     5
 72
     1
  1
\A2;25
 11
0.0000000000000001
 21
1.0
 31
0.0
 73
     1
 44
1.0
1001
ACAD
1000
MTEXTBEGIN
1070
    73
1070
     1
1070
    44
1040
1.0
1070
    74
1070
     0
1000
MTEXTEND
  0
POINT
  5
2F3B
330
2F34
100
AcDbEntity
  8
Defpoints
 62
     0
100
AcDbPoint
 10
-11.99995598846816
 20
12.49998114427265
 30
0.0
  0
POINT
  5
2F3C
330
2F34
100
AcDbEntity
  8
Defpoints
 62
     0
100
AcDbPoint
 10
-11.99995598846816
 20
-12.50001885572736
 30
0.0
  0
POINT
  5
2F3D
330
2F34
100
AcDbEntity
  8
Defpoints
 62
     0
100
AcDbPoint
 10
-26.08039365476401
 20
-12.50001885572736
 30
0.0
  0
ENDBLK
  5
2F3F
330
2F34
100
AcDbEntity
  8
0
100
AcDbBlockEnd
  0
BLOCK
  5
2F4D
330
2F41
100
AcDbEntity
  8
0
100
AcDbBlockBegin
  2
*D29
 70
     1
 10
0.0
 20
0.0
 30
0.0
  3
*D29
  1

  0
LINE
  5
2F83
330
2F41
100
AcDbEntity
  8
Dimension2_Bemaßung2
370
    -2
100
AcDbLine
 10
-11.49995598846816
 20
24.99998114427266
 30
0.0
 11
-11.49995598846816
 21
35.79594494485685
 31
0.0
  0
LINE
  5
2F84
330
2F41
100
AcDbEntity
  8
Dimension2_Bemaßung2
370
    -2
100
AcDbLine
 10
-12.49995598846816
 20
23.99998114427265
 30
0.0
 11
-12.49995598846816
 21
35.79594494485685
 31
0.0
  0
LINE
  5
2F85
330
2F41
100
AcDbEntity
  8
Dimension2_Bemaßung2
370
    -2
100
AcDbLine
 10
-9.499955988468162
 20
34.29594494485684
 30
0.0
 11
-7.499955988468162
 21
34.29594494485684
 31
0.0
  0
LINE
  5
2F86
330
2F41
100
AcDbEntity
  8
Dimension2_Bemaßung2
370
    -2
100
AcDbLine
 10
-14.49995598846816
 20
34.29594494485684
 30
0.0
 11
-27.79995598846817
 21
34.29594494485684
 31
0.0
  0
LINE
  5
2F87
330
2F41
100
AcDbEntity
  8
Dimension2_Bemaßung2
370
    -2
100
AcDbLine
 10
-11.49995598846816
 20
34.29594494485684
 30
0.0
 11
-12.49995598846816
 21
34.29594494485684
 31
0.0
  0
SOLID
  5
2F88
330
2F41
100
AcDbEntity
  8
Dimension2_Bemaßung2
100
AcDbTrace
 10
-9.499955988468162
 20
34.62927827819018
 30
0.0
 11
-9.499955988468162
 21
33.96261161152351
 31
0.0
 12
-11.49995598846816
 22
34.29594494485684
 32
0.0
 13
-11.49995598846816
 23
34.29594494485684
 33
0.0
  0
SOLID
  5
2F89
330
2F41
100
AcDbEntity
  8
Dimension2_Bemaßung2
100
AcDbTrace
 10
-14.49995598846816
 20
34.62927827819018
 30
0.0
 11
-14.49995598846816
 21
33.96261161152351
 31
0.0
 12
-12.49995598846816
 22
34.29594494485684
 32
0.0
 13
-12.49995598846816
 23
34.29594494485684
 33
0.0
  0
MTEXT
  5
2F8A
330
2F41
100
AcDbEntity
  8
Dimension2_Bemaßung2
100
AcDbMText
 10
-22.14995598846817
 20
36.44594494485684
 30
0.0
 40
3.5
 41
0.0
 71
     5
 72
     1
  1
\A2;1x45°
 73
     1
 44
1.0
1001
ACAD
1000
MTEXTBEGIN
1070
    73
1070
     1
1070
    44
1040
1.0
1070
    74
1070
     0
1000
MTEXTEND
  0
POINT
  5
2F8B
330
2F41
100
AcDbEntity
  8
Defpoints
 62
     0
100
AcDbPoint
 10
-11.49995598846816
 20
24.99998114427266
 30
0.0
  0
POINT
  5
2F8C
330
2F41
100
AcDbEntity
  8
Defpoints
 62
     0
100
AcDbPoint
 10
-12.49995598846816
 20
23.99998114427265
 30
0.0
  0
POINT
  5
2F8D
330
2F41
100
AcDbEntity
  8
Defpoints
 62
     0
100
AcDbPoint
 10
-12.49995598846816
 20
34.29594494485684
 30
0.0
  0
ENDBLK
  5
2F4E
330
2F41
100
AcDbEntity
  8
0
100
AcDbBlockEnd
  0
BLOCK
  5
2F67
330
2F5B
100
AcDbEntity
  8
0
100
AcDbBlockBegin
  2
*D30
 70
     1
 10
0.0
 20
0.0
 30
0.0
  3
*D30
  1

  0
LINE
  5
2F75
330
2F5B
100
AcDbEntity
  8
Dimension2_Bemaßung2
370
    -2
100
AcDbLine
 10
12.50004401153184
 20
11.99998114427265
 30
0.0
 11
22.01812841620684
 21
2.48189679791828
 31
0.0
  0
LINE
  5
2F76
330
2F5B
100
AcDbEntity
  8
Dimension2_Bemaßung2
370
    -2
100
AcDbLine
 10
12.50004400845618
 20
12.99998114426067
 30
0.0
 11
22.01812838551471
 21
22.51806552131916
 31
0.0
  0
ARC
  5
2F77
330
2F5B
100
AcDbEntity
  8
Dimension2_Bemaßung2
370
    -2
100
AcDbCircle
 10
12.00004400846817
 20
12.49998114427265
 30
0.0
 40
12.66771079501721
100
AcDbArc
 50
296.8892441270887
 51
305.9446221513121
  0
ARC
  5
2F78
330
2F5B
100
AcDbEntity
  8
Dimension2_Bemaßung2
370
    -2
100
AcDbCircle
 10
12.00004400846817
 20
12.49998114427265
 30
0.0
 40
12.66771079501721
100
AcDbArc
 50
54.05537802422335
 51
63.11075604844682
  0
ARC
  5
2F79
330
2F5B
100
AcDbEntity
  8
Dimension2_Bemaßung2
370
    -2
100
AcDbCircle
 10
12.00004400846817
 20
12.49998114427265
 30
0.0
 40
12.66771079501721
100
AcDbArc
 50
315.0000001755356
 51
44.99999999999987
  0
SOLID
  5
2F7A
330
2F5B
100
AcDbEntity
  8
Dimension2_Bemaßung2
100
AcDbTrace
 10
19.21966861539397
 20
2.497969214396257
 30
0.0
 11
19.65238894718303
 21
1.990822727766589
 31
0.0
 12
20.9574682411775
 22
3.542556966448584
 32
0.0
 13
20.9574682411775
 23
3.542556966448584
 33
0.0
  0
SOLID
  5
2F7B
330
2F5B
100
AcDbEntity
  8
Dimension2_Bemaßung2
100
AcDbTrace
 10
19.65238891498641
 20
23.009139584223
 30
0.0
 11
19.21966858475108
 21
22.50199309626761
 31
0.0
 12
20.95746821373489
 22
21.45740534953934
 32
0.0
 13
20.95746821373489
 23
21.45740534953934
 33
0.0
  0
MTEXT
  5
2F7C
330
2F5B
100
AcDbEntity
  8
Dimension2_Bemaßung2
100
AcDbMText
 10
26.96113603699141
 20
14.39166899807204
 30
0.0
 40
3.5
 41
0.0
 71
     5
 72
     1
  1
\A2;0,5x90°
 11
0.125441738150268
 21
-0.9921009879693899
 31
0.0
 73
     1
 44
1.0
1001
ACAD
1000
MTEXTBEGIN
1070
    73
1070
     1
1070
    44
1040
1.0
1070
    74
1070
     0
1000
MTEXTEND
  0
POINT
  5
2F7D
330
2F5B
100
AcDbEntity
  8
Defpoints
 62
     0
100
AcDbPoint
 10
24.23611303203259
 20
9.22133635766295
 30
0.0
  0
POINT
  5
2F7E
330
2F5B
100
AcDbEntity
  8
Defpoints
 62
     0
100
AcDbPoint
 10
12.00004400846817
 20
12.49998114427265
 30
0.0
  0
POINT
  5
2F7F
330
2F5B
100
AcDbEntity
  8
Defpoints
 62
     0
100
AcDbPoint
 10
12.00004400846817
 20
12.49998114427265
 30
0.0
  0
POINT
  5
2F80
330
2F5B
100
AcDbEntity
  8
Defpoints
 62
     0
100
AcDbPoint
 10
12.50004401153184
 20
11.99998114427265
 30
0.0
  0
POINT
  5
2F81
330
2F5B
100
AcDbEntity
  8
Defpoints
 62
     0
100
AcDbPoint
 10
12.50004400845618
 20
12.99998114426067
 30
0.0
  0
ENDBLK
  5
2F68
330
2F5B
100
AcDbEntity
  8
0
100
AcDbBlockEnd
  0
BLOCK
  5
2F96
330
2F8F
100
AcDbEntity
  8
0
100
AcDbBlockBegin
  2
*D31
 70
     1
 10
0.0
 20
0.0
 30
0.0
  3
*D31
  1

  0
LINE
  5
2F90
330
2F8F
100
AcDbEntity
  8
Dimension2_Bemaßung2
370
    -2
100
AcDbLine
 10
20.76598631312041
 20
-25.30326794467585
 30
0.0
 11
9.178867823995872
 21
-19.96462773502299
 31
0.0
  0
MTEXT
  5
2F91
330
2F8F
100
AcDbEntity
  8
Dimension2_Bemaßung2
100
AcDbMText
 10
18.05772106545196
 20
-21.68823609416399
 30
0.0
 40
3.5
 41
0.0
 71
     5
 72
     1
  1
\A2;R1.5
 11
0.9082353749897238
 21
-0.4184596797987541
 31
0.0
 73
     1
 44
1.0
1001
ACAD
1000
MTEXTBEGIN
1070
    73
1070
     1
1070
    44
1040
1.0
1070
    74
1070
     0
1000
MTEXTEND
  0
LINE
  5
2F92
330
2F8F
100
AcDbEntity
  8
Dimension2_Bemaßung2
370
    -2
100
AcDbLine
 10
6.000044011531852
 20
-18.50001885572735
 30
0.0
 11
7.362397074016426
 21
-19.12770837542548
 31
0.0
  0
SOLID
  5
2F93
330
2F8F
100
AcDbEntity
  8
Dimension2_Bemaßung2
100
AcDbTrace
 10
9.318354383928792
 20
-19.66188261002642
 30
0.0
 11
9.039381264062953
 21
-20.26737286001957
 31
0.0
 12
7.362397074016426
 22
-19.12770837542548
 32
0.0
 13
7.362397074016426
 23
-19.12770837542548
 33
0.0
  0
POINT
  5
2F94
330
2F8F
100
AcDbEntity
  8
Defpoints
 62
     0
100
AcDbPoint
 10
7.362397074016426
 20
-19.12770837542548
 30
0.0
  0
POINT
  5
2F95
330
2F8F
100
AcDbEntity
  8
Defpoints
 62
     0
100
AcDbPoint
 10
6.000044011531852
 20
-18.50001885572735
 30
0.0
  0
ENDBLK
  5
2F97
330
2F8F
100
AcDbEntity
  8
0
100
AcDbBlockEnd
  0
ENDSEC
  0
SECTION
  2
ENTITIES
  0
POINT
  5
1286
330
1A
100
AcDbEntity
  8
0
 60
     1
100
AcDbPoint
 10
0.0
 20
0.0
 30
0.0
1001
GENIUS_GENODEF_13
1002
{
1000
HIER
1070
     1
1002
}
1002
{
1000
MANEDIT
1070
     0
1002
}
1002
{
1000
NOSEL
1070
     0
1002
}
1002
{
1000
BEHIND
1070
     0
1002
}
1002
{
1000
REACTOR
1002
}
1001
GENIUS_GENOBJ-N-SDF_13
1002
{
1000
OWNER
1000
GEN
1002
}
1001
GENIUS_GENOENT_13
1002
{
1000
MYREF
1005
1286
1002
}
1002
{
1000
GRP
1005
0
1002
}
1001
GENIUS_GENOLIS_13
1002
{
1000
ENT
1005
22
1002
}
  0
MTEXT
  5
17A8
330
1A
100
AcDbEntity
  8
Center of gravity_Schwerpunkt
100
AcDbMText
 10
0.5146575865257637
 20
39.8053864373491
 30
0.0
 40
5.0
 41
4.7548678290587
 71
     1
 72
     5
  1
{\C7;Y}
 73
     1
 44
1.0
1001
ACAD
1000
MTEXTBEGIN
1070
    73
1070
     1
1070
    44
1040
1.0
1070
    74
1070
     0
1000
MTEXTEND
  0
MTEXT
  5
17A9
330
1A
100
AcDbEntity
  8
Center of gravity_Schwerpunkt
100
AcDbMText
 10
20.0
 20
0.0
 30
0.0
 40
5.0
 41
28.08938713238758
 71
     1
 72
     5
  1
{\C7;X}
 73
     1
 44
1.0
1001
ACAD
1000
MTEXTBEGIN
1070
    73
1070
     1
1070
    44
1040
1.0
1070
    74
1070
     0
1000
MTEXTEND
  0
LINE
  5
1A73
330
1A
100
AcDbEntity
  8
Center of gravity_Schwerpunkt
100
AcDbLine
 10
-15.08757448550136
 20
-0.0000440099999999
 30
0.0
 11
14.66383208922048
 21
-0.0000440099999999
 31
0.0
  0
LINE
  5
1A74
330
1A
100
AcDbEntity
  8
Center of gravity_Schwerpunkt
100
AcDbLine
 10
-0.0000188557273584
 20
27.56477093056867
 30
0.0
 11
-0.0000188557273584
 21
-28.17270452234345
 31
0.0
  0
INSERT
  5
1AA6
330
1A
100
AcDbEntity
  8
ASHADE
 62
     1
100
AcDbBlockReference
  2
AVE_RENDER
 10
0.0
 20
0.0
 30
0.0
1001
AVE_RENDER
1002
{
1070
     7
1000
Pref
1070
    30
1070
    20
1070
     1
1070
     0
1000

1070
    10
1070
     1
1070
    10
1040
1.0
1070
     1
1040
0.7
1040
1.0
1040
0.0
1040
10.0
1010
-1.0
1020
-1.0
1030
-1.0
1040
0.3
1070
    49
1070
     0
1070
     0
1010
1.0
1020
1.0
1030
1.0
1040
45.0
1070
     1
1070
     0
1000
WCS
1040
0.0
1070
     0
1040
10.0
1002
}
  0
INSERT
  5
1AA7
330
1A
100
AcDbEntity
  8
ASHADE
 62
     3
100
AcDbBlockReference
  2
AVE_RENDER
 10
0.0
 20
0.0
 30
0.0
1001
AVE_RENDER
1002
{
1070
     0
1000
Full Opt
1070
     0
1070
     1
1070
     1
1070
     1
1070
     0
1070
     0
1070
     0
1070
     1
1070
     1
1040
0.0001
1040
0.0001
1002
}
  0
INSERT
  5
1AA8
330
1A
100
AcDbEntity
  8
ASHADE
 62
     4
100
AcDbBlockReference
  2
AVE_RENDER
 10
0.0
 20
0.0
 30
0.0
1001
AVE_RENDER
1002
{
1070
     0
1000
Quick Opt
1070
     0
1070
     1
1070
     1
1070
     1
1070
     0
1070
     0
1070
     1
1002
}
  0
INSERT
  5
1AA9
330
1A
100
AcDbEntity
  8
ASHADE
 62
     5
100
AcDbBlockReference
  2
AVE_RENDER
 10
0.0
 20
0.0
 30
0.0
1001
AVE_RENDER
1002
{
1070
     1
1000
Scanl Opt
1070
     2
1070
     0
1070
     2
1040
2.0
1040
4.0
1070
     0
1070
     1
1070
     0
1040
0.03
1002
}
  0
INSERT
  5
1AAA
330
1A
100
AcDbEntity
  8
ASHADE
 62
     6
100
AcDbBlockReference
  2
AVE_RENDER
 10
0.0
 20
0.0
 30
0.0
1001
AVE_RENDER
1002
{
1070
     2
1000
Raytr Opt
1070
     2
1070
     0
1070
     2
1040
2.0
1040
4.0
1070
     0
1070
     1
1070
     1
1040
0.03
1070
     3
1040
0.03
1002
}
  0
INSERT
  5
1AAB
330
1A
100
AcDbEntity
  8
ASHADE
 62
     7
100
AcDbBlockReference
  2
AVE_RENDER
 10
0.0
 20
0.0
 30
0.0
1001
AVE_RENDER
1002
{
1070
     0
1000
RFile Opt
1070
     1
1070
   640
1070
   480
1070
 10000
1070
     1
1070
     8
1070
     8
1070
     0
1070
     0
1070
     0
1070
     0
1070
     0
1070
     0
1070
     0
1002
}
  0
INSERT
  5
1AAC
330
1A
100
AcDbEntity
  8
ASHADE
 62
     8
100
AcDbBlockReference
  2
AVE_RENDER
 10
0.0
 20
0.0
 30
0.0
1001
AVE_RENDER
1002
{
1070
     0
1000
Fog Opt
1070
     0
1070
     0
1040
0.0
1040
1.0
1040
0.0
1040
1.0
1010
0.5
1020
0.5
1030
0.5
1002
}
  0
INSERT
  5
1AAD
330
1A
100
AcDbEntity
  8
ASHADE
 62
     9
100
AcDbBlockReference
  2
AVE_RENDER
 10
0.0
 20
0.0
 30
0.0
1001
AVE_RENDER
1002
{
1070
     0
1000
BG Opt
1070
     0
1070
     1
1010
0.0
1020
0.0
1030
0.0
1010
1.0
1020
0.0
1030
0.0
1010
0.0
1020
1.0
1030
0.0
1010
0.0
1020
0.0
1030
1.0
1040
0.5
1040
0.33
1040
0.0
1000

1070
     1
1000

1070
     1
1070
     1
1040
1.0
1040
1.0
1040
0.0
1040
0.0
1070
     0
1002
}
  0
INSERT
  5
1AB4
330
1A
100
AcDbEntity
  8
ASHADE
 62
     1
100
AcDbBlockReference
  2
AVE_GLOBAL
 10
0.0
 20
0.0
 30
0.0
1001
AVE_MATERIAL
1002
{
1000
*GLOBAL*
1000
2
1000
Globales Material.
1002
{
1002
}
1002
{
1070
    63
1002
{
1002
{
1010
-1.0
1020
-1.0
1030
-1.0
1002
}
1040
0.6999999880790711
1000

1040
0.0
1002
{
1002
}
1040
0.0
1002
{
1002
}
1040
0.0
1002
}
1002
{
1002
{
1010
-1.0
1020
-1.0
1030
-1.0
1002
}
1040
1.0
1000

1040
0.0
1002
{
1002
}
1040
0.0
1002
{
1002
}
1040
0.0
1002
}
1002
{
1002
{
1010
-1.0
1020
-1.0
1030
-1.0
1002
}
1040
0.2000000029802322
1000

1040
0.0
1002
{
1002
}
1040
0.0
1002
{
1002
}
1040
0.0
1002
}
1002
{
1070
     0
1002
{
1070
     1
1002
{
1040
1.0
1040
1.0
1000

1040
0.0
1002
{
1002
}
1040
0.0
1002
{
1002
}
1040
0.0
1002
}
1002
}
1040
1.0
1040
0.0
1040
0.0
1002
}
1002
{
1040
1.0
1040
1.0
1000

1040
0.0
1002
{
1002
}
1040
0.0
1002
{
1002
}
1040
0.0
1002
}
1002
{
1040
0.5
1040
1.0
1000

1040
0.0
1002
{
1002
}
1040
0.0
1002
{
1002
}
1040
0.0
1002
}
1002
{
1070
     0
1040
0.0
1002
{
1002
}
1040
1.0
1002
{
1002
}
1040
0.0
1002
}
1002
{
1040
0.0
1002
{
1002
{
1010
0.0
1020
0.0
1030
0.0
1002
}
1040
1.0
1000

1040
0.0
1002
{
1002
}
1040
0.0
1002
{
1002
}
1040
0.0
1002
}
1002
}
1002
{
1002
{
1070
     1
1002
{
1040
0.0
1040
1.0
1000

1040
0.0
1002
{
1002
}
1040
0.0
1002
{
1002
}
1040
0.0
1002
}
1002
}
1040
0.0
1002
{
1002
}
1010
1.0
1020
0.0
1030
0.0
1010
0.0
1020
1.0
1030
0.0
1010
0.0
1020
0.0
1030
1.0
1070
     0
1002
}
1002
{
1002
{
1040
1.0
1040
1.0
1002
{
1070
     1
1002
{
1040
1.0
1040
1.0
1000

1040
0.0
1002
{
1002
}
1040
0.0
1002
{
1002
}
1040
0.0
1002
}
1002
}
1002
}
1070
     0
1040
0.0
1002
{
1002
}
1002
}
1002
{
1002
}
1002
}
1002
{
1071
        3
1070
     3
1070
     0
1002
{
1070
     2
1070
     0
1070
     0
1040
0.0
1002
}
1070
     0
1070
     2
1002
{
1002
}
1002
}
1002
{
1040
8030.0
1040
190.3000030517578
1040
0.3050000071525574
1040
228.0
1040
545.0
1040
14.0
1040
17.39999961853027
1040
0.4560000002384186
1002
}
1002
}
  0
REGION
  5
2EDC
330
1A
100
AcDbEntity
  8
0
100
AcDbModelerGeometry
 70
     1
  1
koo mih n o         
  1
lj ^ *+0;:,4 R:<7>16<>3 [:,4+0/ mook [G nh ^ LR iqoqkqhooh QK mk K*: P<+ nf ogejiejl mook 
  1
n fqfffffffffffffffj:rooh n:rono 
  1
=0;& {n {m {rn {rn |
  1
-:9@)+r:&:r>++-6= {rn {rn {rn {o {l {k |
  1
3*2/ {j {rn {i {o |
  1
:&:@-:961:2:1+ {rn j 8-6;  n l +-6 n k ,*-9 o l >;5 o k 8->; o f /0,+<7:<4 o k ,+03 oqkkiimnmgnlfongkfm k 1+03 lo k ;,63 o g 93>+1:,, o h /6'>-:> o k 72>' o i 8-6;>- o j 28-6; looo j *8-6; o j )8-6; o no :1;@96:3;, |
  1
):-+:'@+:2/3>+: {rn l o n g |
  1
-:9@)+r:&:r>++-6= {rn {rn {rn {m {l {k |
  1
,7:33 {h {rn {rn {g {rn {m |
  1
-:9@)+r:&:r>++-6= {rn {rn {rn {i {l {k |
  1
9><: {f {rn {no {i {rn {nn 90-(>-; ;0*=3: 0*+ |
  1
92:,7r:&:r>++-6= {rn {nm {rn {g |
  1
300/ {rn {nl {nk {g |
  1
/3>1:r,*-9><: {rn kqkonnioommjhinjoj:rooj rnqggjjhmhljkiojmgm:rooj o o o n iqnmlolnhifnnnggil:ronh n o 90-(>-;@) V V V V |
  1
-:9@)+r:&:r>++-6= {rn {rn {f {g {l {k |
  1
300/ {rn {nj {ni {g |
  1
<0:;8: {rn {nh {ng {rn {nf 90-(>-; {no {rn |
  1
300/ {rn {rn {mo {g |
  1
<0:;8: {rn {mn {mm {rn {ml 90-(>-; {nl {rn |
  1
<0:;8: {rn {mk {nk {rn {mj 90-(>-; {no {rn |
  1
<0:;8: {rn {nk {mi {rn {mh 90-(>-; {no {rn |
  1
:;8: {mg {mf {lo {nk {ln 90-(>-; |
  1
<0:;8: {rn {lm {ll {rn {lk 90-(>-; {nj {rn |
  1
<0:;8: {rn {lj {ni {rn {li 90-(>-; {nl {rn |
  1
<0:;8: {rn {ni {lh {rn {lg 90-(>-; {nl {rn |
  1
:;8: {lf {ko {kn {ni {km 90-(>-; |
  1
<0:;8: {rn {kl {nh {rn {kk 90-(>-; {no {rn |
  1
:;8: {kj {lo {ki {nh {kh 90-(>-; |
  1
<0:;8: {rn {ng {kg {rn {kf 90-(>-; {no {rn |
  1
:;8: {jo {jn {mf {ng {jm 90-(>-; |
  1
/+36,+r:&:r>++-6= {rn {rn {rn {nf |
  1
):-+:' {rn {nf {jl |
  1
):-+:' {rn {nf {jk |
  1
:336/,:r<*-): {rn iqooookkonnjlnglgj rkqoooonggiflmmnlgi o o o rn fqngkjkhijliihgmfk:ronh nqj o n Y hqhigkjmjkhfohnkjl:rono Y nqjhohfilmihfkgfii |
  1
<0:;8: {rn {jj {mo {rn {ji -:):-,:; {nj {rn |
  1
<0:;8: {rn {mo {jh {rn {jg 90-(>-; {nj {rn |
  1
:;8: {jf {io {in {mo {im 90-(>-; |
  1
<0:;8: {rn {il {mn {rn {ik 90-(>-; {nl {rn |
  1
:;8: {ij {kn {ii {mn {ih 90-(>-; |
  1
<0:;8: {rn {mm {ig {rn {if 90-(>-; {nl {rn |
  1
:;8: {ho {hn {ko {mm {hm 90-(>-; |
  1
/+36,+r:&:r>++-6= {rn {rn {rn {ml |
  1
):-+:' {rn {ml {hl |
  1
):-+:' {rn {ml {hk |
  1
:336/,:r<*-): {rn iqooookkonnjlnglfk lqffffgnnloihhgjfm o o o rn fqngkjkhijliihgmfk:ronh nqj o n Y nqjhohfilmihfkgfii Y lqnknjfmijkliiilhj |
  1
<0:;8: {rn {hj {mk {rn {hi 90-(>-; {no {rn |
  1
:;8: {hh {ki {hg {mk {hf 90-(>-; |
  1
/+36,+r:&:r>++-6= {rn {rn {rn {mj |
  1
):-+:' {rn {kk {go |
  1
,+->687+r<*-): {rn hqjoookkonnjlnglgj rkqoooonggiflmmnlfj o mqlliikgljiogkmki:romo rn o Y o Y nkqkffffffgikojmng |
  1
<0:;8: {rn {mi {hj {rn {gn 90-(>-; {no {rn |
  1
:;8: {gm {gl {jn {mi {gk 90-(>-; |
  1
/+36,+r:&:r>++-6= {rn {rn {rn {mh |
  1
):-+:' {rn {mh {gj |
  1
,+->687+r<*-): {rn rjqffffjjfghlomgfhn rmqjooonggjffffffig o n rhqhigkjnihffnmfjll:rono o Y o Y nmqooooooooooooook |
  1
/061+ {rn iqooookkonmifhnoik rmqjooonggiflmmnlf o |
  1
/061+ {rn hqjoookkonnjlnglgj rkqoooonggiflmmnlfj o |
  1
<0:;8: {rn {gi {lm {rn {gh 90-(>-; {nj {rn |
  1
:;8: {gg {gf {in {lm {fo 90-(>-; |
  1
<0:;8: {rn {ll {fn {rn {fm -:):-,:; {nj {rn |
  1
:;8: {fl {fk {io {ll {fj 90-(>-; |
  1
/+36,+r:&:r>++-6= {rn {rn {rn {lk |
  1
):-+:' {rn {lk {fi |
  1
):-+:' {rn {lk {fh |
  1
,+->687+r<*-): {rn nmqjoookkonnjlngkn rnmqoooonggjjhmhli o iqnmlolnhifnnnggil:ronh n o V V |
  1
<0:;8: {rn {fg {lj {rn {ff 90-(>-; {nl {rn |
  1
:;8: {noo {ii {non {lj {nom 90-(>-; |
  1
/+36,+r:&:r>++-6= {rn {rn {rn {li |
  1
):-+:' {rn {ik {nol |
  1
,+->687+r<*-): {rn rjqffffjjfgfillkmgj mqkfffgnnlffffffi o rn hqhigkkhmlfomogjhf:rono o Y rnm Y o |
  1
<0:;8: {rn {lh {fg {rn {nok 90-(>-; {nl {rn |
  1
:;8: {noj {noi {hn {lh {noh 90-(>-; |
  1
/+36,+r:&:r>++-6= {rn {rn {rn {lg |
  1
):-+:' {rn {lg {nog |
  1
,+->687+r<*-): {rn hqjoookkonnjlnglfk lqffffgnnloihhgjfm o riqnmlolnhifnnnggil:ronh rn o Y rnkqjoooooonljfkhgi Y o |
  1
/061+ {rn hqjoookkonnjlnglfk lqffffgnnloihhgjfm o |
  1
/061+ {rn iqooookkonoliijhmk mqkfffgnnloihhgjfm o |
  1
<0:;8: {rn {kg {kl {rn {nof 90-(>-; {no {rn |
  1
:;8: {nno {hg {nnn {kl {nnm 90-(>-; |
  1
/+36,+r:&:r>++-6= {rn {rn {rn {kk |
  1
):-+:' {rn {hi {nnl |
  1
:336/,:r<*-): {rn iqooookkonnjlnglgj rngqjooonggjjhmhljj o o o rn fqngkjkhijliihgmfk:ronh nqj o n Y nqjhohfilmihfkgfii Y lqnknjfmijljgfhfln |
  1
/061+ {rn hqjoookkonnjlnglgj rngqjooonggjjhmhljj o |
  1
:;8: {nnk {nnj {gl {kg {nni 90-(>-; |
  1
/+36,+r:&:r>++-6= {rn {rn {rn {kf |
  1
):-+:' {rn {kf {nnh |
  1
:336/,:r<*-): {rn rjqffffjjfggkignikn rkqoooonggjffffffhl o o o rn fqngkjkhijliihgmfk:ronh nqj o n Y rnqjhohfilmihfkgfii Y hqhigkkiimihnhign:rono |
  1
/061+ {rn rjqffffjjfghlomgfhn rmqjooonggjffffffig o |
  1
<0:;8: {rn {nng {jj {rn {nnf -:):-,:; {nj {rn |
  1
:;8: {nmo {gf {nmn {jj {nmm 90-(>-; |
  1
/+36,+r:&:r>++-6= {rn {rn {rn {ji |
  1
):-+:' {rn {ji {nml |
  1
,+->687+r<*-): {rn nmqooookkoogkignih nmqkfffgnnkkmhmijl o oqhohnoihgnngijkjom roqhohnoihgnngijjoom o V V |
  1
<0:;8: {rn {jh {nmk {rn {nmj 90-(>-; {nj {rn |
  1
:;8: {nmi {fk {nmh {jh {nmg 90-(>-; |
  1
/+36,+r:&:r>++-6= {rn {rn {rn {jg |
  1
):-+:' {rn {fm {nmf |
  1
,+->687+r<*-): {rn nmqooookkoogkignih rnmqjooonggjjhmhlim o oqhohnoihgnngijkjom oqhohnoihgnngijjoom o V V |
  1
/061+ {rn nmqjoookkonnjlngkn rnmqoooonggjjhmhli o |
  1
/061+ {rn nmqjoookkonnjlngkn nnqffffgnnkkmhmijl o |
  1
<0:;8: {rn {ig {il {rn {nlo 90-(>-; {nl {rn |
  1
:;8: {nln {non {nlm {il {nll 90-(>-; |
  1
/+36,+r:&:r>++-6= {rn {rn {rn {ik |
  1
):-+:' {rn {ff {nlk |
  1
:336/,:r<*-): {rn rjqffffjjfggkigninj lqffffgnnlffffffi o o o rn fqngkjkhijliihgmfk:ronh nqj o n Y rlqnknjfmijmgnmfkgh Y rnqjhohfilmihfkgfii |
  1
/061+ {rn rjqffffjjfgfillkmgj mqkfffgnnlffffffi o |
  1
:;8: {nlj {nli {noi {ig {nlh 90-(>-; |
  1
/+36,+r:&:r>++-6= {rn {rn {rn {if |
  1
):-+:' {rn {if {nlg |
  1
:336/,:r<*-): {rn iqooookkonnjlngkol ngqkfffgnnkkmhmikj o o o rn fqngkjkhijliihgmfk:ronh nqj o n Y o Y nqjhohfilmihfkgfii |
  1
/061+ {rn hqjoookkonnjlngkol ngqkfffgnnkkmhmikj o |
  1
:;8: {nlf {nnn {nnj {hj {nko 90-(>-; |
  1
/+36,+r:&:r>++-6= {rn {rn {rn {hi |
  1
):-+:' {rn {nof {nkn |
  1
,+->687+r<*-): {rn iqooookkonnjlnglgj rmoqoooonggjjhmhljj o rn mqofmioojklohgoilh:roni o Y o Y nmqooooooooooooook |
  1
/061+ {rn iqooookkonnjlnglgj rmoqoooonggjjhmhljj o |
  1
/+36,+r:&:r>++-6= {rn {rn {rn {gn |
  1
):-+:' {rn {gn {nkm |
  1
,+->687+r<*-): {rn rhqkfffjjfggkignikn rngqjooonggjjhmhljj o rmqlliikkkngokhkiil:romo n o Y o Y nkqkfffffffjhmhljh |
  1
/061+ {rn rhqkfffjjfggkignikn rkqoooonggjffffffik o |
  1
<0:;8: {rn {nkl {gi {rn {nkk -:):-,:; {nj {rn |
  1
:;8: {nkj {nki {nmn {gi {nkh 90-(>-; |
  1
/+36,+r:&:r>++-6= {rn {rn {rn {gh |
  1
):-+:' {rn {gh {nkg |
  1
,+->687+r<*-): {rn nmqooookkoogkignih nmqkfffgnnkkmhmijl o oqhohnoihgnngijkhki oqhohnoihgnngijkhki o V V |
  1
/061+ {rn nmqooookkoogkignih nmqkfffgnnkkmhmijl o |
  1
<0:;8: {rn {fn {nkf {rn {njo 90-(>-; {nj {rn |
  1
:;8: {njn {njm {nmh {fn {njl 90-(>-; |
  1
/+36,+r:&:r>++-6= {rn {rn {rn {fm |
  1
):-+:' {rn {nmj {njk |
  1
,+->687+r<*-): {rn nmqooookkoogkignih rnmqjooonggjjhmhlim o oqhohnoihgnngijkhki roqhohnoihgnngijkhki o V V |
  1
/061+ {rn nmqooookkoogkignih rnmqjooonggjjhmhlim o |
  1
:;8: {njj {nlm {nli {fg {nji 90-(>-; |
  1
/+36,+r:&:r>++-6= {rn {rn {rn {ff |
  1
):-+:' {rn {nlo {njh |
  1
,+->687+r<*-): {rn rhqkfffjjfggkignimk ngqkfffgnnkkmhmikj o riqnmhhojojohmgmkhl:ronh n o Y rnkqjoooooookmhmij Y o |
  1
/061+ {rn rhqkfffjjfggkigninj lqffffgnnlffffffi o |
  1
/+36,+r:&:r>++-6= {rn {rn {rn {nok |
  1
):-+:' {rn {nok {njg |
  1
,+->687+r<*-): {rn iqooookkonnjlngkol nfqffffgnnkkmhmikj o n riqnmlolnhifnnnggil:ronh o Y rnmqooooooooooooook Y o |
  1
/061+ {rn iqooookkonnjlngkol nfqffffgnnkkmhmikj o |
  1
/+36,+r:&:r>++-6= {rn {rn {rn {nof |
  1
:336/,:r<*-): {rn rjqffffjjfggkignikn rngqjooonggjjhmhljj o o o rn fqngkjkhijliihgmfk:ronh nqj o n Y rlqnknjfmijljgfhfln Y rnqjhohfilmihfkgfii |
  1
/061+ {rn rjqffffjjfggkignikn rmoqoooonggjjhmhljj o |
  1
/061+ {rn rhqkfffjjfggkignikn rngqjooonggjjhmhljj o |
  1
<0:;8: {rn {njf {nng {rn {nio -:):-,:; {nj {rn |
  1
:;8: {nin {nim {nki {nng {nil 90-(>-; |
  1
/+36,+r:&:r>++-6= {rn {rn {rn {nnf |
  1
):-+:' {rn {nnf {nik |
  1
,+->687+r<*-): {rn nmqjoookkonnjlnglf mlqffffgnnkkmhmijl o rmqhfiojmkghngonlgk:rono rn o V V |
  1
/061+ {rn nmqjoookkoogkjingn nmqffffgnnkkmioiii o |
  1
<0:;8: {rn {nmk {nij {rn {nii 90-(>-; {nj {rn |
  1
:;8: {nih {nig {njm {nmk {nif 90-(>-; |
  1
/+36,+r:&:r>++-6= {rn {rn {rn {nmj |
  1
):-+:' {rn {njo {nho |
  1
,+->687+r<*-): {rn nmqjoookkonnjlngli rmkqoooonggjjhmhlim o rmqhfiojnmimjhlhgki:rono n o V V |
  1
/061+ {rn nmqjoookkoogkjingn rnlqoooonggjjhnjlhj o |
  1
/+36,+r:&:r>++-6= {rn {rn {rn {nlo |
  1
:336/,:r<*-): {rn rjqffffjjfggkignimk ngqkfffgnnkkmhmikj o o o rn fqngkjkhijliihgmfk:ronh nqj o n Y rnqjhohfilmihfkgfii Y o |
  1
/061+ {rn rhqkfffjjfggkignimk ngqkfffgnnkkmhmikj o |
  1
/061+ {rn rjqffffjjfggkignimk nfqffffgnnkkmhmikj o |
  1
<0:;8: {rn {nhn {nkl {rn {nhm -:):-,:; {nj {rn |
  1
:;8: {nhl {nhk {nim {nkl {nhj 90-(>-; |
  1
/+36,+r:&:r>++-6= {rn {rn {rn {nkk |
  1
):-+:' {rn {nkk {nhi |
  1
,+->687+r<*-): {rn nnqjoookkonnjlnglf mkqffffgnnkkmhmijl o oqhohnoihgnngijkhki roqhohnoihgnngijkhki o V V |
  1
/061+ {rn nmqjoookkonnjlnglf mlqffffgnnkkmhmijl o |
  1
<0:;8: {rn {nkf {nhh {rn {nhg 90-(>-; {nj {rn |
  1
:;8: {nhf {ngo {nig {nkf {ngn 90-(>-; |
  1
/+36,+r:&:r>++-6= {rn {rn {rn {njo |
  1
):-+:' {rn {nii {ngm |
  1
,+->687+r<*-): {rn nnqjoookkonnjlngli rmjqoooonggjjhmhlim o oqhohnoihgnngijkhki oqhohnoihgnngijkhki o V V |
  1
/061+ {rn nmqjoookkonnjlngli rmkqoooonggjjhmhlim o |
  1
<0:;8: {rn {ngl {njf {rn {ngk 90-(>-; {nj {rn |
  1
:;8: {ngj {ngi {nhk {njf {ngh 90-(>-; |
  1
/+36,+r:&:r>++-6= {rn {rn {rn {nio |
  1
):-+:' {rn {nio {ngg |
  1
,+->687+r<*-): {rn oqjoookkooffffffhgh mkqffffgnnkkmhmikj o n jqgkhnhimlgnfongim:roni o V V |
  1
/061+ {rn nnqjoookkonnjlnglf mkqffffgnnkkmhmijl o |
  1
<0:;8: {rn {nij {ngf {rn {nfo -:):-,:; {nj {rn |
  1
:;8: {nfn {nfm {ngo {nij {nfl 90-(>-; |
  1
/+36,+r:&:r>++-6= {rn {rn {rn {nii |
  1
):-+:' {rn {nhg {nfk |
  1
,+->687+r<*-): {rn oqjoookkooffffffkhh rmjqoooonggjjhmhljj o n rhqohnhgmjfmonmjilj:roni o V V |
  1
/061+ {rn nnqjoookkonnjlngli rmjqoooonggjjhmhlim o |
  1
<0:;8: {rn {nfj {nhn {rn {nfi -:):-,:; {nj {rn |
  1
:;8: {nfh {ngi {nfg {nhn {nff 90-(>-; |
  1
/+36,+r:&:r>++-6= {rn {rn {rn {nhm |
  1
):-+:' {rn {nhm {moo |
  1
,+->687+r<*-): {rn kqkonoooooonlhmlj:rooj mkqkfffgnnkkmhmijl o oqhohnoihgnngijjoom oqhohnoihgnngijkjom o V V |
  1
/061+ {rn oqjoookkooffffffhgh mkqffffgnnkkmhmikj o |
  1
<0:;8: {rn {nhh {mon {rn {mom 90-(>-; {nj {rn |
  1
:;8: {mol {nfm {mok {nhh {moj 90-(>-; |
  1
/+36,+r:&:r>++-6= {rn {rn {rn {nhg |
  1
):-+:' {rn {nfo {moi |
  1
,+->687+r<*-): {rn kqkooffffffglhmoik:rooj rmkqjooonggjjhmhlim o oqhohnoihgnngijjoom roqhohnoihgnngijkjom o V V |
  1
/061+ {rn oqjoookkooffffffkhh rmjqoooonggjjhmhljj o |
  1
<0:;8: {rn {moh {ngl {rn {mog -:):-,:; {nj {rn |
  1
:;8: {mof {mno {nfg {ngl {mnn 90-(>-; |
  1
/+36,+r:&:r>++-6= {rn {rn {rn {ngk |
  1
):-+:' {rn {ngk {mnm |
  1
,+->687+r<*-): {rn kqkonoooooonlhmlj:rooj mkqkfffgnnkkmhmijl o roqhohnoihgnngijjolj oqhohnoihgnngijkkg o V V |
  1
/061+ {rn kqkonoooooonlhmlj:rooj mkqkfffgnnkkmhmijl o |
  1
<0:;8: {rn {ngf {mnl {rn {mnk 90-(>-; {nj {rn |
  1
:;8: {mnj {mni {mok {ngf {mnh 90-(>-; |
  1
/+36,+r:&:r>++-6= {rn {rn {rn {nfo |
  1
):-+:' {rn {mom {mng |
  1
,+->687+r<*-): {rn kqkooffffffglhmoik:rooj rmkqjooonggjjhmhlim o roqhohnoihgnngijjolj roqhohnoihgnngijkkg o V V |
  1
/061+ {rn kqkooffffffglhmoik:rooj rmkqjooonggjjhmhlim o |
  1
<0:;8: {rn {mnf {nfj {rn {mmo -:):-,:; {nj {rn |
  1
:;8: {mmn {mmm {mno {nfj {mml 90-(>-; |
  1
/+36,+r:&:r>++-6= {rn {rn {rn {nfi |
  1
):-+:' {rn {nfi {mmk |
  1
,+->687+r<*-): {rn rnnqkfffjjfggkignim mkqffffgnnkkmhmijl o n rhqohnhgmjflgnnilog:roni o V V |
  1
/061+ {rn roqkfffjjfgffffffjkn mkqffffgnnkkmhmikj o |
  1
<0:;8: {rn {mon {mmj {rn {mmi 90-(>-; {nj {rn |
  1
:;8: {mmh {mmg {mni {mon {mmf 90-(>-; |
  1
/+36,+r:&:r>++-6= {rn {rn {rn {mom |
  1
):-+:' {rn {mnk {mlo |
  1
,+->687+r<*-): {rn rnnqkfffjjfggkignii rmjqoooonggjjhmhlim o n jqgkhnhimlffgfmjlj:roni o V V |
  1
/061+ {rn roqkfffjjfgffffffgjm rmjqoooonggjjhmhljj o |
  1
<0:;8: {rn {mln {moh {rn {mlm -:):-,:; {nj {rn |
  1
:;8: {mll {mlk {mmm {moh {mlj 90-(>-; |
  1
/+36,+r:&:r>++-6= {rn {rn {rn {mog |
  1
):-+:' {rn {mog {mli |
  1
,+->687+r<*-): {rn rnmqkfffjjfggkignim mlqffffgnnkkmhmijl o oqhohnoihgnngijkhki oqhohnoihgnngijkhki o V V |
  1
/061+ {rn rnnqkfffjjfggkignim mkqffffgnnkkmhmijl o |
  1
<0:;8: {rn {mnl {mlh {rn {mlg 90-(>-; {nj {rn |
  1
:;8: {mlf {mko {mmg {mnl {mkn 90-(>-; |
  1
/+36,+r:&:r>++-6= {rn {rn {rn {mnk |
  1
):-+:' {rn {mmi {mkm |
  1
,+->687+r<*-): {rn rnmqkfffjjfggkignii rmkqoooonggjjhmhlim o oqhohnoihgnngijkhki roqhohnoihgnngijkhki o V V |
  1
/061+ {rn rnnqkfffjjfggkignii rmjqoooonggjjhmhlim o |
  1
<0:;8: {rn {mkl {mnf {rn {mkk 90-(>-; {nj {rn |
  1
:;8: {mkj {mki {mlk {mnf {mkh 90-(>-; |
  1
/+36,+r:&:r>++-6= {rn {rn {rn {mmo |
  1
):-+:' {rn {mmo {mkg |
  1
,+->687+r<*-): {rn rnmqkfffjjfggkignig nmqffffgnnkkmhmijl o lqgkmokmggkfnnikkn:roni n o V V |
  1
/061+ {rn rnmqkfffjjfggkignim mlqffffgnnkkmhmijl o |
  1
<0:;8: {rn {mmj {mkl {rn {mkf -:):-,:; {nj {rn |
  1
:;8: {mjo {mjn {mko {mmj {mjm 90-(>-; |
  1
/+36,+r:&:r>++-6= {rn {rn {rn {mmi |
  1
):-+:' {rn {mlg {mjl |
  1
,+->687+r<*-): {rn rnmqkfffjjfggkignig rnlqoooonggjjhmhlim o mqinhklijlnogfmiif:roni rn o V V |
  1
/061+ {rn rnmqkfffjjfggkignii rmkqoooonggjjhmhlim o |
  1
<0:;8: {rn {mlh {mln {rn {mjk -:):-,:; {nj {rn |
  1
:;8: {mjj {mki {mji {mln {mjh 90-(>-; |
  1
/+36,+r:&:r>++-6= {rn {rn {rn {mlm |
  1
):-+:' {rn {mlm {mjg |
  1
,+->687+r<*-): {rn rnnqffffjjfggkignig nmqkfffgnnkkmhmijl o roqhohnoihgnngijkhki oqhohnoihgnngijkhki o V V |
  1
/061+ {rn rnmqkfffjjfggkignig nmqffffgnnkkmhmijl o |
  1
:;8: {mjf {mjn {mio {mlh {min 90-(>-; |
  1
/+36,+r:&:r>++-6= {rn {rn {rn {mlg |
  1
):-+:' {rn {mkf {mim |
  1
,+->687+r<*-): {rn rnnqffffjjfggkignig rnmqjooonggjjhmhlim o roqhohnoihgnngijkhki roqhohnoihgnngijkhki o V V |
  1
/061+ {rn rnmqkfffjjfggkignig rnlqoooonggjjhmhlim o |
  1
:;8: {mil {mio {mji {mkl {mik 90-(>-; |
  1
/+36,+r:&:r>++-6= {rn {rn {rn {mkk |
  1
):-+:' {rn {mkk {mij |
  1
,+->687+r<*-): {rn rnnqffffjjfggkignig nmqkfffgnnkkmhmijl o roqhohnoihgnngijkjom roqhohnoihgnngijjoom o V V |
  1
/061+ {rn rnnqffffjjfggkignig nmqkfffgnnkkmhmijl o |
  1
/+36,+r:&:r>++-6= {rn {rn {rn {mkf |
  1
):-+:' {rn {mjk {mii |
  1
,+->687+r<*-): {rn rnnqffffjjfggkignig rnmqjooonggjjhmhlim o roqhohnoihgnngijkjom oqhohnoihgnngijjoom o V V |
  1
/061+ {rn rnnqffffjjfggkignig rnmqjooonggjjhmhlim o |
  1
/+36,+r:&:r>++-6= {rn {rn {rn {mjk |
  1
,+->687+r<*-): {rn rnmqkfffjjfggkignii rnmqoooonggjjhmhli o nqljmkjngjfffkimim:roni n o V V |
  1
/061+ {rn rnmqkfffjjfggkignik nnqffffgnnkkmhmijl o |
  1
/061+ {rn rnmqkfffjjfggkignii rnmqoooonggjjhmhli o |
  0
DIMENSION
  5
2EE0
330
1A
100
AcDbEntity
  8
Dimension1_Bemaßung1
100
AcDbDimension
  2
*D23
 10
12.50004401153184
 20
56.07643504206851
 30
0.0
 11
1.156745414255283
 21
56.07643504206851
 31
0.0
 70
   160
 71
     5
 42
25.0
  3
PALETTI
100
AcDbAlignedDimension
 13
-12.49995598846816
 23
23.99998114427265
 33
0.0
 14
12.50004401153184
 24
23.99998114427265
 34
0.0
100
AcDbRotatedDimension
1001
ACAD
1000
DSTYLE
1002
{
1070
    47
1040
0.05
1070
    48
1040
0.05
1070
   272
1070
     2
1002
}
  0
DIMENSION
  5
2EED
330
1A
100
AcDbEntity
  8
Dimension1_Bemaßung1
100
AcDbDimension
  2
*D24
 10
-41.04673971620582
 20
-25.00001885572735
 30
0.0
 11
-41.04673971620581
 21
1.882459144974177
 31
0.0
 70
   160
 71
     5
 42
50.00000000000001
  3
PALETTI
100
AcDbAlignedDimension
 13
-11.49995598846816
 23
24.99998114427266
 33
0.0
 14
-11.49995598846816
 24
-25.00001885572736
 34
0.0
 50
90.0
100
AcDbRotatedDimension
1001
ACAD
1000
DSTYLE
1002
{
1070
    47
1040
0.05
1070
    48
1040
0.05
1070
   272
1070
     2
1002
}
  0
DIMENSION
  5
2EFA
330
1A
100
AcDbEntity
  8
Dimension2_Bemaßung2
100
AcDbDimension
  2
*D25
 10
7.500044011531842
 20
49.38793812692733
 30
0.0
 11
1.3283051574831
 21
49.38793812692733
 31
0.0
 70
   160
 71
     5
 42
15.0
  3
PALETTI
100
AcDbAlignedDimension
 13
-7.499955988468162
 23
18.49998114427264
 33
0.0
 14
7.50004401153184
 24
18.49998114427264
 34
0.0
100
AcDbRotatedDimension
1001
ACAD
1000
DSTYLE
1002
{
1070
    47
1040
0.05
1070
    48
1040
0.05
1070
   272
1070
     2
1002
}
  0
DIMENSION
  5
2F07
330
1A
100
AcDbEntity
  8
Dimension2_Bemaßung2
100
AcDbDimension
  2
*D26
 10
-32.9834721517068
 20
-20.00001885572735
 30
0.0
 11
-32.98347215170679
 21
0.8534596731095689
 31
0.0
 70
   160
 71
     5
 42
40.0
  3
PALETTI
100
AcDbAlignedDimension
 13
-5.999955988468162
 23
19.99998114427264
 33
0.0
 14
-5.999955988468164
 24
-20.00001885572736
 34
0.0
 50
90.0
100
AcDbRotatedDimension
1001
ACAD
1000
DSTYLE
1002
{
1070
    47
1040
0.05
1070
    48
1040
0.05
1070
   272
1070
     2
1002
}
  0
DIMENSION
  5
2F14
330
1A
100
AcDbEntity
  8
Dimension2_Bemaßung2
100
AcDbDimension
  2
*D27
 10
-20.63123253569017
 20
-2.500018859999992
 30
0.0
 11
-20.63123253569017
 21
1.196459265050521
 31
0.0
 70
   160
 71
     5
 42
4.999999999999992
  3
PALETTI
100
AcDbAlignedDimension
 13
-5.999955989633428
 23
2.499981139999996
 33
0.0
 14
-5.999955987302897
 24
-2.500018859999996
 34
0.0
 50
90.0
100
AcDbRotatedDimension
1001
ACAD
1000
DSTYLE
1002
{
1070
    47
1040
0.05
1070
    48
1040
0.05
1070
   272
1070
     2
1002
}
  0
DIMENSION
  5
2F33
330
1A
100
AcDbEntity
  8
Dimension2_Bemaßung2
100
AcDbDimension
  2
*D28
 10
-26.08039365476401
 20
-12.50001885572736
 30
0.0
 11
-26.08039365476401
 21
1.580418810568575
 31
0.0
 70
   160
 71
     5
 42
25.00000000000002
  3
PALETTI
100
AcDbAlignedDimension
 13
-11.99995598846816
 23
12.49998114427265
 33
0.0
 14
-11.99995598846816
 24
-12.50001885572736
 34
0.0
 50
90.0
100
AcDbRotatedDimension
1001
ACAD
1000
DSTYLE
1002
{
1070
    47
1040
0.05
1070
    48
1040
0.05
1070
   272
1070
     2
1002
}
  0
DIMENSION
  5
2F40
330
1A
100
AcDbEntity
  8
Dimension2_Bemaßung2
100
AcDbDimension
  2
*D29
 10
-12.49995598846816
 20
34.29594494485684
 30
0.0
 11
-22.14995598846817
 21
34.29594494485684
 31
0.0
 70
   160
  1
<>x45°
 71
     5
  3
PALETTI
100
AcDbAlignedDimension
 13
-11.49995598846816
 23
24.99998114427266
 33
0.0
 14
-12.49995598846816
 24
23.99998114427265
 34
0.0
100
AcDbRotatedDimension
1001
ACAD
1000
DSTYLE
1002
{
1070
    47
1040
0.05
1070
    48
1040
0.05
1070
   272
1070
     2
1002
}
  0
DIMENSION
  5
2F5A
330
1A
100
AcDbEntity
  8
Dimension2_Bemaßung2
100
AcDbDimension
  2
*D30
 10
12.50004400845618
 20
12.99998114426066
 30
0.0
 11
24.56769240351526
 21
14.08904080478453
 31
0.0
 70
   162
  1
0,5x<>
 71
     5
 42
1.570796323731219
  3
PALETTI
100
AcDb2LineAngularDimension
 13
12.00004400846817
 23
12.49998114427265
 33
0.0
 14
12.50004401153184
 24
11.99998114427265
 34
0.0
 15
12.00004400846817
 25
12.49998114427265
 35
0.0
 16
24.23611303203259
 26
9.22133635766295
 36
0.0
1001
ACAD
1000
DSTYLE
1002
{
1070
    47
1040
0.05
1070
    48
1040
0.05
1070
   272
1070
     2
1002
}
  0
DIMENSION
  5
2F8E
330
1A
100
AcDbEntity
  8
Dimension2_Bemaßung2
100
AcDbDimension
  2
*D31
 10
6.000044011531852
 20
-18.50001885572735
 30
0.0
 11
17.15803275388463
 21
-23.64094215039189
 31
0.0
 70
   164
 71
     5
 42
1.499999999999987
  3
PALETTI
100
AcDbRadialDimension
 15
7.362397074016426
 25
-19.12770837542548
 35
0.0
 40
0.0
1001
ACAD
1000
DSTYLE
1002
{
1070
    47
1040
0.05
1070
    48
1040
0.05
1070
   272
1070
     2
1002
}
  0
VIEWPORT
  5
22
102
{ACAD_XDICTIONARY
360
2FC4
102
}
330
17
100
AcDbEntity
 67
     1
  8
0
100
AcDbViewport
 10
215.0002915331342
 20
174.062342842714
 30
0.0
 40
719.6701945575027
 41
558.4091736077881
 68
     1
 69
     1
 12
215.0002915331342
 22
174.062342842714
 13
0.0
 23
0.0
 14
1.0
 24
1.0
 15
10.0
 25
10.0
 16
0.0
 26
0.0
 36
1.0
 17
0.0
 27
0.0
 37
0.0
 42
50.0
 43
0.0
 44
0.0
 45
558.4091736077881
 50
0.0
 51
0.0
 72
   100
 90
    32800
  1

281
     0
 71
     1
 74
     0
110
0.0
120
0.0
130
0.0
111
1.0
121
0.0
131
0.0
112
0.0
122
1.0
132
0.0
 79
     0
146
0.0
1001
GENIUS_GENOREF_13
1005
1286
1001
GENIUS_GENSCREG_15
1000
PF
1040
1.0
1000
DF
1040
1.0
1000
MIN
1011
-144.8348057456171
1021
-105.14224396118
1031
0.0
1000
MAX
1011
512.8934124217652
1021
453.2669296466081
1031
0.0
1000
FLAGS
1070
     2
  0
ENDSEC
  0
SECTION
  2
OBJECTS
  0
DICTIONARY
  5
C
330
0
100
AcDbDictionary
281
     1
  3
ACAD_COLOR
350
2C14
  3
ACAD_GROUP
350
D
  3
ACAD_LAYOUT
350
11EC
  3
ACAD_MATERIAL
350
2C13
  3
ACAD_MLINESTYLE
350
E
  3
ACAD_PLOTSETTINGS
350
11ED
  3
ACAD_PLOTSTYLENAME
350
11EA
  3
ACDBHEADERROUNDTRIPXREC
350
2FC1
  3
ACDBVARIABLEDICTIONARY
350
FF5
  3
ACMDICTIONARY
350
10FC
  3
AMG
350
11F6
  3
AMG_3D2D_DICT
350
2997
  3
AMGSNAPSETTINGS
350
128D
  3
AVE_ACITABLE
350
1AB5
  3
DWGPROPS
350
2FC0
  3
GENIUS
350
FF8
  3
MAPISURF_MODULE
350
170B
  0
DICTIONARY
  5
10AA
330
1A
100
AcDbDictionary
280
     1
281
     1
  3
ACAD_INDEX
360
2BFE
  0
DICTIONARY
  5
2E47
330
2E46
100
AcDbDictionary
280
     1
281
     1
  0
DICTIONARY
  5
2ED5
330
2EBB
100
AcDbDictionary
280
     1
281
     1
  0
DICTIONARY
  5
2FCC
330
2ED2
100
AcDbDictionary
280
     1
281
     1
  3
ACAD_MTEXT_RT
360
2FCD
  0
DICTIONARY
  5
2FC4
330
22
100
AcDbDictionary
280
     1
281
     1
  3
ACAD_XREC_ROUNDTRIP
360
2FC5
  0
DICTIONARY
  5
2C14
102
{ACAD_REACTORS
330
C
102
}
330
C
100
AcDbDictionary
281
     1
  0
DICTIONARY
  5
D
102
{ACAD_REACTORS
330
C
102
}
330
C
100
AcDbDictionary
281
     1
  3
*A1
350
2EB8
  3
*A2
350
2EB9
  3
*A3
350
2EBA
  0
DICTIONARY
  5
11EC
102
{ACAD_REACTORS
330
C
102
}
330
C
100
AcDbDictionary
281
     1
  3
Layout1
350
11EF
  3
Model
350
11EE
  0
DICTIONARY
  5
2C13
102
{ACAD_REACTORS
330
C
102
}
330
C
100
AcDbDictionary
281
     1
  0
DICTIONARY
  5
E
102
{ACAD_REACTORS
330
C
102
}
330
C
100
AcDbDictionary
281
     1
  3
STANDARD
350
13
  0
DICTIONARY
  5
11ED
102
{ACAD_REACTORS
330
C
102
}
330
C
100
AcDbDictionary
281
     1
  0
ACDBDICTIONARYWDFLT
  5
11EA
102
{ACAD_REACTORS
330
C
102
}
330
C
100
AcDbDictionary
281
     1
  3
Normal
350
11EB
100
AcDbDictionaryWithDefault
340
11EB
  0
DICTIONARY
  5
2FC1
102
{ACAD_REACTORS
330
C
102
}
330
C
100
AcDbDictionary
281
     1
  3
COLORDICT
350
2FC3
  3
MATERIALDICT
350
2FC2
  0
DICTIONARY
  5
FF5
102
{ACAD_REACTORS
330
C
102
}
330
C
100
AcDbDictionary
281
     1
  3
DIMASSOC
350
177C
  3
INDEXCTL
350
FF6
  3
PROJECTNAME
350
2FBE
  0
DICTIONARY
  5
10FC
102
{ACAD_REACTORS
330
C
102
}
330
C
100
AcDbDictionary
281
     1
  3
ACMSTDDICTIONARY
350
10FD
  0
DICTIONARY
  5
11F6
102
{ACAD_REACTORS
330
C
102
}
330
C
100
AcDbDictionary
281
     1
  3
AcMgSettings
350
11F7
  0
DICTIONARY
  5
2997
102
{ACAD_REACTORS
330
C
102
}
330
C
100
AcDbDictionary
281
     1
  3
AMG_SUBLIST_DICT
350
2998
  0
DICTIONARY
  5
128D
102
{ACAD_REACTORS
330
C
102
}
330
C
100
AcDbDictionary
281
     1
  3
DIMENSION
350
1292
  3
FEA
350
1291
  3
HATCH (1)
350
128E
  3
HATCH (2)
350
128F
  3
SYMBOLS
350
1290
  0
DICTIONARY
  5
1AB5
102
{ACAD_REACTORS
330
C
102
}
330
C
100
AcDbDictionary
281
     1
  0
XRECORD
  5
2FC0
102
{ACAD_REACTORS
330
C
102
}
330
C
100
AcDbXrecord
280
     1
  1
DWGPROPS COOKIE
  2

  3

  4

  6

  7

  8

  9

300
AmdtFileType=84
301
=
302
=
303
=
304
=
305
=
306
=
307
=
308
=
309
=
 40
0.1905825
 41
2452894.640651621
 42
2453298.372834618
  1

 90
        1
  0
DICTIONARY
  5
FF8
102
{ACAD_REACTORS
330
C
102
}
330
C
100
AcDbDictionary
281
     1
  3
COMPDEFATTR_CUSTOM
350
FF9
  0
DICTIONARY
  5
2BFE
102
{ACAD_REACTORS
330
10AA
102
}
330
10AA
100
AcDbDictionary
281
     1
  3
*A1
350
2BFF
  0
XRECORD
  5
2FCD
102
{ACAD_REACTORS
330
2FCC
102
}
330
2FCC
100
AcDbXrecord
280
     1
 40
6368565.0
  1
^I^I^I\PProfilberechnung:^I^I13. Apr. 04^I\P\PProfil:^ISP 685           50x50^I^I\P^I^I^I\P\PFlächenträgheitsmoment  Ix^I^I33,41^Icm4\PFlächenträgheitsmoment  Iy^I^I33,41^Icm4\P\PWiderstandsmoment Wx^I^I13,36^Icm3\PWiderstandsmoment Wy^I^I13,36^Icm3\P\PFläche A^I^I12,79^Icm2\P
  1
\PGewicht G^I^I3,45^Ikg/m\P\P
  0
XRECORD
  5
2FC5
102
{ACAD_REACTORS
330
2FC4
102
}
330
2FC4
100
AcDbXrecord
280
     1
102
SHADEPLOT
 70
     0
  0
GROUP
  5
2EB8
102
{ACAD_REACTORS
330
D
102
}
330
D
100
AcDbGroup
300
DIN A4
 70
     0
 71
     1
  0
GROUP
  5
2EB9
102
{ACAD_REACTORS
330
D
102
}
330
D
100
AcDbGroup
300
DIN A4
 70
     0
 71
     1
  0
GROUP
  5
2EBA
102
{ACAD_REACTORS
330
D
102
}
330
D
100
AcDbGroup
300
DIN A4
 70
     0
 71
     1
  0
LAYOUT
  5
11EF
102
{ACAD_XDICTIONARY
360
2FC8
102
}
102
{ACAD_REACTORS
330
11EC
102
}
330
11EC
100
AcDbPlotSettings
  1

  2
none_device
  4
Letter_(8.50_x_11.00_Inches)
  6

 40
6.349999904632568
 41
6.349999904632568
 42
6.350006103515625
 43
6.350006103515625
 44
215.8999938964844
 45
279.3999938964844
 46
0.0
 47
0.0
 48
0.0
 49
0.0
140
0.0
141
0.0
142
1.0
143
1.0
 70
   688
 72
     1
 73
     1
 74
     1
  7
Paletti_HP750.ctb
 75
     0
147
1.0
148
0.0
149
0.0
100
AcDbLayout
  1
Layout1
 70
     1
 71
     1
 10
-6.350006103515625
 20
-6.349999904632568
 11
273.0499877929688
 21
209.5499939918518
 12
0.0
 22
0.0
 32
0.0
 14
1.000000000000000E+20
 24
1.000000000000000E+20
 34
1.000000000000000E+20
 15
-1.000000000000000E+20
 25
-1.000000000000000E+20
 35
-1.000000000000000E+20
146
0.0
 13
0.0
 23
0.0
 33
0.0
 16
1.0
 26
0.0
 36
0.0
 17
0.0
 27
1.0
 37
0.0
 76
     0
330
17
331
22
  0
LAYOUT
  5
11EE
102
{ACAD_XDICTIONARY
360
2FC6
102
}
102
{ACAD_REACTORS
330
11EC
102
}
330
11EC
100
AcDbPlotSettings
  1

  2
\\RANTANPLAN\HP-4V-EK
  4
A4
  6

 40
6.805083274841308
 41
5.069413185119628
 42
6.805084228515625
 43
5.027069091796875
 44
209.9733276367187
 45
296.9683227539062
 46
10.1
 47
0.0
 48
-66.05505755167723
 49
-150.6817159112365
140
77.50709972975119
141
83.10529512769017
142
1.0
143
0.8149528048838902
 70
 11956
 72
     1
 73
     0
 74
     4
  7
Paletti_HP750.ctb
 75
     0
147
1.227064922050883
148
66.05505755167723
149
150.6817159112365
100
AcDbLayout
  1
Model
 70
     1
 71
     0
 10
0.0
 20
0.0
 11
12.0
 21
9.0
 12
0.0
 22
0.0
 32
0.0
 14
0.0
 24
0.0
 34
0.0
 15
0.0
 25
0.0
 35
0.0
146
0.0
 13
0.0
 23
0.0
 33
0.0
 16
1.0
 26
0.0
 36
0.0
 17
0.0
 27
1.0
 37
0.0
 76
     0
330
1A
  0
MLINESTYLE
  5
13
102
{ACAD_REACTORS
330
E
102
}
330
E
100
AcDbMlineStyle
  2
STANDARD
 70
     0
  3

 62
     0
 51
90.0
 52
90.0
 71
     2
 49
0.5
 62
   256
  6
BYLAYER
 49
-0.5
 62
   256
  6
BYLAYER
  0
ACDBPLACEHOLDER
  5
11EB
102
{ACAD_REACTORS
330
11EA
102
}
330
11EA
  0
XRECORD
  5
2FC3
102
{ACAD_REACTORS
330
2FC1
102
}
330
2FC1
100
AcDbXrecord
280
     1
340
2C14
  0
XRECORD
  5
2FC2
102
{ACAD_REACTORS
330
2FC1
102
}
330
2FC1
100
AcDbXrecord
280
     1
340
2C13
  0
DICTIONARYVAR
  5
177C
102
{ACAD_REACTORS
330
FF5
102
}
330
FF5
100
DictionaryVariables
280
     0
  1
1
  0
DICTIONARYVAR
  5
FF6
102
{ACAD_REACTORS
330
FF5
102
}
330
FF5
100
DictionaryVariables
280
     0
  1
1
  0
DICTIONARYVAR
  5
2FBE
102
{ACAD_REACTORS
330
FF5
102
}
330
FF5
100
DictionaryVariables
280
     0
  1

  0
DICTIONARY
  5
10FD
102
{ACAD_REACTORS
330
10FC
102
}
330
10FC
100
AcDbDictionary
281
     1
  0
DICTIONARY
  5
11F7
102
{ACAD_REACTORS
330
11F6
102
}
330
11F6
100
AcDbDictionary
281
     1
  3
DWGSETTINGS
350
11F8
  3
TRANSSETTINGS
350
1206
  0
DICTIONARY
  5
2998
102
{ACAD_REACTORS
330
2997
102
}
330
2997
100
AcDbDictionary
281
     1
  0
ACAMGFILTERDAT
  5
1292
102
{ACAD_REACTORS
330
128D
102
}
330
128D
100
AcAmgFilterDat
 70
    15
  1
DIMENSION,AMDT_*_DIM
  2
*
  3
*
  4
*
  5
*
290
     1
  0
ACAMGFILTERDAT
  5
1291
102
{ACAD_REACTORS
330
128D
102
}
330
128D
100
AcAmgFilterDat
 70
    15
  1
*
  2
AM_FEA-AM_*
  3
*
  4
*
  5
*
290
     1
  0
ACAMGFILTERDAT
  5
128E
102
{ACAD_REACTORS
330
128D
102
}
330
128D
100
AcAmgFilterDat
 70
    15
  1
HATCH
  2
*
  3
*
  4
*
  5
*
290
     1
  0
ACAMGFILTERDAT
  5
128F
102
{ACAD_REACTORS
330
128D
102
}
330
128D
100
AcAmgFilterDat
 70
    15
  1
LINE
  2
8,8N,*-8,*-8N,AM_8,AM_8N,*-AM_8,*-AM_8N
  3
*
  4
*
  5
INSERT,STDPART2D
290
     1
  0
ACAMGFILTERDAT
  5
1290
102
{ACAD_REACTORS
330
128D
102
}
330
128D
100
AcAmgFilterDat
 70
    15
  1
ACMFCFRAME,ACMDATUMTARGET,ACMDATUMID,ACMWELDSYM,ACMSURFSYM,ACMFEATID,ACMPARTREF,ACMBALLOON,AMDTEDGESYM
  2
*
  3
*
  4
*
  5
*
290
     1
  0
DICTIONARY
  5
FF9
102
{ACAD_REACTORS
330
FF8
102
}
330
FF8
100
AcDbDictionary
281
     1
  3
COMPDEFATTR_XRECORD
350
11E7
  0
LAYER_INDEX
  5
2BFF
102
{ACAD_REACTORS
330
2BFE
102
}
330
2BFE
100
AcDbIndex
 40
2453298.372834618
100
AcDbLayerIndex
  8
0
360
2C00
 90
        2
  8
Dimension2_Bemaßung2
360
2C01
 90
        7
  8
Center of gravity_Schwerpunkt
360
2C03
 90
        4
  8
Defpoints
360
2C04
 90
        0
  8
Dimension1_Bemaßung1
360
2C05
 90
        2
  8
ASHADE
360
2C06
 90
        9
  0
DICTIONARY
  5
2FC8
330
11EF
100
AcDbDictionary
280
     1
281
     1
  3
ACAD_XREC_ROUNDTRIP
360
2FC9
  0
DICTIONARY
  5
2FC6
330
11EE
100
AcDbDictionary
280
     1
281
     1
  3
ACAD_XREC_ROUNDTRIP
360
2FC7
  0
XRECORD
  5
11E7
102
{ACAD_REACTORS
330
FF9
102
}
330
FF9
100
AcDbXrecord
280
     1
  1
2_0
 90
        0
  0
IDBUFFER
  5
2C00
330
0
100
AcDbIdBuffer
330
1286
330
2EDC
  0
IDBUFFER
  5
2C01
330
0
100
AcDbIdBuffer
330
2EFA
330
2F07
330
2F14
330
2F33
330
2F40
330
2F5A
330
2F8E
  0
IDBUFFER
  5
2C03
330
0
100
AcDbIdBuffer
330
17A8
330
17A9
330
1A73
330
1A74
  0
IDBUFFER
  5
2C04
330
0
100
AcDbIdBuffer
  0
IDBUFFER
  5
2C05
330
0
100
AcDbIdBuffer
330
2EE0
330
2EED
  0
IDBUFFER
  5
2C06
330
0
100
AcDbIdBuffer
330
1AA6
330
1AA7
330
1AA8
330
1AA9
330
1AAA
330
1AAB
330
1AAC
330
1AAD
330
1AB4
  0
XRECORD
  5
2FC9
102
{ACAD_REACTORS
330
2FC8
102
}
330
2FC8
100
AcDbXrecord
280
     1
102
SHADEPLOT
 70
     0
102
SHADEPLOTRESLEVEL
 70
     2
102
SHADEPLOTCUSTOMDPI
 70
   300
  0
XRECORD
  5
2FC7
102
{ACAD_REACTORS
330
2FC6
102
}
330
2FC6
100
AcDbXrecord
280
     1
102
SHADEPLOT
 70
     0
102
SHADEPLOTRESLEVEL
 70
     2
102
SHADEPLOTCUSTOMDPI
 70
   300
  0
ENDSEC
  0
EOF
