  0
SECTION
  2
HEADER
  9
$ACADVER
  1
AC1015
  9
$ACADMAINTVER
 70
     6
  9
$DWGCODEPAGE
  3
ANSI_1252
  9
$INSBASE
 10
0.0
 20
0.0
 30
0.0
  9
$EXTMIN
 10
-30.72006180267789
 20
-29.98731928969187
 30
-0.0015258207003583
  9
$EXTMAX
 10
30.00228909775882
 20
28.94952430523642
 30
0.0000000349246037
  9
$LIMMIN
 10
0.0
 20
0.0
  9
$LIMMAX
 10
210.0
 20
297.0
  9
$ORTHOMODE
 70
     1
  9
$REGENMODE
 70
     1
  9
$FILLMODE
 70
     1
  9
$QTEXTMODE
 70
     0
  9
$MIRRTEXT
 70
     1
  9
$LTSCALE
 40
5.0
  9
$ATTMODE
 70
     1
  9
$TEXTSIZE
 40
2.5
  9
$TRACEWID
 40
1.0
  9
$TEXTSTYLE
  7
STANDARD
  9
$CLAYER
  8
2D_Profile
  9
$CELTYPE
  6
BYLAYER
  9
$CECOLOR
 62
   256
  9
$CELTSCALE
 40
1.0
  9
$DISPSILH
 70
     1
  9
$DIMSCALE
 40
1.0
  9
$DIMASZ
 40
2.0
  9
$DIMEXO
 40
0.0
  9
$DIMDLI
 40
0.0
  9
$DIMRND
 40
0.0
  9
$DIMDLE
 40
0.0
  9
$DIMEXE
 40
1.5
  9
$DIMTP
 40
0.2
  9
$DIMTM
 40
0.2
  9
$DIMTXT
 40
3.5
  9
$DIMCEN
 40
-2.5
  9
$DIMTSZ
 40
0.0
  9
$DIMTOL
 70
     0
  9
$DIMLIM
 70
     0
  9
$DIMTIH
 70
     0
  9
$DIMTOH
 70
     0
  9
$DIMSE1
 70
     0
  9
$DIMSE2
 70
     0
  9
$DIMTAD
 70
     1
  9
$DIMZIN
 70
     8
  9
$DIMBLK
  1

  9
$DIMASO
 70
     1
  9
$DIMSHO
 70
     1
  9
$DIMPOST
  1

  9
$DIMAPOST
  1

  9
$DIMALT
 70
     0
  9
$DIMALTD
 70
     2
  9
$DIMALTF
 40
25.4
  9
$DIMLFAC
 40
1.0
  9
$DIMTOFL
 70
     1
  9
$DIMTVP
 40
0.0
  9
$DIMTIX
 70
     0
  9
$DIMSOXD
 70
     0
  9
$DIMSAH
 70
     0
  9
$DIMBLK1
  1

  9
$DIMBLK2
  1

  9
$DIMSTYLE
  2
PALETTI
  9
$DIMCLRD
 70
   256
  9
$DIMCLRE
 70
   256
  9
$DIMCLRT
 70
   256
  9
$DIMTFAC
 40
0.5
  9
$DIMGAP
 40
0.4
  9
$DIMJUST
 70
     0
  9
$DIMSD1
 70
     0
  9
$DIMSD2
 70
     0
  9
$DIMTOLJ
 70
     2
  9
$DIMTZIN
 70
     8
  9
$DIMALTZ
 70
     0
  9
$DIMALTTZ
 70
     0
  9
$DIMUPT
 70
     1
  9
$DIMDEC
 70
     1
  9
$DIMTDEC
 70
     1
  9
$DIMALTU
 70
     2
  9
$DIMALTTD
 70
     2
  9
$DIMTXSTY
  7
STANDARD
  9
$DIMAUNIT
 70
     0
  9
$DIMADEC
 70
     0
  9
$DIMALTRND
 40
0.0
  9
$DIMAZIN
 70
     0
  9
$DIMDSEP
 70
    46
  9
$DIMATFIT
 70
     3
  9
$DIMFRAC
 70
     0
  9
$DIMLDRBLK
  1

  9
$DIMLUNIT
 70
     2
  9
$DIMLWD
 70
    -2
  9
$DIMLWE
 70
    -2
  9
$DIMTMOVE
 70
     0
  9
$LUNITS
 70
     2
  9
$LUPREC
 70
     4
  9
$SKETCHINC
 40
1.0
  9
$FILLETRAD
 40
2.0
  9
$AUNITS
 70
     0
  9
$AUPREC
 70
     0
  9
$MENU
  1
acad
  9
$ELEVATION
 40
0.0
  9
$PELEVATION
 40
0.0
  9
$THICKNESS
 40
0.0
  9
$LIMCHECK
 70
     0
  9
$CHAMFERA
 40
10.0
  9
$CHAMFERB
 40
10.0
  9
$CHAMFERC
 40
0.0
  9
$CHAMFERD
 40
0.0
  9
$SKPOLY
 70
     0
  9
$TDCREATE
 40
2452167.328958889
  9
$TDUCREATE
 40
2452167.245625555
  9
$TDUPDATE
 40
2452167.332246366
  9
$TDUUPDATE
 40
2452167.248913032
  9
$TDINDWG
 40
0.0032880556
  9
$TDUSRTIMER
 40
0.0032877083
  9
$USRTIMER
 70
     1
  9
$ANGBASE
 50
0.0
  9
$ANGDIR
 70
     0
  9
$PDMODE
 70
     0
  9
$PDSIZE
 40
0.0
  9
$PLINEWID
 40
0.0
  9
$SPLFRAME
 70
     0
  9
$SPLINETYPE
 70
     6
  9
$SPLINESEGS
 70
     8
  9
$HANDSEED
  5
1775
  9
$SURFTAB1
 70
     6
  9
$SURFTAB2
 70
     6
  9
$SURFTYPE
 70
     6
  9
$SURFU
 70
     6
  9
$SURFV
 70
     6
  9
$UCSBASE
  2

  9
$UCSNAME
  2

  9
$UCSORG
 10
0.0
 20
0.0
 30
0.0
  9
$UCSXDIR
 10
1.0
 20
0.0
 30
0.0
  9
$UCSYDIR
 10
0.0
 20
1.0
 30
0.0
  9
$UCSORTHOREF
  2

  9
$UCSORTHOVIEW
 70
     0
  9
$UCSORGTOP
 10
0.0
 20
0.0
 30
0.0
  9
$UCSORGBOTTOM
 10
0.0
 20
0.0
 30
0.0
  9
$UCSORGLEFT
 10
0.0
 20
0.0
 30
0.0
  9
$UCSORGRIGHT
 10
0.0
 20
0.0
 30
0.0
  9
$UCSORGFRONT
 10
0.0
 20
0.0
 30
0.0
  9
$UCSORGBACK
 10
0.0
 20
0.0
 30
0.0
  9
$PUCSBASE
  2

  9
$PUCSNAME
  2

  9
$PUCSORG
 10
0.0
 20
0.0
 30
0.0
  9
$PUCSXDIR
 10
1.0
 20
0.0
 30
0.0
  9
$PUCSYDIR
 10
0.0
 20
1.0
 30
0.0
  9
$PUCSORTHOREF
  2

  9
$PUCSORTHOVIEW
 70
     0
  9
$PUCSORGTOP
 10
0.0
 20
0.0
 30
0.0
  9
$PUCSORGBOTTOM
 10
0.0
 20
0.0
 30
0.0
  9
$PUCSORGLEFT
 10
0.0
 20
0.0
 30
0.0
  9
$PUCSORGRIGHT
 10
0.0
 20
0.0
 30
0.0
  9
$PUCSORGFRONT
 10
0.0
 20
0.0
 30
0.0
  9
$PUCSORGBACK
 10
0.0
 20
0.0
 30
0.0
  9
$USERI1
 70
     0
  9
$USERI2
 70
     0
  9
$USERI3
 70
     0
  9
$USERI4
 70
     0
  9
$USERI5
 70
     0
  9
$USERR1
 40
0.0
  9
$USERR2
 40
0.0
  9
$USERR3
 40
0.0
  9
$USERR4
 40
0.0
  9
$USERR5
 40
0.0
  9
$WORLDVIEW
 70
     1
  9
$SHADEDGE
 70
     3
  9
$SHADEDIF
 70
    70
  9
$TILEMODE
 70
     1
  9
$MAXACTVP
 70
    16
  9
$PINSBASE
 10
0.0
 20
0.0
 30
0.0
  9
$PLIMCHECK
 70
     0
  9
$PEXTMIN
 10
1.000000000000000E+20
 20
1.000000000000000E+20
 30
1.000000000000000E+20
  9
$PEXTMAX
 10
-1.000000000000000E+20
 20
-1.000000000000000E+20
 30
-1.000000000000000E+20
  9
$PLIMMIN
 10
0.0
 20
0.0
  9
$PLIMMAX
 10
420.0
 20
297.0
  9
$UNITMODE
 70
     0
  9
$VISRETAIN
 70
     0
  9
$PLINEGEN
 70
     0
  9
$PSLTSCALE
 70
     1
  9
$TREEDEPTH
 70
  3020
  9
$CMLSTYLE
  2
STANDARD
  9
$CMLJUST
 70
     0
  9
$CMLSCALE
 40
1.0
  9
$PROXYGRAPHICS
 70
     1
  9
$MEASUREMENT
 70
     1
  9
$CELWEIGHT
370
    -1
  9
$ENDCAPS
280
     0
  9
$JOINSTYLE
280
     0
  9
$LWDISPLAY
290
     0
  9
$INSUNITS
 70
     0
  9
$HYPERLINKBASE
  1

  9
$STYLESHEET
  1
Paletti_4V.ctb
  9
$XEDIT
290
     1
  9
$CEPSNTYPE
380
     0
  9
$PSTYLEMODE
290
     1
  9
$FINGERPRINTGUID
  2
{052BE433-8EBC-11D4-B0AB-0050BAC184D1}
  9
$VERSIONGUID
  2
{B5FE7C64-346F-4D37-9A7E-B65A8579DFAA}
  9
$EXTNAMES
290
     1
  9
$PSVPSCALE
 40
0.0
  9
$OLESTARTUP
290
     0
  0
ENDSEC
  0
SECTION
  2
CLASSES
  0
CLASS
  1
ACMESTATEMGR
  2
AcMeStateMgr
  3
AcMeServices
 90
        0
280
     0
281
     0
  0
CLASS
  1
ACMESCOPE
  2
AcMeScope
  3
AcMeServices
 90
        0
280
     0
281
     0
  0
CLASS
  1
ACMECOMMANDHISTORY
  2
AcMeCommandHistory
  3
AcMeServices
 90
        0
280
     0
281
     0
  0
CLASS
  1
ACRFINSADJUSTERMGR
  2
AcRfInsAdjusterMgr
  3
AcMeServices
 90
        0
280
     0
281
     0
  0
CLASS
  1
ACMEDRAWINGMAN
  2
AcMeDrawingMan
  3
AcMeServices
 90
        0
280
     0
281
     0
  0
CLASS
  1
AMATTR
  2
AcMeAttribute
  3
AcMeServices
 90
    32768
280
     0
281
     0
  0
CLASS
  1
ACMEBOMCOLUMN
  2
AcMeBOMColumn
  3
AcMeServices
 90
    32768
280
     0
281
     0
  0
CLASS
  1
ACANBOMCONF
  2
AcMeBOMConf
  3
AcMeServices
 90
    32768
280
     0
281
     0
  0
CLASS
  1
ACMEBOMTABLE
  2
AcMeBOMTable
  3
AcMeServices
 90
    32768
280
     0
281
     0
  0
CLASS
  1
ACMEBOMENTRY
  2
AcMeBOMEntry
  3
AcMeServices
 90
    32768
280
     0
281
     0
  0
CLASS
  1
ACMEVIEW
  2
AcMeView
  3
AcMeServices
 90
    32768
280
     0
281
     0
  0
CLASS
  1
ACGREFMASTER
  2
AcGrefMaster
  3
AcAttribServices
 90
        0
280
     0
281
     0
  0
CLASS
  1
AMIMASTER
  2
AmiMaster
  3
AmiServices
 90
        0
280
     0
281
     0
  0
CLASS
  1
ACASGREFMASTER
  2
AcAsGrefMaster
  3
AutoSurfResolverServices
 90
        0
280
     0
281
     0
  0
CLASS
  1
ADAPPL
  2
AcAdAppl
  3
DesignerServices
 90
        0
280
     0
281
     0
  0
CLASS
  1
DEPMGR
  2
AcAdDepMgr
  3
DesignerServices
 90
        0
280
     0
281
     0
  0
CLASS
  1
PARAMMGR
  2
AcAdParamMgr
  3
DesignerServices
 90
        0
280
     0
281
     0
  0
CLASS
  1
PARAMSCOPE
  2
AcAdParamScope
  3
DesignerServices
 90
        0
280
     0
281
     0
  0
CLASS
  1
ACIMSYSVARMAN
  2
AcImSysVarManager
  3
AcMeServices
 90
        0
280
     0
281
     0
  0
CLASS
  1
ACIMINTSYSVAR
  2
AcImIntSysVar
  3
AcMeServices
 90
        0
280
     0
281
     0
  0
CLASS
  1
ACIMREALSYSVAR
  2
AcImRealSysVar
  3
AcMeServices
 90
        0
280
     0
281
     0
  0
CLASS
  1
ACIMSTRSYSVAR
  2
AcImStrSysVar
  3
AcMeServices
 90
        0
280
     0
281
     0
  0
CLASS
  1
NAMEDAPPL
  2
AcAdNamedAppl
  3
DesignerServices
 90
        0
280
     0
281
     0
  0
CLASS
  1
ADHNTMPLT
  2
AdHoleNoteTemplateMgr
  3
DesignerServices
 90
        0
280
     0
281
     0
  0
CLASS
  1
AM_HNTEMPLATE_MGR_NAME
  2
AdHoleNoteTemplateMgrName
  3
DesignerServices
 90
        0
280
     0
281
     0
  0
CLASS
  1
ACADGREFMODULE
  2
AcAdGrefModule
  3
AdGrefServices
 90
        0
280
     0
281
     0
  0
CLASS
  1
AM_DRAWING_MGR
  2
AcDmDwgMgr
  3
AcMechDwgViewMgmt
 90
        0
280
     0
281
     0
  0
CLASS
  1
AM_DWG_DOCUMENT
  2
AcDmDwgDocument
  3
AcMechDwgViewMgmt
 90
        0
280
     0
281
     0
  0
CLASS
  1
AM_DWG_SHEET
  2
AcDmSheet
  3
AcMechDwgViewMgmt
 90
        0
280
     0
281
     0
  0
CLASS
  1
AM_VIEWDIMPARMAP
  2
AcDmViewDimParMap
  3
AcMechDwgViewMgmt
 90
        0
280
     0
281
     0
  0
CLASS
  1
AM_DWGMGR_NAME
  2
AcDmDwgMgrName
  3
AcMechDwgViewMgmt
 90
        0
280
     0
281
     0
  0
CLASS
  1
ACAMPROJECT
  2
AcAmProject
  3
DesignerAssemblies
 90
        0
280
     0
281
     0
  0
CLASS
  1
ACAMGRCOMPSET
  2
AcAmGrCompSet
  3
DesignerAssemblies
 90
    32768
280
     0
281
     0
  0
CLASS
  1
ACAMGRCOMPDEFSET
  2
AcAmGrCompDefSet
  3
DesignerAssemblies
 90
        0
280
     0
281
     0
  0
CLASS
  1
ACAMGRCOMPDEF
  2
AcAmGrCompDef
  3
DesignerAssemblies
 90
        0
280
     0
281
     0
  0
CLASS
  1
ACCMCONTEXT
  2
AcCmContext
  3
DesignerAssemblies
 90
        0
280
     0
281
     0
  0
CLASS
  1
ACAMCOMPDEF
  2
AcAmCompDef
  3
DesignerAssemblies
 90
        0
280
     0
281
     0
  0
CLASS
  1
ACAMCOMPDEFMGR
  2
AcAmCompDefMgr
  3
DesignerAssemblies
 90
        0
280
     0
281
     0
  0
CLASS
  1
AMCONTEXTMGR
  2
AcAmContextMgr
  3
DesignerAssemblies
 90
        0
280
     0
281
     0
  0
CLASS
  1
ACAMCONTEXTMODELER
  2
AcAmContextModeler
  3
DesignerAssemblies
 90
        0
280
     0
281
     0
  0
CLASS
  1
ACDMVIEWGEOM
  2
AcDmViewGeometry
  3
AcMechDwgViewMgmt
 90
        0
280
     0
281
     1
  0
CLASS
  1
CBROWSERAPPOBJECT
  2
CBrowserAppObject
  3
McadcomServices
 90
        0
280
     0
281
     0
  0
CLASS
  1
IM_STATIC_MAN
  2
AcImStaticVarManager
  3
AcMeServices
 90
        0
280
     0
281
     0
  0
CLASS
  1
ASAPP
  2
AcAsAppObject
  3
AutoSurfServices
 90
        0
280
     0
281
     0
  0
CLASS
  1
ACIMDBLSTATICVAR
  2
AcImDblStaticVar
  3
AcMeServices
 90
        0
280
     0
281
     0
  0
CLASS
  1
ACIMSTRSTATICVAR
  2
AcImStrStaticVar
  3
AcMeServices
 90
        0
280
     0
281
     0
  0
CLASS
  1
ACIMINTSTATICVAR
  2
AcImIntStaticVar
  3
AcMeServices
 90
        0
280
     0
281
     0
  0
CLASS
  1
CATALOGSTATE
  2
AcAmCatalogState
  3
DesignerAssemblies
 90
        0
280
     0
281
     0
  0
CLASS
  1
DM_PLACEHOLDER
  2
AcDmSelsetPlaceholder
  3
AcMechDwgViewMgmt
 90
        0
280
     0
281
     0
  0
CLASS
  1
DICTIONARYVAR
  2
AcDbDictionaryVar
  3
AutoCAD 2000
 90
        0
280
     0
281
     0
  0
CLASS
  1
"COMPDEFATTRARRAY"
  2
CompDefAttr
  3
"GE314"
 90
    32769
280
     0
281
     0
  0
CLASS
  1
AGDICTIONARY
  2
AgDictionary
  3
"AccelView"
 90
    32769
280
     0
281
     0
  0
CLASS
  1
XRECORD
  2
AcDbXrecord
  3
AutoCAD 2000
 90
    32768
280
     0
281
     0
  0
CLASS
  1
LAYER_INDEX
  2
AcDbLayerIndex
  3
AutoCAD 2000
 90
        0
280
     0
281
     0
  0
CLASS
  1
IDBUFFER
  2
AcDbIdBuffer
  3
AutoCAD 2000
 90
        0
280
     0
281
     0
  0
CLASS
  1
ACMSTANDARDJIS
  2
AcmStandardJIS
  3
"AcmSymBB|Product Description: AutoCAD Mechanical 2000|Company: Autodesk"
 90
        0
280
     0
281
     0
  0
CLASS
  1
ACMSTANDARDANSI
  2
AcmStandardANSI
  3
"AcmSymBB|Product Description: AutoCAD Mechanical 2000|Company: Autodesk"
 90
        0
280
     0
281
     0
  0
CLASS
  1
ACMSTANDARDBSI
  2
AcmStandardBSI
  3
"AcmSymBB|Product Description: AutoCAD Mechanical 2000|Company: Autodesk"
 90
        0
280
     0
281
     0
  0
CLASS
  1
ACMSTANDARDDIN
  2
AcmStandardDIN
  3
"AcmSymBB|Product Description: AutoCAD Mechanical 2000|Company: Autodesk"
 90
        0
280
     0
281
     0
  0
CLASS
  1
ACMSTANDARDISO
  2
AcmStandardISO
  3
"AcmSymBB|Product Description: AutoCAD Mechanical 2000|Company: Autodesk"
 90
        0
280
     0
281
     0
  0
CLASS
  1
ACRFATTGENMGR
  2
AcRfAttGeneralMgr
  3
AcAttribServices
 90
        0
280
     0
281
     0
  0
CLASS
  1
ACDBDICTIONARYWDFLT
  2
AcDbDictionaryWithDefault
  3
AutoCAD 2000
 90
        0
280
     0
281
     0
  0
CLASS
  1
ACDBPLACEHOLDER
  2
AcDbPlaceHolder
  3
AutoCAD 2000
 90
        0
280
     0
281
     0
  0
CLASS
  1
LAYOUT
  2
AcDbLayout
  3
AutoCAD 2000
 90
        0
280
     0
281
     0
  0
CLASS
  1
ACME_DOCUMENT
  2
AcMeDbDoc
  3
AcMeServices
 90
        0
280
     0
281
     0
  0
CLASS
  1
AMGSETTINGSOBJ
  2
AmgSettingsObj
  3
"AcadM|Product Description: AutoCAD Mechanical 2000|Company: Autodesk"
 90
        0
280
     0
281
     0
  0
CLASS
  1
AMGOBJPROPCFG
  2
AmgObjPropCfg
  3
"AmgLay|Product Description: AutoCAD Mechanical 2000|Company: Autodesk"
 90
        1
280
     0
281
     0
  0
CLASS
  1
ACDBENTITYCACHE
  2
AcMeEntityCache
  3
AcMeServices
 90
        0
280
     0
281
     0
  0
CLASS
  1
GSMANAGER
  2
AcMeGSManager
  3
AcMeServices
 90
        0
280
     0
281
     0
  0
CLASS
  1
AmdtInternalReactor
  2
AmdtInternalReactor
  3
AcMeServices
 90
        0
280
     0
281
     0
  0
CLASS
  1
ACME_DATABASE
  2
AcMeDbDatabase
  3
AcMeServices
 90
        0
280
     0
281
     0
  0
CLASS
  1
ACGREFMASTER
  2
AcGrefacadMaster
  3
AcGrefServices
 90
        0
280
     0
281
     0
  0
CLASS
  1
AMDTMENUSTATEMGR
  2
AmdtMenuStateMgr
  3
McadcomServices
 90
        0
280
     0
281
     0
  0
CLASS
  1
AMDTMCOMMENUSTATE
  2
AmdtMcomMenuState
  3
McadcomServices
 90
        0
280
     0
281
     0
  0
CLASS
  1
MAPIAMMOUDLE
  2
MApiAmModule
  3
MApiAmServices
 90
        0
280
     0
281
     0
  0
CLASS
  1
AMDTDMMENUSTATE
  2
AmdtDmMenuState
  3
AcMechDwgViewMgmt
 90
        0
280
     0
281
     0
  0
CLASS
  1
AMDTADMENUSTATE
  2
AmdtAdMenuState
  3
DesignerServices
 90
        0
280
     0
281
     0
  0
CLASS
  1
AMDTAMMENUSTATE
  2
AmdtAmMenuState
  3
DesignerAssemblies
 90
        0
280
     0
281
     0
  0
CLASS
  1
MAPIADMODULE
  2
MApiAdModule
  3
MApiAdServices
 90
        0
280
     0
281
     0
  0
CLASS
  1
ACMDATADICTIONARY
  2
AcmDataDictionary
  3
"AcmSymBB|Product Description: AutoCAD Mechanical 2000|Company: Autodesk"
 90
        0
280
     0
281
     0
  0
CLASS
  1
ACMDATAENTRYBLOCK
  2
AcmDataEntryBlock
  3
"AcmSymBB|Product Description: AutoCAD Mechanical 2000|Company: Autodesk"
 90
        0
280
     0
281
     0
  0
CLASS
  1
ACMSURFSTANDARDJIS
  2
AcmSurfTextStdJIS
  3
"AcmSymBB|Product Description: AutoCAD Mechanical 2000|Company: Autodesk"
 90
        0
280
     0
281
     0
  0
CLASS
  1
ACMFCFSTANDARDJIS
  2
AcmFCFStdJIS
  3
"AcmSymBB|Product Description: AutoCAD Mechanical 2000|Company: Autodesk"
 90
        0
280
     0
281
     0
  0
CLASS
  1
ACMWELDSTANDARDJIS
  2
AcmWeldingStdJIS
  3
"AcmSymBB|Product Description: AutoCAD Mechanical 2000|Company: Autodesk"
 90
        0
280
     0
281
     0
  0
CLASS
  1
ACMIDSTANDARDJIS
  2
AcmIdStdJIS
  3
"AcmSymBB|Product Description: AutoCAD Mechanical 2000|Company: Autodesk"
 90
        0
280
     0
281
     0
  0
CLASS
  1
ACMDATUMSTANDARDJIS
  2
AcmDatumStdJIS
  3
"AcmSymBB|Product Description: AutoCAD Mechanical 2000|Company: Autodesk"
 90
        0
280
     0
281
     0
  0
CLASS
  1
ACMBOMSTANDARDJIS
  2
AcmBOMStdJIS
  3
"AcmSymBB|Product Description: AutoCAD Mechanical 2000|Company: Autodesk"
 90
        0
280
     0
281
     0
  0
CLASS
  1
ACMSURFSTANDARDANSI
  2
AcmSurfTextStdANSI
  3
"AcmSymBB|Product Description: AutoCAD Mechanical 2000|Company: Autodesk"
 90
        0
280
     0
281
     0
  0
CLASS
  1
ACMFCFSTANDARDANSI
  2
AcmFCFStdANSI
  3
"AcmSymBB|Product Description: AutoCAD Mechanical 2000|Company: Autodesk"
 90
        0
280
     0
281
     0
  0
CLASS
  1
ACMWELDSTANDARDANSI
  2
AcmWeldingStdANSI
  3
"AcmSymBB|Product Description: AutoCAD Mechanical 2000|Company: Autodesk"
 90
        0
280
     0
281
     0
  0
CLASS
  1
ACMIDSTANDARDANSI
  2
AcmIdStdANSI
  3
"AcmSymBB|Product Description: AutoCAD Mechanical 2000|Company: Autodesk"
 90
        0
280
     0
281
     0
  0
CLASS
  1
ACMDATUMSTANDARDANSI
  2
AcmDatumStdANSI
  3
"AcmSymBB|Product Description: AutoCAD Mechanical 2000|Company: Autodesk"
 90
        0
280
     0
281
     0
  0
CLASS
  1
ACMBOMSTANDARDANSI
  2
AcmBOMStdANSI
  3
"AcmSymBB|Product Description: AutoCAD Mechanical 2000|Company: Autodesk"
 90
        0
280
     0
281
     0
  0
CLASS
  1
ACMSURFSTANDARDBSI
  2
AcmSurfTextStdBSI
  3
"AcmSymBB|Product Description: AutoCAD Mechanical 2000|Company: Autodesk"
 90
        0
280
     0
281
     0
  0
CLASS
  1
ACMFCFSTANDARDBSI
  2
AcmFCFStdBSI
  3
"AcmSymBB|Product Description: AutoCAD Mechanical 2000|Company: Autodesk"
 90
        0
280
     0
281
     0
  0
CLASS
  1
ACMWELDSTANDARDBSI
  2
AcmWeldingStdBSI
  3
"AcmSymBB|Product Description: AutoCAD Mechanical 2000|Company: Autodesk"
 90
        0
280
     0
281
     0
  0
CLASS
  1
ACMIDSTANDARDBSI
  2
AcmIdStdBSI
  3
"AcmSymBB|Product Description: AutoCAD Mechanical 2000|Company: Autodesk"
 90
        0
280
     0
281
     0
  0
CLASS
  1
ACMDATUMSTANDARDBSI
  2
AcmDatumStdBSI
  3
"AcmSymBB|Product Description: AutoCAD Mechanical 2000|Company: Autodesk"
 90
        0
280
     0
281
     0
  0
CLASS
  1
ACMBOMSTANDARDBSI
  2
AcmBOMStdBSI
  3
"AcmSymBB|Product Description: AutoCAD Mechanical 2000|Company: Autodesk"
 90
        0
280
     0
281
     0
  0
CLASS
  1
AMDTEDGESTANDARDDIN
  2
AmdtEdgeStdDIN
  3
"AcmSymBB|Product Description: AutoCAD Mechanical 2000|Company: Autodesk"
 90
        0
280
     0
281
     0
  0
CLASS
  1
ACMSURFSTANDARDDIN
  2
AcmSurfTextStdDIN
  3
"AcmSymBB|Product Description: AutoCAD Mechanical 2000|Company: Autodesk"
 90
        0
280
     0
281
     0
  0
CLASS
  1
ACMFCFSTANDARDDIN
  2
AcmFCFStdDIN
  3
"AcmSymBB|Product Description: AutoCAD Mechanical 2000|Company: Autodesk"
 90
        0
280
     0
281
     0
  0
CLASS
  1
ACMWELDSTANDARDDIN
  2
AcmWeldingStdDIN
  3
"AcmSymBB|Product Description: AutoCAD Mechanical 2000|Company: Autodesk"
 90
        0
280
     0
281
     0
  0
CLASS
  1
ACMIDSTANDARDDIN
  2
AcmIdStdDIN
  3
"AcmSymBB|Product Description: AutoCAD Mechanical 2000|Company: Autodesk"
 90
        0
280
     0
281
     0
  0
CLASS
  1
ACMDATUMSTANDARDDIN
  2
AcmDatumStdDIN
  3
"AcmSymBB|Product Description: AutoCAD Mechanical 2000|Company: Autodesk"
 90
        0
280
     0
281
     0
  0
CLASS
  1
ACMBOMSTANDARDDIN
  2
AcmBOMStdDIN
  3
"AcmSymBB|Product Description: AutoCAD Mechanical 2000|Company: Autodesk"
 90
        0
280
     0
281
     0
  0
CLASS
  1
AMDTEDGESTANDARDISO
  2
AmdtEdgeStdISO
  3
"AcmSymBB|Product Description: AutoCAD Mechanical 2000|Company: Autodesk"
 90
        0
280
     0
281
     0
  0
CLASS
  1
ACMSURFSTANDARDISO
  2
AcmSurfTextStdISO
  3
"AcmSymBB|Product Description: AutoCAD Mechanical 2000|Company: Autodesk"
 90
        0
280
     0
281
     0
  0
CLASS
  1
ACMFCFSTANDARDISO
  2
AcmFCFStdISO
  3
"AcmSymBB|Product Description: AutoCAD Mechanical 2000|Company: Autodesk"
 90
        0
280
     0
281
     0
  0
CLASS
  1
ACMWELDSTANDARDISO
  2
AcmWeldingStdISO
  3
"AcmSymBB|Product Description: AutoCAD Mechanical 2000|Company: Autodesk"
 90
        0
280
     0
281
     0
  0
CLASS
  1
ACMIDSTANDARDISO
  2
AcmIdStdISO
  3
"AcmSymBB|Product Description: AutoCAD Mechanical 2000|Company: Autodesk"
 90
        0
280
     0
281
     0
  0
CLASS
  1
ACMDATUMSTANDARDISO
  2
AcmDatumStdISO
  3
"AcmSymBB|Product Description: AutoCAD Mechanical 2000|Company: Autodesk"
 90
        0
280
     0
281
     0
  0
CLASS
  1
ACMBOMSTANDARDISO
  2
AcmBOMStdISO
  3
"AcmSymBB|Product Description: AutoCAD Mechanical 2000|Company: Autodesk"
 90
        0
280
     0
281
     0
  0
CLASS
  1
AMDTBROWSERDBTAB
  2
AmdtBrowserDbTab
  3
McadcomServices
 90
        0
280
     0
281
     0
  0
CLASS
  1
ACAMGFILTERDAT
  2
AcAmgFilterDat
  3
"AcadM|Product Description: AutoCAD Mechanical 2000|Company: Autodesk"
 90
        0
280
     0
281
     0
  0
CLASS
  1
ACCMBODY
  2
AcCmBody
  3
DesignerAssemblies
 90
    32768
280
     0
281
     0
  0
CLASS
  1
ACAMCOMPENT
  2
AcAmCompEnt
  3
DesignerAssemblies
 90
    32768
280
     0
281
     1
  0
CLASS
  1
ACAMCOMPFEEDBACK
  2
AcAmCompFeedback
  3
DesignerAssemblies
 90
    32768
280
     0
281
     0
  0
CLASS
  1
ACAMCOMP
  2
AcAmComp
  3
DesignerAssemblies
 90
    32768
280
     0
281
     0
  0
CLASS
  1
ACAMCOMPENTCLONE
  2
AcAmCompEntClone
  3
DesignerAssemblies
 90
    32768
280
     0
281
     1
  0
CLASS
  1
ACAMCLONEREACTOR
  2
AcAmGrCompCloneReactor
  3
DesignerAssemblies
 90
    32768
280
     0
281
     0
  0
ENDSEC
  0
SECTION
  2
TABLES
  0
TABLE
  2
VPORT
  5
8
330
0
100
AcDbSymbolTable
 70
     4
  0
VPORT
  5
1774
330
8
100
AcDbSymbolTableRecord
100
AcDbViewportTableRecord
  2
*Active
 70
     0
 10
0.0
 20
0.0
 11
1.0
 21
1.0
 12
2.284174621661235
 22
2.16165483976323
 13
0.0
 23
0.0
 14
5.0
 24
5.0
 15
5.0
 25
5.0
 16
0.0
 26
0.0
 36
1.0
 17
0.0
 27
0.0
 37
0.0
 40
96.33227012751309
 41
1.294642857142857
 42
50.0
 43
0.0
 44
0.0
 50
0.0
 51
0.0
 71
     0
 72
 20000
 73
     1
 74
     3
 75
     0
 76
     0
 77
     0
 78
     0
281
     0
 65
     1
110
0.0
120
0.0
130
0.0
111
1.0
121
0.0
131
0.0
112
0.0
122
1.0
132
0.0
 79
     0
146
0.0
  0
ENDTAB
  0
TABLE
  2
LTYPE
  5
5
330
0
100
AcDbSymbolTable
 70
    32
  0
LTYPE
  5
14
330
5
100
AcDbSymbolTableRecord
100
AcDbLinetypeTableRecord
  2
BYBLOCK
 70
     0
  3

 72
    65
 73
     0
 40
0.0
  0
LTYPE
  5
15
330
5
100
AcDbSymbolTableRecord
100
AcDbLinetypeTableRecord
  2
BYLAYER
 70
     0
  3

 72
    65
 73
     0
 40
0.0
  0
LTYPE
  5
16
330
5
100
AcDbSymbolTableRecord
100
AcDbLinetypeTableRecord
  2
CONTINUOUS
 70
     0
  3
Solid line
 72
    65
 73
     0
 40
0.0
  0
LTYPE
  5
F8C
330
5
100
AcDbSymbolTableRecord
100
AcDbLinetypeTableRecord
  2
PHANTOM2
 70
     0
  3
___ _ _ ___ _ _ ___ _ _ ___ _ _ ___ _ _ ___ _ _
 72
    65
 73
     6
 40
1.25
 49
0.625
 74
     0
 49
-0.125
 74
     0
 49
0.125
 74
     0
 49
-0.125
 74
     0
 49
0.125
 74
     0
 49
-0.125
 74
     0
  0
LTYPE
  5
FF7
330
5
100
AcDbSymbolTableRecord
100
AcDbLinetypeTableRecord
  2
GEN3
 70
     0
  3
-- -- -- -- -- -- -- -- -- -- -- -- -- -- --
 72
    65
 73
     2
 40
6.25
 49
4.75
 74
     0
 49
-1.5
 74
     0
  0
LTYPE
  5
FFC
330
5
100
AcDbSymbolTableRecord
100
AcDbLinetypeTableRecord
  2
GEN7
 70
     0
  3
____ . ____ . ____ . ____ . ____ . ____ . ____
 72
    65
 73
     4
 40
13.75
 49
9.75
 74
     0
 49
-1.5
 74
     0
 49
1.0
 74
     0
 49
-1.5
 74
     0
  0
LTYPE
  5
1103
330
5
100
AcDbSymbolTableRecord
100
AcDbLinetypeTableRecord
  2
ACJISTGB
 70
     0
  3
__ . . __ . .
 72
    65
 73
     6
 40
9.0
 49
4.0
 74
     0
 49
-1.0
 74
     0
 49
1.0
 74
     0
 49
-1.0
 74
     0
 49
1.0
 74
     0
 49
-1.0
 74
     0
  0
LTYPE
  5
1104
330
5
100
AcDbSymbolTableRecord
100
AcDbLinetypeTableRecord
  2
ACJISTGL
 70
     0
  3
_ _ _ _ _
 72
    65
 73
     2
 40
3.0
 49
2.0
 74
     0
 49
-1.0
 74
     0
  0
LTYPE
  5
1107
330
5
100
AcDbSymbolTableRecord
100
AcDbLinetypeTableRecord
  2
ACANSTGB
 70
     0
  3
__ . . __ . .
 72
    65
 73
     6
 40
0.35433070866
 49
0.15748031496
 74
     0
 49
-0.03937007874
 74
     0
 49
0.03937007874
 74
     0
 49
-0.03937007874
 74
     0
 49
0.03937007874
 74
     0
 49
-0.03937007874
 74
     0
  0
LTYPE
  5
1108
330
5
100
AcDbSymbolTableRecord
100
AcDbLinetypeTableRecord
  2
ACANSTGL
 70
     0
  3
_ _ _ _ _
 72
    65
 73
     2
 40
0.11811023622
 49
0.07874015748
 74
     0
 49
-0.03937007874
 74
     0
  0
LTYPE
  5
110B
330
5
100
AcDbSymbolTableRecord
100
AcDbLinetypeTableRecord
  2
ACBSIWELD
 70
     0
  3
_ _ _ _ _
 72
    65
 73
     2
 40
2.0
 49
2.0
 74
     0
 49
-1.0
 74
     0
  0
LTYPE
  5
110C
330
5
100
AcDbSymbolTableRecord
100
AcDbLinetypeTableRecord
  2
ACBSITGB
 70
     0
  3
__ . . __ . .
 72
    65
 73
     6
 40
9.0
 49
4.0
 74
     0
 49
-1.0
 74
     0
 49
1.0
 74
     0
 49
-1.0
 74
     0
 49
1.0
 74
     0
 49
-1.0
 74
     0
  0
LTYPE
  5
110D
330
5
100
AcDbSymbolTableRecord
100
AcDbLinetypeTableRecord
  2
ACBSITGL
 70
     0
  3
_ _ _ _ _
 72
    65
 73
     2
 40
3.0
 49
2.0
 74
     0
 49
-1.0
 74
     0
  0
LTYPE
  5
1110
330
5
100
AcDbSymbolTableRecord
100
AcDbLinetypeTableRecord
  2
ACDINWELD
 70
     0
  3
_ _ _ _ _
 72
    65
 73
     2
 40
2.0
 49
2.0
 74
     0
 49
-1.0
 74
     0
  0
LTYPE
  5
1111
330
5
100
AcDbSymbolTableRecord
100
AcDbLinetypeTableRecord
  2
ACDINTGB
 70
     0
  3
__ . . __ . .
 72
    65
 73
     6
 40
9.0
 49
4.0
 74
     0
 49
-1.0
 74
     0
 49
1.0
 74
     0
 49
-1.0
 74
     0
 49
1.0
 74
     0
 49
-1.0
 74
     0
  0
LTYPE
  5
1112
330
5
100
AcDbSymbolTableRecord
100
AcDbLinetypeTableRecord
  2
ACDINTGL
 70
     0
  3
_ _ _ _ _
 72
    65
 73
     2
 40
3.0
 49
2.0
 74
     0
 49
-1.0
 74
     0
  0
LTYPE
  5
1115
330
5
100
AcDbSymbolTableRecord
100
AcDbLinetypeTableRecord
  2
ACISOWELD
 70
     0
  3
_ _ _ _ _
 72
    65
 73
     2
 40
2.0
 49
2.0
 74
     0
 49
-1.0
 74
     0
  0
LTYPE
  5
1116
330
5
100
AcDbSymbolTableRecord
100
AcDbLinetypeTableRecord
  2
ACISOTGB
 70
     0
  3
__ . . __ . .
 72
    65
 73
     6
 40
9.0
 49
4.0
 74
     0
 49
-1.0
 74
     0
 49
1.0
 74
     0
 49
-1.0
 74
     0
 49
1.0
 74
     0
 49
-1.0
 74
     0
  0
LTYPE
  5
1117
330
5
100
AcDbSymbolTableRecord
100
AcDbLinetypeTableRecord
  2
ACISOTGL
 70
     0
  3
_ _ _ _ _
 72
    65
 73
     2
 40
3.0
 49
2.0
 74
     0
 49
-1.0
 74
     0
  0
LTYPE
  5
1271
330
5
100
AcDbSymbolTableRecord
100
AcDbLinetypeTableRecord
  2
HIDDEN
 70
     0
  3
Verdeckt
 72
    65
 73
     2
 40
9.525
 49
6.349999999999999
 74
     0
 49
-3.174999999999999
 74
     0
  0
LTYPE
  5
1272
330
5
100
AcDbSymbolTableRecord
100
AcDbLinetypeTableRecord
  2
CENTER
 70
     0
  3
Mitte ____ _ ____ _ ____ _ ____ _ ____ _ ____
 72
    65
 73
     4
 40
50.8
 49
31.75
 74
     0
 49
-6.349999999999999
 74
     0
 49
6.349999999999999
 74
     0
 49
-6.349999999999999
 74
     0
  0
LTYPE
  5
127F
330
5
100
AcDbSymbolTableRecord
100
AcDbLinetypeTableRecord
  2
gen3a
 70
     0
  3
 - - - - -
 72
    65
 73
     2
 40
3.125
 49
2.25
 74
     0
 49
-0.875
 74
     0
  0
LTYPE
  5
1280
330
5
100
AcDbSymbolTableRecord
100
AcDbLinetypeTableRecord
  2
gen7a
 70
     0
  3
__ . __ . __
 72
    65
 73
     4
 40
6.875
 49
4.75
 74
     0
 49
-0.875
 74
     0
 49
0.375
 74
     0
 49
-0.875
 74
     0
  0
LTYPE
  5
1281
330
5
100
AcDbSymbolTableRecord
100
AcDbLinetypeTableRecord
  2
gen4a
 70
     0
  3
_____ . . _____ . . _____ . . ____ .. ____
 72
    65
 73
     6
 40
16.25
 49
9.75
 74
     0
 49
-1.5
 74
     0
 49
1.0
 74
     0
 49
-1.5
 74
     0
 49
1.0
 74
     0
 49
-1.5
 74
     0
  0
LTYPE
  5
1284
330
5
100
AcDbSymbolTableRecord
100
AcDbLinetypeTableRecord
  2
genzigzag
 70
     0
  3
/\/-/\/-/\/-/\/-/\/-/\/
 72
    65
 73
     2
 40
12.0001
 49
0.0001
 74
     4
 75
   135
340
1283
 46
2.0
 50
0.0
 44
0.0
 45
0.0
 49
-12.0
 74
     0
  0
LTYPE
  5
13B1
330
5
100
AcDbSymbolTableRecord
100
AcDbLinetypeTableRecord
  2
AM_DIN_G_W050x2
 70
     0
  3
__ . __ . __ . __ . __ . __
 72
    65
 73
     4
 40
6.875
 49
4.75
 74
     0
 49
-0.875
 74
     0
 49
0.375
 74
     0
 49
-0.875
 74
     0
  0
LTYPE
  5
16CB
330
5
100
AcDbSymbolTableRecord
100
AcDbLinetypeTableRecord
  2
ASULTYPE
 70
     0
  3
Ausgezogene Linie
 72
    65
 73
     2
 40
3.0
 49
2.5
 74
     0
 49
0.5
 74
     0
  0
LTYPE
  5
16CC
330
5
100
AcDbSymbolTableRecord
100
AcDbLinetypeTableRecord
  2
ASVLTYPE
 70
     0
  3
__ __ __ __ __ __ __ __ __ __ __ __ __ __ __ __ __ __ __ __ __
 72
    65
 73
     2
 40
0.75
 49
0.5
 74
     0
 49
-0.25
 74
     0
  0
LTYPE
  5
1707
330
5
100
AcDbSymbolTableRecord
100
AcDbLinetypeTableRecord
  2
Amconstr
 70
     0
  3
_______________________
 72
    65
 73
     2
 40
9999.0
 49
9999.0
 74
     0
 49
0.0
 74
     0
  0
LTYPE
  5
1708
330
5
100
AcDbSymbolTableRecord
100
AcDbLinetypeTableRecord
  2
Amzigzag
 70
     0
  3
/\/-/\/-/\/-/\/-/\/-/\/
 72
    65
 73
     2
 40
11.00009999999999
 49
0.0001
 74
     4
 75
   135
340
170E
 46
0.04
 50
0.0
 44
0.0
 45
0.0
 49
-11.0
 74
     0
  0
LTYPE
  5
1709
330
5
100
AcDbSymbolTableRecord
100
AcDbLinetypeTableRecord
  2
AM_DIN_F_W050
 70
     0
  3
__ __ __ __ __ __ __ __ __ __ __ __ __ __ __
 72
    65
 73
     2
 40
6.25
 49
4.75
 74
     0
 49
-1.5
 74
     0
  0
LTYPE
  5
170A
330
5
100
AcDbSymbolTableRecord
100
AcDbLinetypeTableRecord
  2
AM_DIN_G_W050
 70
     0
  3
____ . ____ . ____ . ____ . ____ . ____ . ____
 72
    65
 73
     4
 40
13.75
 49
9.75
 74
     0
 49
-1.5
 74
     0
 49
1.0
 74
     0
 49
-1.5
 74
     0
  0
LTYPE
  5
170B
330
5
100
AcDbSymbolTableRecord
100
AcDbLinetypeTableRecord
  2
AM_DIN_K_W050
 70
     0
  3
_____ . . _____ . . _____ . . ____ .. ____
 72
    65
 73
     6
 40
16.25
 49
9.75
 74
     0
 49
-1.5
 74
     0
 49
1.0
 74
     0
 49
-1.5
 74
     0
 49
1.0
 74
     0
 49
-1.5
 74
     0
  0
LTYPE
  5
170C
330
5
100
AcDbSymbolTableRecord
100
AcDbLinetypeTableRecord
  2
AM_DIN_F_W050x2
 70
     0
  3
 _ _ _ _ _ _ _ _ _ _ _ _
 72
    65
 73
     2
 40
3.125
 49
2.25
 74
     0
 49
-0.875
 74
     0
  0
ENDTAB
  0
TABLE
  2
LAYER
  5
2
330
0
100
AcDbSymbolTable
 70
     7
  0
LAYER
  5
F
330
2
100
AcDbSymbolTableRecord
100
AcDbLayerTableRecord
  2
0
 70
     0
 62
     7
  6
CONTINUOUS
370
    -3
390
11EB
  0
LAYER
  5
35
330
2
100
AcDbSymbolTableRecord
100
AcDbLayerTableRecord
  2
Dimension2_Bemaßung2
 70
     0
 62
     1
  6
CONTINUOUS
370
    -3
390
11EB
  0
LAYER
  5
3D
330
2
100
AcDbSymbolTableRecord
100
AcDbLayerTableRecord
  2
2D_Profile
 70
     0
 62
     5
  6
CONTINUOUS
370
    -3
390
11EB
  0
LAYER
  5
48
330
2
100
AcDbSymbolTableRecord
100
AcDbLayerTableRecord
  2
Center of gravity_Schwerpunkt
 70
     0
 62
     7
  6
AM_DIN_G_W050x2
370
    -3
390
11EB
  0
LAYER
  5
165
330
2
100
AcDbSymbolTableRecord
100
AcDbLayerTableRecord
  2
Defpoints
 70
     0
 62
     6
  6
CONTINUOUS
290
     0
370
    -3
390
11EB
  0
LAYER
  5
234
330
2
100
AcDbSymbolTableRecord
100
AcDbLayerTableRecord
  2
Dimension1_Bemaßung1
 70
     0
 62
     1
  6
CONTINUOUS
370
    -3
390
11EB
  0
LAYER
  5
170D
330
2
100
AcDbSymbolTableRecord
100
AcDbLayerTableRecord
  2
AM_0
 70
     0
 62
     7
  6
CONTINUOUS
370
    50
390
11EB
  0
ENDTAB
  0
TABLE
  2
STYLE
  5
3
330
0
100
AcDbSymbolTable
 70
    13
  0
STYLE
  5
10
330
3
100
AcDbSymbolTableRecord
100
AcDbTextStyleTableRecord
  2
STANDARD
 70
     0
 40
0.0
 41
1.0
 50
0.0
 71
     0
 42
2.5
  3
ISOCP
  4

  0
STYLE
  5
1101
330
3
100
AcDbSymbolTableRecord
100
AcDbTextStyleTableRecord
  2
ACJISTS
 70
     0
 40
1.0
 41
1.0
 50
0.0
 71
     0
 42
2.5
  3
isocp.shx
  4
bigfont.shx
  0
STYLE
  5
1102
330
3
100
AcDbSymbolTableRecord
100
AcDbTextStyleTableRecord
  2
ACJISGDT
 70
     0
 40
0.0
 41
1.0
 50
0.0
 71
     0
 42
2.5
  3
amgdt.shx
  4

  0
STYLE
  5
1105
330
3
100
AcDbSymbolTableRecord
100
AcDbTextStyleTableRecord
  2
ACANSTSB
 70
     0
 40
1.0
 41
1.0
 50
0.0
 71
     0
 42
2.5
  3
romans.shx
  4

  0
STYLE
  5
1106
330
3
100
AcDbSymbolTableRecord
100
AcDbTextStyleTableRecord
  2
ACANSGDT
 70
     0
 40
0.0
 41
1.0
 50
0.0
 71
     0
 42
2.5
  3
amgdt.shx
  4

  0
STYLE
  5
1109
330
3
100
AcDbSymbolTableRecord
100
AcDbTextStyleTableRecord
  2
ACBSITS
 70
     0
 40
1.0
 41
1.0
 50
0.0
 71
     0
 42
2.5
  3
isocp.shx
  4

  0
STYLE
  5
110A
330
3
100
AcDbSymbolTableRecord
100
AcDbTextStyleTableRecord
  2
ACBSIGDT
 70
     0
 40
0.0
 41
1.0
 50
0.0
 71
     0
 42
2.5
  3
amgdt.shx
  4

  0
STYLE
  5
110E
330
3
100
AcDbSymbolTableRecord
100
AcDbTextStyleTableRecord
  2
ACDINTS
 70
     0
 40
1.0
 41
1.0
 50
0.0
 71
     0
 42
2.5
  3
isocp.shx
  4

  0
STYLE
  5
110F
330
3
100
AcDbSymbolTableRecord
100
AcDbTextStyleTableRecord
  2
ACDINGDT
 70
     0
 40
0.0
 41
1.0
 50
0.0
 71
     0
 42
2.5
  3
amgdt.shx
  4

  0
STYLE
  5
1113
330
3
100
AcDbSymbolTableRecord
100
AcDbTextStyleTableRecord
  2
ACISOTS
 70
     0
 40
1.0
 41
1.0
 50
0.0
 71
     0
 42
2.5
  3
isocp.shx
  4

  0
STYLE
  5
1114
330
3
100
AcDbSymbolTableRecord
100
AcDbTextStyleTableRecord
  2
ACISOGDT
 70
     0
 40
0.0
 41
1.0
 50
0.0
 71
     0
 42
2.5
  3
amgdt.shx
  4

  0
STYLE
  5
1283
330
3
100
AcDbSymbolTableRecord
100
AcDbTextStyleTableRecord
  2

 70
     1
 40
0.0
 41
1.0
 50
0.0
 71
     0
 42
2.5
  3
genltshp.shx
  4

  0
STYLE
  5
170E
330
3
100
AcDbSymbolTableRecord
100
AcDbTextStyleTableRecord
  2

 70
     1
 40
0.0
 41
1.0
 50
0.0
 71
     0
 42
2.5
  3
ltypeshp.shx
  4

  0
ENDTAB
  0
TABLE
  2
VIEW
  5
6
330
0
100
AcDbSymbolTable
 70
     0
  0
ENDTAB
  0
TABLE
  2
UCS
  5
7
330
0
100
AcDbSymbolTable
 70
     0
  0
ENDTAB
  0
TABLE
  2
APPID
  5
9
330
0
100
AcDbSymbolTable
 70
    27
  0
APPID
  5
11
330
9
100
AcDbSymbolTableRecord
100
AcDbRegAppTableRecord
  2
ACAD
 70
     0
  0
APPID
  5
F4A
330
9
100
AcDbSymbolTableRecord
100
AcDbRegAppTableRecord
  2
MCAD_NO_VIS
 70
     0
  0
APPID
  5
F99
330
9
100
AcDbSymbolTableRecord
100
AcDbRegAppTableRecord
  2
AD_DRAW
 70
     0
  0
APPID
  5
FB3
330
9
100
AcDbSymbolTableRecord
100
AcDbRegAppTableRecord
  2
DESIGNERASSEMBLIES
 70
     0
  0
APPID
  5
FED
330
9
100
AcDbSymbolTableRecord
100
AcDbRegAppTableRecord
  2
ASURF_PCURVE_APPNAME
 70
     0
  0
APPID
  5
FFE
330
9
100
AcDbSymbolTableRecord
100
AcDbRegAppTableRecord
  2
GENIUS_GENCFG_13
 70
     0
1001
GENIUS_GE3CFG0_13
1000
GE3
1001
GENIUS_GENCFG0_13
1000
GEN@INFO_POS@XLATE
1001
GENIUS_GENCFG1_13
1000
GEN@INFO_POS
1001
GENIUS_GENCFG2_13
1000
GEN@LAYER@DEFS
1001
GENIUS_GENCFG3_13
1000
GEN@LAYER@ENTSORT
1001
GENIUS_GENCFG4_13
1000
GEN
1001
GENIUS_GEVCFG0_13
1000
GEV
  0
APPID
  5
FFF
330
9
100
AcDbSymbolTableRecord
100
AcDbRegAppTableRecord
  2
GENIUS_GE3CFG0_13
 70
     0
1001
GENIUS_GENCFG_13
1071
912092035
1000
FFF
1000
GE3
1070
     2
1000
GenCfgObject
1000
GenCfgShort
1000
Dimension
1070
     0
1002
{
1000
RefDimEnhance
1070
     1
1070
     1
1002
{
1002
}
1000
RefDim
1070
     0
1002
{
1000
DIMCLRD
1070
     1
1070
     4
1002
{
1002
}
1002
}
1002
}
1000
Drawing
1070
     0
1002
{
1000
MSpace3D
1070
     1
1070
     1
1002
{
1002
}
1000
UpdateList
1070
     1
1070
     1
1002
{
1002
}
1002
}
1000
Shaft
1070
     0
1002
{
1002
}
1000
View
1070
     0
1002
{
1002
}
  0
APPID
  5
1000
330
9
100
AcDbSymbolTableRecord
100
AcDbRegAppTableRecord
  2
GENIUS_GENCFG0_13
 70
     0
1001
GENIUS_GENCFG_13
1071
912092035
1000
1000
1000
GEN@INFO_POS@XLATE
1070
     7
1000
GenCfgObject
1000
GenCfgShort
1000
GenCfgReal
1000
GenCfgBool
1000
GenCfgString
1000
GenCfgDim
1000
GenCfgAttrInf
1000
INFOPOINTS
1070
     0
1002
{
1000
GENINF14
1070
     0
1002
{
1000
2GENINF
1070
     4
1000
2
1002
{
1002
}
1000
3GENINF
1070
     4
1000
3
1002
{
1002
}
1000
4GENINF
1070
     4
1000
4
1002
{
1002
}
1000
5GENINF
1070
     4
1000
5
1002
{
1002
}
1000
6GENINF
1070
     4
1000
6
1002
{
1002
}
1000
7GENINF
1070
     4
1000
7
1002
{
1002
}
1000
8GENINF
1070
     4
1000
8
1002
{
1002
}
1000
9GENINF
1070
     4
1000
9
1002
{
1002
}
1000
10GENINF
1070
     4
1000
10
1002
{
1002
}
1000
11GENINF
1070
     4
1000
11
1002
{
1002
}
1000
12GENINF
1070
     4
1000
12
1002
{
1002
}
1000
13GENINF
1070
     4
1000
13
1002
{
1002
}
1000
14GENINF
1070
     4
1000
14
1002
{
1002
}
1000
15GENINF
1070
     4
1000
15
1002
{
1002
}
1000
16GENINF
1070
     4
1000
16
1002
{
1002
}
1000
17GENINF
1070
     4
1000
17
1002
{
1002
}
1000
18GENINF
1070
     4
1000
18
1002
{
1002
}
1000
19GENINF
1070
     4
1000
19
1002
{
1002
}
1000
20GENINF
1070
     4
1000
20
1002
{
1002
}
1000
21GENINF
1070
     4
1000
21
1002
{
1002
}
1000
22GENINF
1070
     4
1000
22
1002
{
1002
}
1000
23GENINF
1070
     4
1000
23
1002
{
1002
}
1000
24GENINF
1070
     4
1000
24
1002
{
1002
}
1000
25GENINF
1070
     4
1000
25
1002
{
1002
}
1000
26GENINF
1070
     4
1000
26
1002
{
1002
}
1000
27GENINF
1070
     4
1000
27
1002
{
1002
}
1000
0GENINF
1070
     4
1000
0
1002
{
1002
}
1002
}
1000
GENINF13
1070
     0
1002
{
1000
2GENINF
1070
     4
1000
2
1002
{
1002
}
1000
3GENINF
1070
     4
1000
3
1002
{
1002
}
1000
4GENINF
1070
     4
1000
4
1002
{
1002
}
1000
5GENINF
1070
     4
1000
5
1002
{
1002
}
1000
6GENINF
1070
     4
1000
6
1002
{
1002
}
1000
7GENINF
1070
     4
1000
7
1002
{
1002
}
1000
8GENINF
1070
     4
1000
8
1002
{
1002
}
1000
9GENINF
1070
     4
1000
9
1002
{
1002
}
1000
10GENINF
1070
     4
1000
10
1002
{
1002
}
1000
11GENINF
1070
     4
1000
11
1002
{
1002
}
1000
12GENINF
1070
     4
1000
12
1002
{
1002
}
1000
13GENINF
1070
     4
1000
13
1002
{
1002
}
1000
14GENINF
1070
     4
1000
14
1002
{
1002
}
1000
15GENINF
1070
     4
1000
15
1002
{
1002
}
1000
16GENINF
1070
     4
1000
16
1002
{
1002
}
1000
17GENINF
1070
     4
1000
17
1002
{
1002
}
1000
18GENINF
1070
     4
1000
18
1002
{
1002
}
1000
19GENINF
1070
     4
1000
19
1002
{
1002
}
1000
20GENINF
1070
     4
1000
20
1002
{
1002
}
1000
21GENINF
1070
     4
1000
21
1002
{
1002
}
1000
22GENINF
1070
     4
1000
22
1002
{
1002
}
1000
23GENINF
1070
     4
1000
23
1002
{
1002
}
1000
24GENINF
1070
     4
1000
24
1002
{
1002
}
1000
0GENINF
1070
     4
1000
0
1002
{
1002
}
1002
}
1000
GENINFO
1070
     0
1002
{
1000
3GENINF
1070
     4
1000
3
1002
{
1002
}
1000
4GENINF
1070
     4
1000
4
1002
{
1002
}
1000
5GENINF
1070
     4
1000
5
1002
{
1002
}
1000
6GENINF
1070
     4
1000
6
1002
{
1002
}
1000
7GENINF
1070
     4
1000
7
1002
{
1002
}
1000
8GENINF
1070
     4
1000
8
1002
{
1002
}
1000
9GENINF
1070
     4
1000
9
1002
{
1002
}
1000
10GENINF
1070
     4
1000
10
1002
{
1002
}
1000
11GENINF
1070
     4
1000
11
1002
{
1002
}
1000
12GENINF
1070
     4
1000
12
1002
{
1002
}
1000
13GENINF
1070
     4
1000
13
1002
{
1002
}
1000
14GENINF
1070
     4
1000
14
1002
{
1002
}
1000
15GENINF
1070
     4
1000
15
1002
{
1002
}
1000
16GENINF
1070
     4
1000
16
1002
{
1002
}
1000
17GENINF
1070
     4
1000
17
1002
{
1002
}
1000
18GENINF
1070
     4
1000
18
1002
{
1002
}
1000
19GENINF
1070
     4
1000
19
1002
{
1002
}
1000
20GENINF
1070
     4
1000
20
1002
{
1002
}
1000
21GENINF
1070
     4
1000
21
1002
{
1002
}
1000
22GENINF
1070
     4
1000
22
1002
{
1002
}
1002
}
1000
DININFO
1070
     0
1002
{
1000
ST-NAME1
1070
     4
1000
5
1002
{
1002
}
1000
ST-NAME2
1070
     4
1000
6
1002
{
1002
}
1000
ST-NORM1
1070
     4
1000
7
1002
{
1002
}
1000
ST-NORM2
1070
     4
1000
8
1002
{
1002
}
1000
ST-MAT1
1070
     4
1000
9
1002
{
1002
}
1000
ST-MAT2
1070
     4
1000
10
1002
{
1002
}
1002
}
1002
}
1000
POS_NUMBERS
1070
     0
1002
{
1000
GENPOS14
1070
     0
1002
{
1000
1GENPOS
1070
     4
1000
1
1002
{
1002
}
1000
2GENPOS
1070
     4
1000
2
1002
{
1002
}
1000
3GENPOS
1070
     4
1000
3
1002
{
1002
}
1000
4GENPOS
1070
     4
1000
4
1002
{
1002
}
1000
5GENPOS
1070
     4
1000
5
1002
{
1002
}
1000
6GENPOS
1070
     4
1000
6
1002
{
1002
}
1000
7GENPOS
1070
     4
1000
7
1002
{
1002
}
1000
8GENPOS
1070
     4
1000
8
1002
{
1002
}
1000
9GENPOS
1070
     4
1000
9
1002
{
1002
}
1000
10GENPOS
1070
     4
1000
10
1002
{
1002
}
1000
11GENPOS
1070
     4
1000
11
1002
{
1002
}
1000
12GENPOS
1070
     4
1000
12
1002
{
1002
}
1000
13GENPOS
1070
     4
1000
13
1002
{
1002
}
1000
14GENPOS
1070
     4
1000
14
1002
{
1002
}
1000
15GENPOS
1070
     4
1000
15
1002
{
1002
}
1000
16GENPOS
1070
     4
1000
16
1002
{
1002
}
1000
17GENPOS
1070
     4
1000
17
1002
{
1002
}
1000
18GENPOS
1070
     4
1000
18
1002
{
1002
}
1000
19GENPOS
1070
     4
1000
19
1002
{
1002
}
1000
20GENPOS
1070
     4
1000
20
1002
{
1002
}
1000
21GENPOS
1070
     4
1000
21
1002
{
1002
}
1000
22GENPOS
1070
     4
1000
22
1002
{
1002
}
1000
23GENPOS
1070
     4
1000
23
1002
{
1002
}
1000
24GENPOS
1070
     4
1000
24
1002
{
1002
}
1000
25GENPOS
1070
     4
1000
25
1002
{
1002
}
1000
26GENPOS
1070
     4
1000
26
1002
{
1002
}
1000
27GENPOS
1070
     4
1000
27
1002
{
1002
}
1000
0GENPOS
1070
     4
1000
0
1002
{
1002
}
1002
}
1000
GENPOS13
1070
     0
1002
{
1000
1GENPOS
1070
     4
1000
1
1002
{
1002
}
1000
2GENPOS
1070
     4
1000
2
1002
{
1002
}
1000
3GENPOS
1070
     4
1000
3
1002
{
1002
}
1000
4GENPOS
1070
     4
1000
4
1002
{
1002
}
1000
5GENPOS
1070
     4
1000
5
1002
{
1002
}
1000
6GENPOS
1070
     4
1000
6
1002
{
1002
}
1000
7GENPOS
1070
     4
1000
7
1002
{
1002
}
1000
8GENPOS
1070
     4
1000
8
1002
{
1002
}
1000
9GENPOS
1070
     4
1000
9
1002
{
1002
}
1000
10GENPOS
1070
     4
1000
10
1002
{
1002
}
1000
11GENPOS
1070
     4
1000
11
1002
{
1002
}
1000
12GENPOS
1070
     4
1000
12
1002
{
1002
}
1000
13GENPOS
1070
     4
1000
13
1002
{
1002
}
1000
14GENPOS
1070
     4
1000
14
1002
{
1002
}
1000
15GENPOS
1070
     4
1000
15
1002
{
1002
}
1000
16GENPOS
1070
     4
1000
16
1002
{
1002
}
1000
17GENPOS
1070
     4
1000
17
1002
{
1002
}
1000
18GENPOS
1070
     4
1000
18
1002
{
1002
}
1000
19GENPOS
1070
     4
1000
19
1002
{
1002
}
1000
20GENPOS
1070
     4
1000
20
1002
{
1002
}
1000
21GENPOS
1070
     4
1000
21
1002
{
1002
}
1000
22GENPOS
1070
     4
1000
22
1002
{
1002
}
1000
23GENPOS
1070
     4
1000
23
1002
{
1002
}
1000
24GENPOS
1070
     4
1000
24
1002
{
1002
}
1000
0GENPOS
1070
     4
1000
0
1002
{
1002
}
1002
}
1000
GENPOS
1070
     0
1002
{
1000
1GENPOS
1070
     4
1000
1
1002
{
1002
}
1000
2GENPOS
1070
     4
1000
2
1002
{
1002
}
1000
3GENPOS
1070
     4
1000
3
1002
{
1002
}
1000
4GENPOS
1070
     4
1000
4
1002
{
1002
}
1000
5GENPOS
1070
     4
1000
5
1002
{
1002
}
1000
6GENPOS
1070
     4
1000
6
1002
{
1002
}
1000
7GENPOS
1070
     4
1000
7
1002
{
1002
}
1000
8GENPOS
1070
     4
1000
8
1002
{
1002
}
1000
9GENPOS
1070
     4
1000
9
1002
{
1002
}
1000
10GENPOS
1070
     4
1000
10
1002
{
1002
}
1000
11GENPOS
1070
     4
1000
11
1002
{
1002
}
1000
12GENPOS
1070
     4
1000
12
1002
{
1002
}
1000
13GENPOS
1070
     4
1000
13
1002
{
1002
}
1000
14GENPOS
1070
     4
1000
14
1002
{
1002
}
1000
15GENPOS
1070
     4
1000
15
1002
{
1002
}
1000
16GENPOS
1070
     4
1000
16
1002
{
1002
}
1000
17GENPOS
1070
     4
1000
17
1002
{
1002
}
1000
18GENPOS
1070
     4
1000
18
1002
{
1002
}
1000
19GENPOS
1070
     4
1000
19
1002
{
1002
}
1000
20GENPOS
1070
     4
1000
20
1002
{
1002
}
1000
21GENPOS
1070
     4
1000
21
1002
{
1002
}
1000
22GENPOS
1070
     4
1000
22
1002
{
1002
}
1000
23GENPOS
1070
     4
1000
23
1002
{
1002
}
1002
}
1000
DIN985
1070
     0
1002
{
1000
POSITION
1070
     4
1000
1
1002
{
1002
}
1000
MENGE
1070
     4
1000
2
1002
{
1002
}
1000
BLATT
1070
     4
1000
3
1002
{
1002
}
1000
BENENN
1070
     4
1000
5
1002
{
1002
}
1000
BENENN2
1070
     4
1000
6
1002
{
1002
}
1000
NORM
1070
     4
1000
7
1002
{
1002
}
1000
NORM2
1070
     4
1000
8
1002
{
1002
}
1000
WERKSTOFF
1070
     4
1000
9
1002
{
1002
}
1000
WERKSTOFF2
1070
     4
1000
10
1002
{
1002
}
1002
}
1000
DIN986
1070
     0
1002
{
1000
POSITION
1070
     4
1000
1
1002
{
1002
}
1000
MENGE
1070
     4
1000
2
1002
{
1002
}
1000
BLATT
1070
     4
1000
3
1002
{
1002
}
1000
BENENN
1070
     4
1000
5
1002
{
1002
}
1000
BENENN2
1070
     4
1000
6
1002
{
1002
}
1000
NORM
1070
     4
1000
7
1002
{
1002
}
1000
NORM2
1070
     4
1000
8
1002
{
1002
}
1000
WERKSTOFF
1070
     4
1000
9
1002
{
1002
}
1000
WERKSTOFF2
1070
     4
1000
10
1002
{
1002
}
1002
}
1000
DIN987
1070
     0
1002
{
1000
POSITION
1070
     4
1000
1
1002
{
1002
}
1000
MENGE
1070
     4
1000
2
1002
{
1002
}
1000
BLATT
1070
     4
1000
3
1002
{
1002
}
1000
BENENN
1070
     4
1000
5
1002
{
1002
}
1000
BENENN2
1070
     4
1000
6
1002
{
1002
}
1000
NORM
1070
     4
1000
7
1002
{
1002
}
1000
NORM2
1070
     4
1000
8
1002
{
1002
}
1000
WERKSTOFF
1070
     4
1000
9
1002
{
1002
}
1000
WERKSTOFF2
1070
     4
1000
10
1002
{
1002
}
1002
}
1002
}
  0
APPID
  5
1001
330
9
100
AcDbSymbolTableRecord
100
AcDbRegAppTableRecord
  2
GENIUS_GENCFG1_13
 70
     0
1001
GENIUS_GENCFG_13
1071
912092035
1000
1001
1000
GEN@INFO_POS
1070
     7
1000
GenCfgObject
1000
GenCfgShort
1000
GenCfgReal
1000
GenCfgBool
1000
GenCfgString
1000
GenCfgDim
1000
GenCfgAttrInf
1000
DescrText
1070
     4
1000
5, ,6, ,7, ,8
1002
{
1002
}
1000
DescrText2
1070
     4
1000
26
1002
{
1002
}
1000
VisibleAttr1
1070
     4
1000
1
1002
{
1002
}
1000
VisibleAttr2
1070
     4
1000
26
1002
{
1002
}
1000
UpdateBlock
1070
     3
1070
     1
1002
{
1002
}
1000
Attrib
1070
     0
1002
{
1000
0
1070
     6
1002
{
1000
Prompt
1070
     4
1000
(genmsg gendwg 103)
1002
{
1002
}
1000
Value
1070
     4
1000

1002
{
1002
}
1000
EditFlag
1070
     1
1070
     0
1002
{
1002
}
1000
PosInDDATTE
1070
     1
1070
    27
1002
{
1002
}
1000
FieldLen
1070
     1
1070
    -1
1002
{
1002
}
1002
}
1000
1
1070
     6
1002
{
1000
Prompt
1070
     4
1000
(genmsg gendwg 31)
1002
{
1002
}
1000
Value
1070
     4
1000
1
1002
{
1002
}
1000
EditFlag
1070
     1
1070
     1
1002
{
1002
}
1000
PosInDDATTE
1070
     1
1070
     1
1002
{
1002
}
1000
FieldLen
1070
     1
1070
    -1
1002
{
1002
}
1002
}
1000
2
1070
     6
1002
{
1000
Prompt
1070
     4
1000
(genmsg gendwg 32)
1002
{
1002
}
1000
Value
1070
     4
1000
1
1002
{
1002
}
1000
EditFlag
1070
     1
1070
     1
1002
{
1002
}
1000
PosInDDATTE
1070
     1
1070
     2
1002
{
1002
}
1000
FieldLen
1070
     1
1070
    -1
1002
{
1002
}
1002
}
1000
3
1070
     6
1002
{
1000
Prompt
1070
     4
1000
(genmsg gendwg 33)
1002
{
1002
}
1000
Value
1070
     4
1000

1002
{
1002
}
1000
EditFlag
1070
     1
1070
     1
1002
{
1002
}
1000
PosInDDATTE
1070
     1
1070
     3
1002
{
1002
}
1000
FieldLen
1070
     1
1070
    -1
1002
{
1002
}
1002
}
1000
4
1070
     6
1002
{
1000
Prompt
1070
     4
1000
(genmsg gendwg 34)
1002
{
1002
}
1000
Value
1070
     4
1000

1002
{
1002
}
1000
EditFlag
1070
     1
1070
     1
1002
{
1002
}
1000
PosInDDATTE
1070
     1
1070
     4
1002
{
1002
}
1000
FieldLen
1070
     1
1070
    -1
1002
{
1002
}
1002
}
1000
5
1070
     6
1002
{
1000
Prompt
1070
     4
1000
(genmsg gendwg 35)
1002
{
1002
}
1000
Value
1070
     4
1000

1002
{
1002
}
1000
EditFlag
1070
     1
1070
     1
1002
{
1002
}
1000
PosInDDATTE
1070
     1
1070
     5
1002
{
1002
}
1000
FieldLen
1070
     1
1070
    -1
1002
{
1002
}
1002
}
1000
6
1070
     6
1002
{
1000
Prompt
1070
     4
1000
(genmsg gendwg 36)
1002
{
1002
}
1000
Value
1070
     4
1000

1002
{
1002
}
1000
EditFlag
1070
     1
1070
     1
1002
{
1002
}
1000
PosInDDATTE
1070
     1
1070
     6
1002
{
1002
}
1000
FieldLen
1070
     1
1070
    -1
1002
{
1002
}
1002
}
1000
7
1070
     6
1002
{
1000
Prompt
1070
     4
1000
(genmsg gendwg 37)
1002
{
1002
}
1000
Value
1070
     4
1000

1002
{
1002
}
1000
EditFlag
1070
     1
1070
     1
1002
{
1002
}
1000
PosInDDATTE
1070
     1
1070
     7
1002
{
1002
}
1000
FieldLen
1070
     1
1070
    -1
1002
{
1002
}
1002
}
1000
8
1070
     6
1002
{
1000
Prompt
1070
     4
1000
(genmsg gendwg 38)
1002
{
1002
}
1000
Value
1070
     4
1000

1002
{
1002
}
1000
EditFlag
1070
     1
1070
     1
1002
{
1002
}
1000
PosInDDATTE
1070
     1
1070
     8
1002
{
1002
}
1000
FieldLen
1070
     1
1070
    -1
1002
{
1002
}
1002
}
1000
9
1070
     6
1002
{
1000
Prompt
1070
     4
1000
(genmsg gendwg 39)
1002
{
1002
}
1000
Value
1070
     4
1000

1002
{
1002
}
1000
EditFlag
1070
     1
1070
     1
1002
{
1002
}
1000
PosInDDATTE
1070
     1
1070
     9
1002
{
1002
}
1000
FieldLen
1070
     1
1070
    -1
1002
{
1002
}
1002
}
1000
10
1070
     6
1002
{
1000
Prompt
1070
     4
1000
(genmsg gendwg 40)
1002
{
1002
}
1000
Value
1070
     4
1000

1002
{
1002
}
1000
EditFlag
1070
     1
1070
     1
1002
{
1002
}
1000
PosInDDATTE
1070
     1
1070
    10
1002
{
1002
}
1000
FieldLen
1070
     1
1070
    -1
1002
{
1002
}
1002
}
1000
11
1070
     6
1002
{
1000
Prompt
1070
     4
1000
(genmsg gendwg 41)
1002
{
1002
}
1000
Value
1070
     4
1000

1002
{
1002
}
1000
EditFlag
1070
     1
1070
     1
1002
{
1002
}
1000
PosInDDATTE
1070
     1
1070
    11
1002
{
1002
}
1000
FieldLen
1070
     1
1070
    -1
1002
{
1002
}
1002
}
1000
12
1070
     6
1002
{
1000
Prompt
1070
     4
1000
(genmsg gendwg 42)
1002
{
1002
}
1000
Value
1070
     4
1000

1002
{
1002
}
1000
EditFlag
1070
     1
1070
     1
1002
{
1002
}
1000
PosInDDATTE
1070
     1
1070
    12
1002
{
1002
}
1000
FieldLen
1070
     1
1070
    -1
1002
{
1002
}
1002
}
1000
13
1070
     6
1002
{
1000
Prompt
1070
     4
1000
(genmsg gendwg 43)
1002
{
1002
}
1000
Value
1070
     4
1000

1002
{
1002
}
1000
EditFlag
1070
     1
1070
     1
1002
{
1002
}
1000
PosInDDATTE
1070
     1
1070
    13
1002
{
1002
}
1000
FieldLen
1070
     1
1070
    -1
1002
{
1002
}
1002
}
1000
14
1070
     6
1002
{
1000
Prompt
1070
     4
1000
(genmsg gendwg 44)
1002
{
1002
}
1000
Value
1070
     4
1000

1002
{
1002
}
1000
EditFlag
1070
     1
1070
     1
1002
{
1002
}
1000
PosInDDATTE
1070
     1
1070
    14
1002
{
1002
}
1000
FieldLen
1070
     1
1070
    -1
1002
{
1002
}
1002
}
1000
15
1070
     6
1002
{
1000
Prompt
1070
     4
1000
(genmsg gendwg 45)
1002
{
1002
}
1000
Value
1070
     4
1000

1002
{
1002
}
1000
EditFlag
1070
     1
1070
     1
1002
{
1002
}
1000
PosInDDATTE
1070
     1
1070
    15
1002
{
1002
}
1000
FieldLen
1070
     1
1070
    -1
1002
{
1002
}
1002
}
1000
16
1070
     6
1002
{
1000
Prompt
1070
     4
1000
(genmsg gendwg 46)
1002
{
1002
}
1000
Value
1070
     4
1000

1002
{
1002
}
1000
EditFlag
1070
     1
1070
     1
1002
{
1002
}
1000
PosInDDATTE
1070
     1
1070
    16
1002
{
1002
}
1000
FieldLen
1070
     1
1070
    -1
1002
{
1002
}
1002
}
1000
17
1070
     6
1002
{
1000
Prompt
1070
     4
1000
(genmsg gendwg 47)
1002
{
1002
}
1000
Value
1070
     4
1000

1002
{
1002
}
1000
EditFlag
1070
     1
1070
     1
1002
{
1002
}
1000
PosInDDATTE
1070
     1
1070
    17
1002
{
1002
}
1000
FieldLen
1070
     1
1070
    -1
1002
{
1002
}
1002
}
1000
18
1070
     6
1002
{
1000
Prompt
1070
     4
1000
(genmsg gendwg 48)
1002
{
1002
}
1000
Value
1070
     4
1000

1002
{
1002
}
1000
EditFlag
1070
     1
1070
     1
1002
{
1002
}
1000
PosInDDATTE
1070
     1
1070
    18
1002
{
1002
}
1000
FieldLen
1070
     1
1070
    -1
1002
{
1002
}
1002
}
1000
19
1070
     6
1002
{
1000
Prompt
1070
     4
1000
(genmsg gendwg 99)
1002
{
1002
}
1000
Value
1070
     4
1000

1002
{
1002
}
1000
EditFlag
1070
     1
1070
     1
1002
{
1002
}
1000
PosInDDATTE
1070
     1
1070
    19
1002
{
1002
}
1000
FieldLen
1070
     1
1070
    -1
1002
{
1002
}
1002
}
1000
20
1070
     6
1002
{
1000
Prompt
1070
     4
1000
(genmsg gendwg 100)
1002
{
1002
}
1000
Value
1070
     4
1000

1002
{
1002
}
1000
EditFlag
1070
     1
1070
     1
1002
{
1002
}
1000
PosInDDATTE
1070
     1
1070
    20
1002
{
1002
}
1000
FieldLen
1070
     1
1070
    -1
1002
{
1002
}
1002
}
1000
21
1070
     6
1002
{
1000
Prompt
1070
     4
1000
(genmsg gendwg 101)
1002
{
1002
}
1000
Value
1070
     4
1000

1002
{
1002
}
1000
EditFlag
1070
     1
1070
     1
1002
{
1002
}
1000
PosInDDATTE
1070
     1
1070
    21
1002
{
1002
}
1000
FieldLen
1070
     1
1070
    -1
1002
{
1002
}
1002
}
1000
22
1070
     6
1002
{
1000
Prompt
1070
     4
1000
(genmsg gendwg 102)
1002
{
1002
}
1000
Value
1070
     4
1000

1002
{
1002
}
1000
EditFlag
1070
     1
1070
     1
1002
{
1002
}
1000
PosInDDATTE
1070
     1
1070
    22
1002
{
1002
}
1000
FieldLen
1070
     1
1070
    -1
1002
{
1002
}
1002
}
1000
23
1070
     6
1002
{
1000
Prompt
1070
     4
1000
(genmsg gendwg 30)
1002
{
1002
}
1000
Value
1070
     4
1000

1002
{
1002
}
1000
EditFlag
1070
     1
1070
     1
1002
{
1002
}
1000
PosInDDATTE
1070
     1
1070
    23
1002
{
1002
}
1000
FieldLen
1070
     1
1070
    -1
1002
{
1002
}
1002
}
1000
24
1070
     6
1002
{
1000
Prompt
1070
     4
1000
(genmsg gendwg 104)
1002
{
1002
}
1000
Value
1070
     4
1000

1002
{
1002
}
1000
EditFlag
1070
     1
1070
     1
1002
{
1002
}
1000
PosInDDATTE
1070
     1
1070
    24
1002
{
1002
}
1000
FieldLen
1070
     1
1070
    -1
1002
{
1002
}
1002
}
1000
25
1070
     6
1002
{
1000
Prompt
1070
     4
1000
(genmsg gendwg 105)
1002
{
1002
}
1000
Value
1070
     4
1000

1002
{
1002
}
1000
EditFlag
1070
     1
1070
     1
1002
{
1002
}
1000
PosInDDATTE
1070
     1
1070
    25
1002
{
1002
}
1000
FieldLen
1070
     1
1070
    -1
1002
{
1002
}
1002
}
1000
26
1070
     6
1002
{
1000
Prompt
1070
     4
1000
(genmsg gendwg 106)
1002
{
1002
}
1000
Value
1070
     4
1000

1002
{
1002
}
1000
EditFlag
1070
     1
1070
     1
1002
{
1002
}
1000
PosInDDATTE
1070
     1
1070
    26
1002
{
1002
}
1000
FieldLen
1070
     1
1070
    -1
1002
{
1002
}
1002
}
1000
27
1070
     6
1002
{
1000
Prompt
1070
     4
1000
(genmsg gendwg 109)
1002
{
1002
}
1000
Value
1070
     4
1000

1002
{
1002
}
1000
EditFlag
1070
     1
1070
     2
1002
{
1002
}
1000
PosInDDATTE
1070
     1
1070
    27
1002
{
1002
}
1000
FieldLen
1070
     1
1070
    -1
1002
{
1002
}
1002
}
1002
}
1000
Xlate
1070
     0
1002
{
1000
>
1002
}
  0
APPID
  5
1002
330
9
100
AcDbSymbolTableRecord
100
AcDbRegAppTableRecord
  2
GENIUS_GENCFG2_13
 70
     0
1001
GENIUS_GENCFG_13
1071
912092035
1000
1002
1000
GEN@LAYER@DEFS
1070
     9
1000
GenCfgObject
1000
GenCfgShort
1000
GenCfgReal
1000
GenCfgBool
1000
GenCfgString
1000
GenCfgDim
1000
GenCfgAttrInf
1000
GenCfgLaySection
1000
GenCfgLayer
1000
Basic
1070
     0
1002
{
1000
0
1070
     8
1000
0
1002
{
1000
Color
1070
     1
1070
     7
1002
{
1002
}
1000
LType
1070
     4
1000
CONTINUOUS
1002
{
1002
}
1000
Base
1070
     3
1070
     0
1002
{
1002
}
1002
}
1000
1
1070
     8
1000
1
1002
{
1000
Color
1070
     1
1070
    14
1002
{
1002
}
1000
LType
1070
     4
1000
CONTINUOUS
1002
{
1002
}
1000
Base
1070
     3
1070
     0
1002
{
1002
}
1002
}
1000
2
1070
     8
1000
2
1002
{
1000
Color
1070
     1
1070
     5
1002
{
1002
}
1000
LType
1070
     4
1000
CONTINUOUS
1002
{
1002
}
1000
Base
1070
     3
1070
     0
1002
{
1002
}
1002
}
1000
3
1070
     8
1000
3
1002
{
1000
Color
1070
     1
1070
     6
1002
{
1002
}
1000
LType
1070
     4
1000
GEN3
1002
{
1002
}
1000
Base
1070
     3
1070
     0
1002
{
1002
}
1002
}
1000
4
1070
     8
1000
4
1002
{
1000
Color
1070
     1
1070
     3
1002
{
1002
}
1000
LType
1070
     4
1000
CONTINUOUS
1002
{
1002
}
1000
Base
1070
     3
1070
     0
1002
{
1002
}
1002
}
1000
5
1070
     8
1000
5
1002
{
1000
Color
1070
     1
1070
     3
1002
{
1002
}
1000
LType
1070
     4
1000
CONTINUOUS
1002
{
1002
}
1000
Base
1070
     3
1070
     0
1002
{
1002
}
1002
}
1000
6
1070
     8
1000
6
1002
{
1000
Color
1070
     1
1070
     2
1002
{
1002
}
1000
LType
1070
     4
1000
CONTINUOUS
1002
{
1002
}
1000
Base
1070
     3
1070
     0
1002
{
1002
}
1002
}
1000
7
1070
     8
1000
7
1002
{
1000
Color
1070
     1
1070
     4
1002
{
1002
}
1000
LType
1070
     4
1000
GEN7
1002
{
1002
}
1000
Base
1070
     3
1070
     0
1002
{
1002
}
1002
}
1000
8
1070
     8
1000
8
1002
{
1000
Color
1070
     1
1070
     1
1002
{
1002
}
1000
LType
1070
     4
1000
CONTINUOUS
1002
{
1002
}
1000
Base
1070
     3
1070
     0
1002
{
1002
}
1002
}
1000
3A
1070
     8
1000
3A
1002
{
1000
Color
1070
     1
1070
     6
1002
{
1002
}
1000
LType
1070
     4
1000
GEN3A
1002
{
1002
}
1000
Base
1070
     3
1070
     0
1002
{
1002
}
1002
}
1000
7A
1070
     8
1000
7A
1002
{
1000
Color
1070
     1
1070
     4
1002
{
1002
}
1000
LType
1070
     4
1000
GEN7A
1002
{
1002
}
1000
Base
1070
     3
1070
     0
1002
{
1002
}
1002
}
1000
2A
1070
     8
1000
2A
1002
{
1000
Color
1070
     1
1070
     7
1002
{
1002
}
1000
LType
1070
     4
1000
GEN7
1002
{
1002
}
1000
Base
1070
     3
1070
     0
1002
{
1002
}
1002
}
1000
4A
1070
     8
1000
4A
1002
{
1000
Color
1070
     1
1070
     3
1002
{
1002
}
1000
LType
1070
     4
1000
GEN4A
1002
{
1002
}
1000
Base
1070
     3
1070
     0
1002
{
1002
}
1002
}
1000
9
1070
     8
1000
9
1002
{
1000
Color
1070
     1
1070
   253
1002
{
1002
}
1000
LType
1070
     4
1000
CONTINUOUS
1002
{
1002
}
1000
Base
1070
     3
1070
     0
1002
{
1002
}
1002
}
1000
IP
1070
     8
1000
IP
1002
{
1000
Color
1070
     1
1070
     7
1002
{
1002
}
1000
LType
1070
     4
1000
CONTINUOUS
1002
{
1002
}
1000
Base
1070
     3
1070
     0
1002
{
1002
}
1002
}
1002
}
1000
Standard
1070
     0
1002
{
1000
0N
1070
     8
1000
0N
1002
{
1000
Color
1070
     1
1070
     7
1002
{
1002
}
1000
LType
1070
     4
1000
CONTINUOUS
1002
{
1002
}
1000
Base
1070
     3
1070
     0
1002
{
1002
}
1002
}
1000
1N
1070
     8
1000
1N
1002
{
1000
Color
1070
     1
1070
    14
1002
{
1002
}
1000
LType
1070
     4
1000
CONTINUOUS
1002
{
1002
}
1000
Base
1070
     3
1070
     0
1002
{
1002
}
1002
}
1000
2N
1070
     8
1000
2N
1002
{
1000
Color
1070
     1
1070
     5
1002
{
1002
}
1000
LType
1070
     4
1000
CONTINUOUS
1002
{
1002
}
1000
Base
1070
     3
1070
     0
1002
{
1002
}
1002
}
1000
3N
1070
     8
1000
3N
1002
{
1000
Color
1070
     1
1070
     6
1002
{
1002
}
1000
LType
1070
     4
1000
GEN3
1002
{
1002
}
1000
Base
1070
     3
1070
     0
1002
{
1002
}
1002
}
1000
4N
1070
     8
1000
4N
1002
{
1000
Color
1070
     1
1070
     3
1002
{
1002
}
1000
LType
1070
     4
1000
CONTINUOUS
1002
{
1002
}
1000
Base
1070
     3
1070
     0
1002
{
1002
}
1002
}
1000
5N
1070
     8
1000
5N
1002
{
1000
Color
1070
     1
1070
     3
1002
{
1002
}
1000
LType
1070
     4
1000
CONTINUOUS
1002
{
1002
}
1000
Base
1070
     3
1070
     0
1002
{
1002
}
1002
}
1000
6N
1070
     8
1000
6N
1002
{
1000
Color
1070
     1
1070
     2
1002
{
1002
}
1000
LType
1070
     4
1000
CONTINUOUS
1002
{
1002
}
1000
Base
1070
     3
1070
     0
1002
{
1002
}
1002
}
1000
7N
1070
     8
1000
7N
1002
{
1000
Color
1070
     1
1070
     4
1002
{
1002
}
1000
LType
1070
     4
1000
GEN7
1002
{
1002
}
1000
Base
1070
     3
1070
     0
1002
{
1002
}
1002
}
1000
8N
1070
     8
1000
8N
1002
{
1000
Color
1070
     1
1070
     1
1002
{
1002
}
1000
LType
1070
     4
1000
CONTINUOUS
1002
{
1002
}
1000
Base
1070
     3
1070
     0
1002
{
1002
}
1002
}
1000
3AN
1070
     8
1000
3AN
1002
{
1000
Color
1070
     1
1070
     6
1002
{
1002
}
1000
LType
1070
     4
1000
GEN3A
1002
{
1002
}
1000
Base
1070
     3
1070
     0
1002
{
1002
}
1002
}
1000
7AN
1070
     8
1000
7AN
1002
{
1000
Color
1070
     1
1070
     4
1002
{
1002
}
1000
LType
1070
     4
1000
GEN7A
1002
{
1002
}
1000
Base
1070
     3
1070
     0
1002
{
1002
}
1002
}
1000
2AN
1070
     8
1000
2AN
1002
{
1000
Color
1070
     1
1070
     7
1002
{
1002
}
1000
LType
1070
     4
1000
GEN7
1002
{
1002
}
1000
Base
1070
     3
1070
     0
1002
{
1002
}
1002
}
1000
4AN
1070
     8
1000
4AN
1002
{
1000
Color
1070
     1
1070
     3
1002
{
1002
}
1000
LType
1070
     4
1000
GEN4A
1002
{
1002
}
1000
Base
1070
     3
1070
     0
1002
{
1002
}
1002
}
1000
9N
1070
     8
1000
9N
1002
{
1000
Color
1070
     1
1070
   253
1002
{
1002
}
1000
LType
1070
     4
1000
CONTINUOUS
1002
{
1002
}
1000
Base
1070
     3
1070
     0
1002
{
1002
}
1002
}
1000
IPN
1070
     8
1000
IPN
1002
{
1000
Color
1070
     1
1070
     7
1002
{
1002
}
1000
LType
1070
     4
1000
CONTINUOUS
1002
{
1002
}
1000
Base
1070
     3
1070
     0
1002
{
1002
}
1002
}
1002
}
1000
Extra
1070
     0
1002
{
1000
Klin
1070
     8
1000
KLIN
1002
{
1000
Color
1070
     1
1070
     1
1002
{
1002
}
1000
LType
1070
     4
1000
CONTINUOUS
1002
{
1002
}
1000
Base
1070
     3
1070
     1
1002
{
1002
}
1002
}
1000
Info
1070
     8
1000
INFO
1002
{
1000
Color
1070
     1
1070
     4
1002
{
1002
}
1000
LType
1070
     4
1000
CONTINUOUS
1002
{
1002
}
1000
Base
1070
     3
1070
     1
1002
{
1002
}
1002
}
1000
Rahm2
1070
     8
1000
RAHM2
1002
{
1000
Color
1070
     1
1070
     1
1002
{
1002
}
1000
LType
1070
     4
1000
CONTINUOUS
1002
{
1002
}
1000
Base
1070
     3
1070
     1
1002
{
1002
}
1002
}
1000
Rahm3
1070
     8
1000
RAHM3
1002
{
1000
Color
1070
     1
1070
     2
1002
{
1002
}
1000
LType
1070
     4
1000
CONTINUOUS
1002
{
1002
}
1000
Base
1070
     3
1070
     1
1002
{
1002
}
1002
}
1000
Rahm5
1070
     8
1000
RAHM5
1002
{
1000
Color
1070
     1
1070
     7
1002
{
1002
}
1000
LType
1070
     4
1000
CONTINUOUS
1002
{
1002
}
1000
Base
1070
     3
1070
     1
1002
{
1002
}
1002
}
1000
View
1070
     8
1000
VIEW
1002
{
1000
Color
1070
     1
1070
     1
1002
{
1002
}
1000
LType
1070
     4
1000
CONTINUOUS
1002
{
1002
}
1000
Base
1070
     3
1070
     1
1002
{
1002
}
1002
}
1000
Behind
1070
     8
1000
BEHIND
1002
{
1000
Color
1070
     1
1070
   253
1002
{
1002
}
1000
LType
1070
     4
1000
CONTINUOUS
1002
{
1002
}
1000
Base
1070
     3
1070
     1
1002
{
1002
}
1002
}
1002
}
  0
APPID
  5
1003
330
9
100
AcDbSymbolTableRecord
100
AcDbRegAppTableRecord
  2
GENIUS_GENCFG3_13
 70
     0
1001
GENIUS_GENCFG_13
1071
912092035
1000
1003
1000
GEN@LAYER@ENTSORT
1070
    10
1000
GenCfgObject
1000
GenCfgShort
1000
GenCfgReal
1000
GenCfgBool
1000
GenCfgString
1000
GenCfgDim
1000
GenCfgAttrInf
1000
GenCfgLaySection
1000
GenCfgLayer
1000
GenCfgEntSort
1000
ADDL
1070
     9
1000
5
1002
{
1000
Class
1070
     4
1000
SYM
1002
{
1002
}
1000
Color
1070
     1
1070
     1
1002
{
1002
}
1000
LType
1070
     4
1000
BYLAYER
1002
{
1002
}
1002
}
1000
ALTR
1070
     9
1000
4
1002
{
1000
Class
1070
     4
1000

1002
{
1002
}
1000
Color
1070
     1
1070
     7
1002
{
1002
}
1000
LType
1070
     4
1000
GEN3A
1002
{
1002
}
1002
}
1000
BELI
1070
     9
1000
4
1002
{
1000
Class
1070
     4
1000

1002
{
1002
}
1000
Color
1070
     1
1070
   256
1002
{
1002
}
1000
LType
1070
     4
1000
BYLAYER
1002
{
1002
}
1002
}
1000
BHNV
1070
     9
1000
9
1002
{
1000
Class
1070
     4
1000
INV
1002
{
1002
}
1000
Color
1070
     1
1070
   256
1002
{
1002
}
1000
LType
1070
     4
1000
BYLAYER
1002
{
1002
}
1002
}
1000
BHNVS
1070
     9
1000
BEHIND
1002
{
1000
Class
1070
     4
1000
INV
1002
{
1002
}
1000
Color
1070
     1
1070
   256
1002
{
1002
}
1000
LType
1070
     4
1000
BYLAYER
1002
{
1002
}
1002
}
1000
BLID
1070
     9
1000
4A
1002
{
1000
Class
1070
     4
1000

1002
{
1002
}
1000
Color
1070
     1
1070
   256
1002
{
1002
}
1000
LType
1070
     4
1000
BYLAYER
1002
{
1002
}
1002
}
1000
BOAP
1070
     9
1000
4A
1002
{
1000
Class
1070
     4
1000

1002
{
1002
}
1000
Color
1070
     1
1070
   256
1002
{
1002
}
1000
LType
1070
     4
1000
BYLAYER
1002
{
1002
}
1002
}
1000
BOR2
1070
     9
1000
RAHM2
1002
{
1000
Class
1070
     4
1000
SPZ,SYM
1002
{
1002
}
1000
Color
1070
     1
1070
   256
1002
{
1002
}
1000
LType
1070
     4
1000
BYLAYER
1002
{
1002
}
1002
}
1000
BOR3
1070
     9
1000
RAHM3
1002
{
1000
Class
1070
     4
1000
SPZ,SYM
1002
{
1002
}
1000
Color
1070
     1
1070
   256
1002
{
1002
}
1000
LType
1070
     4
1000
BYLAYER
1002
{
1002
}
1002
}
1000
BOR5
1070
     9
1000
RAHM5
1002
{
1000
Class
1070
     4
1000
SPZ,SYM
1002
{
1002
}
1000
Color
1070
     1
1070
   256
1002
{
1002
}
1000
LType
1070
     4
1000
BYLAYER
1002
{
1002
}
1002
}
1000
BOR7
1070
     9
1000
RAHM5
1002
{
1000
Class
1070
     4
1000
SPZ,SYM
1002
{
1002
}
1000
Color
1070
     1
1070
     7
1002
{
1002
}
1000
LType
1070
     4
1000
CONTINUOUS
1002
{
1002
}
1002
}
1000
BPAP
1070
     9
1000
4A
1002
{
1000
Class
1070
     4
1000

1002
{
1002
}
1000
Color
1070
     1
1070
   256
1002
{
1002
}
1000
LType
1070
     4
1000
BYLAYER
1002
{
1002
}
1002
}
1000
BPEX
1070
     9
1000
4A
1002
{
1000
Class
1070
     4
1000

1002
{
1002
}
1000
Color
1070
     1
1070
   256
1002
{
1002
}
1000
LType
1070
     4
1000
BYLAYER
1002
{
1002
}
1002
}
1000
BTDI
1070
     9
1000
5
1002
{
1000
Class
1070
     4
1000
DIM,SYM
1002
{
1002
}
1000
Color
1070
     1
1070
   256
1002
{
1002
}
1000
LType
1070
     4
1000
BYLAYER
1002
{
1002
}
1002
}
1000
CAL2
1070
     9
1000
4
1002
{
1000
Class
1070
     4
1000
SYM
1002
{
1002
}
1000
Color
1070
     1
1070
   256
1002
{
1002
}
1000
LType
1070
     4
1000
BYLAYER
1002
{
1002
}
1002
}
1000
CAL3
1070
     9
1000
4
1002
{
1000
Class
1070
     4
1000
SYM
1002
{
1002
}
1000
Color
1070
     1
1070
     2
1002
{
1002
}
1000
LType
1070
     4
1000
BYLAYER
1002
{
1002
}
1002
}
1000
CAL5
1070
     9
1000
4
1002
{
1000
Class
1070
     4
1000
SYM
1002
{
1002
}
1000
Color
1070
     1
1070
     7
1002
{
1002
}
1000
LType
1070
     4
1000
BYLAYER
1002
{
1002
}
1002
}
1000
CAL7
1070
     9
1000
4
1002
{
1000
Class
1070
     4
1000
SYM
1002
{
1002
}
1000
Color
1070
     1
1070
     5
1002
{
1002
}
1000
LType
1070
     4
1000
BYLAYER
1002
{
1002
}
1002
}
1000
CENN
1070
     9
1000
7A
1002
{
1000
Class
1070
     4
1000
CEN
1002
{
1002
}
1000
Color
1070
     1
1070
   256
1002
{
1002
}
1000
LType
1070
     4
1000
BYLAYER
1002
{
1002
}
1002
}
1000
CENW
1070
     9
1000
7
1002
{
1000
Class
1070
     4
1000
CEN
1002
{
1002
}
1000
Color
1070
     1
1070
   256
1002
{
1002
}
1000
LType
1070
     4
1000
BYLAYER
1002
{
1002
}
1002
}
1000
CLIN
1070
     9
1000
KLIN
1002
{
1000
Class
1070
     4
1000
SPZ
1002
{
1002
}
1000
Color
1070
     1
1070
   256
1002
{
1002
}
1000
LType
1070
     4
1000
BYLAYER
1002
{
1002
}
1002
}
1000
CON1
1070
     9
1000
0
1002
{
1000
Class
1070
     4
1000
CON,BGD
1002
{
1002
}
1000
Color
1070
     1
1070
   256
1002
{
1002
}
1000
LType
1070
     4
1000
BYLAYER
1002
{
1002
}
1002
}
1000
CON2
1070
     9
1000
1
1002
{
1000
Class
1070
     4
1000
CON,BGD
1002
{
1002
}
1000
Color
1070
     1
1070
   256
1002
{
1002
}
1000
LType
1070
     4
1000
BYLAYER
1002
{
1002
}
1002
}
1000
CON3
1070
     9
1000
2
1002
{
1000
Class
1070
     4
1000
CON,BGD
1002
{
1002
}
1000
Color
1070
     1
1070
   256
1002
{
1002
}
1000
LType
1070
     4
1000
BYLAYER
1002
{
1002
}
1002
}
1000
CON4
1070
     9
1000
2
1002
{
1000
Class
1070
     4
1000
CON,BGD
1002
{
1002
}
1000
Color
1070
     1
1070
   256
1002
{
1002
}
1000
LType
1070
     4
1000
BYLAYER
1002
{
1002
}
1002
}
1000
DERP
1070
     9
1000
4
1002
{
1000
Class
1070
     4
1000

1002
{
1002
}
1000
Color
1070
     1
1070
   256
1002
{
1002
}
1000
LType
1070
     4
1000
BYLAYER
1002
{
1002
}
1002
}
1000
DETA
1070
     9
1000
4
1002
{
1000
Class
1070
     4
1000

1002
{
1002
}
1000
Color
1070
     1
1070
   256
1002
{
1002
}
1000
LType
1070
     4
1000
BYLAYER
1002
{
1002
}
1002
}
1000
DIAG
1070
     9
1000
5
1002
{
1000
Class
1070
     4
1000
SYM
1002
{
1002
}
1000
Color
1070
     1
1070
   256
1002
{
1002
}
1000
LType
1070
     4
1000
BYLAYER
1002
{
1002
}
1002
}
1000
DILI
1070
     9
1000
5
1002
{
1000
Class
1070
     4
1000
DIM,SYM
1002
{
1002
}
1000
Color
1070
     1
1070
   256
1002
{
1002
}
1000
LType
1070
     4
1000
BYLAYER
1002
{
1002
}
1002
}
1000
DITO2
1070
     9
1000
5
1002
{
1000
Class
1070
     4
1000
DIM,SYM
1002
{
1002
}
1000
Color
1070
     1
1070
     3
1002
{
1002
}
1000
LType
1070
     4
1000
BYLAYER
1002
{
1002
}
1002
}
1000
DITO3
1070
     9
1000
5
1002
{
1000
Class
1070
     4
1000
DIM,SYM
1002
{
1002
}
1000
Color
1070
     1
1070
     2
1002
{
1002
}
1000
LType
1070
     4
1000
BYLAYER
1002
{
1002
}
1002
}
1000
DITX
1070
     9
1000
5
1002
{
1000
Class
1070
     4
1000
DIM,SYM
1002
{
1002
}
1000
Color
1070
     1
1070
     2
1002
{
1002
}
1000
LType
1070
     4
1000
CONTINUOUS
1002
{
1002
}
1002
}
1000
DIXL
1070
     9
1000
5
1002
{
1000
Class
1070
     4
1000
DIM,SYM
1002
{
1002
}
1000
Color
1070
     1
1070
   256
1002
{
1002
}
1000
LType
1070
     4
1000
BYLAYER
1002
{
1002
}
1002
}
1000
EXMP
1070
     9
1000
4A
1002
{
1000
Class
1070
     4
1000

1002
{
1002
}
1000
Color
1070
     1
1070
   256
1002
{
1002
}
1000
LType
1070
     4
1000
BYLAYER
1002
{
1002
}
1002
}
1000
FEMN
1070
     9
1000
8
1002
{
1000
Class
1070
     4
1000

1002
{
1002
}
1000
Color
1070
     1
1070
   256
1002
{
1002
}
1000
LType
1070
     4
1000
BYLAYER
1002
{
1002
}
1002
}
1000
FEMPN
1070
     9
1000
8
1002
{
1000
Class
1070
     4
1000
SYM
1002
{
1002
}
1000
Color
1070
     1
1070
     3
1002
{
1002
}
1000
LType
1070
     4
1000
BYLAYER
1002
{
1002
}
1002
}
1000
FEMSP
1070
     9
1000
4A
1002
{
1000
Class
1070
     4
1000

1002
{
1002
}
1000
Color
1070
     1
1070
   256
1002
{
1002
}
1000
LType
1070
     4
1000
CONTINUOUS
1002
{
1002
}
1002
}
1000
FEMST
1070
     9
1000
4A
1002
{
1000
Class
1070
     4
1000
SYM
1002
{
1002
}
1000
Color
1070
     1
1070
     3
1002
{
1002
}
1000
LType
1070
     4
1000
BYLAYER
1002
{
1002
}
1002
}
1000
FEMVN
1070
     9
1000
2
1002
{
1000
Class
1070
     4
1000
CON
1002
{
1002
}
1000
Color
1070
     1
1070
   256
1002
{
1002
}
1000
LType
1070
     4
1000
BYLAYER
1002
{
1002
}
1002
}
1000
FEMVT
1070
     9
1000
2
1002
{
1000
Class
1070
     4
1000
SYM
1002
{
1002
}
1000
Color
1070
     1
1070
     3
1002
{
1002
}
1000
LType
1070
     4
1000
BYLAYER
1002
{
1002
}
1002
}
1000
FLAT
1070
     9
1000
0
1002
{
1000
Class
1070
     4
1000

1002
{
1002
}
1000
Color
1070
     1
1070
   256
1002
{
1002
}
1000
LType
1070
     4
1000
BYLAYER
1002
{
1002
}
1002
}
1000
FRAR
1070
     9
1000
4A
1002
{
1000
Class
1070
     4
1000

1002
{
1002
}
1000
Color
1070
     1
1070
   256
1002
{
1002
}
1000
LType
1070
     4
1000
BYLAYER
1002
{
1002
}
1002
}
1000
GRLI
1070
     9
1000
5
1002
{
1000
Class
1070
     4
1000
SYM
1002
{
1002
}
1000
Color
1070
     1
1070
   256
1002
{
1002
}
1000
LType
1070
     4
1000
BYLAYER
1002
{
1002
}
1002
}
1000
GVLI
1070
     9
1000
4A
1002
{
1000
Class
1070
     4
1000

1002
{
1002
}
1000
Color
1070
     1
1070
   256
1002
{
1002
}
1000
LType
1070
     4
1000
BYLAYER
1002
{
1002
}
1002
}
1000
HATC
1070
     9
1000
8
1002
{
1000
Class
1070
     4
1000
HTC,BGD
1002
{
1002
}
1000
Color
1070
     1
1070
   256
1002
{
1002
}
1000
LType
1070
     4
1000
BYLAYER
1002
{
1002
}
1002
}
1000
HIDN
1070
     9
1000
3A
1002
{
1000
Class
1070
     4
1000
HID,BGD
1002
{
1002
}
1000
Color
1070
     1
1070
   256
1002
{
1002
}
1000
LType
1070
     4
1000
BYLAYER
1002
{
1002
}
1002
}
1000
HIDW
1070
     9
1000
3
1002
{
1000
Class
1070
     4
1000
HID,BGD
1002
{
1002
}
1000
Color
1070
     1
1070
   256
1002
{
1002
}
1000
LType
1070
     4
1000
BYLAYER
1002
{
1002
}
1002
}
1000
HLIN
1070
     9
1000
4
1002
{
1000
Class
1070
     4
1000
BGD
1002
{
1002
}
1000
Color
1070
     1
1070
   256
1002
{
1002
}
1000
LType
1070
     4
1000
BYLAYER
1002
{
1002
}
1002
}
1000
HOCN
1070
     9
1000
7A
1002
{
1000
Class
1070
     4
1000
CEN
1002
{
1002
}
1000
Color
1070
     1
1070
   256
1002
{
1002
}
1000
LType
1070
     4
1000
BYLAYER
1002
{
1002
}
1002
}
1000
HOCW
1070
     9
1000
7
1002
{
1000
Class
1070
     4
1000
CEN
1002
{
1002
}
1000
Color
1070
     1
1070
   256
1002
{
1002
}
1000
LType
1070
     4
1000
BYLAYER
1002
{
1002
}
1002
}
1000
INFO
1070
     9
1000
INFO
1002
{
1000
Class
1070
     4
1000
SPZ,SYM
1002
{
1002
}
1000
Color
1070
     1
1070
   256
1002
{
1002
}
1000
LType
1070
     4
1000
BYLAYER
1002
{
1002
}
1002
}
1000
LADI
1070
     9
1000
4
1002
{
1000
Class
1070
     4
1000
BGD
1002
{
1002
}
1000
Color
1070
     1
1070
   256
1002
{
1002
}
1000
LType
1070
     4
1000
BYLAYER
1002
{
1002
}
1002
}
1000
LEAD
1070
     9
1000
5
1002
{
1000
Class
1070
     4
1000
SYM
1002
{
1002
}
1000
Color
1070
     1
1070
   256
1002
{
1002
}
1000
LType
1070
     4
1000
BYLAYER
1002
{
1002
}
1002
}
1000
N_ADDL
1070
     9
1000
5N
1002
{
1000
Class
1070
     4
1000
SYM
1002
{
1002
}
1000
Color
1070
     1
1070
     1
1002
{
1002
}
1000
LType
1070
     4
1000
BYLAYER
1002
{
1002
}
1002
}
1000
N_BHNV
1070
     9
1000
9N
1002
{
1000
Class
1070
     4
1000
INV
1002
{
1002
}
1000
Color
1070
     1
1070
   256
1002
{
1002
}
1000
LType
1070
     4
1000
BYLAYER
1002
{
1002
}
1002
}
1000
N_CON1
1070
     9
1000
0N
1002
{
1000
Class
1070
     4
1000
CON,BGD
1002
{
1002
}
1000
Color
1070
     1
1070
   256
1002
{
1002
}
1000
LType
1070
     4
1000
BYLAYER
1002
{
1002
}
1002
}
1000
N_CON2
1070
     9
1000
1N
1002
{
1000
Class
1070
     4
1000
CON,BGD
1002
{
1002
}
1000
Color
1070
     1
1070
   256
1002
{
1002
}
1000
LType
1070
     4
1000
BYLAYER
1002
{
1002
}
1002
}
1000
N_CON3
1070
     9
1000
2N
1002
{
1000
Class
1070
     4
1000
CON,BGD
1002
{
1002
}
1000
Color
1070
     1
1070
   256
1002
{
1002
}
1000
LType
1070
     4
1000
BYLAYER
1002
{
1002
}
1002
}
1000
N_CON4
1070
     9
1000
2N
1002
{
1000
Class
1070
     4
1000
CON,BGD
1002
{
1002
}
1000
Color
1070
     1
1070
   256
1002
{
1002
}
1000
LType
1070
     4
1000
BYLAYER
1002
{
1002
}
1002
}
1000
N_CENN
1070
     9
1000
7AN
1002
{
1000
Class
1070
     4
1000
CEN
1002
{
1002
}
1000
Color
1070
     1
1070
   256
1002
{
1002
}
1000
LType
1070
     4
1000
BYLAYER
1002
{
1002
}
1002
}
1000
N_CENW
1070
     9
1000
7N
1002
{
1000
Class
1070
     4
1000
CEN
1002
{
1002
}
1000
Color
1070
     1
1070
   256
1002
{
1002
}
1000
LType
1070
     4
1000
BYLAYER
1002
{
1002
}
1002
}
1000
N_DILI
1070
     9
1000
5N
1002
{
1000
Class
1070
     4
1000
DIM,SYM
1002
{
1002
}
1000
Color
1070
     1
1070
   256
1002
{
1002
}
1000
LType
1070
     4
1000
BYLAYER
1002
{
1002
}
1002
}
1000
N_DITX
1070
     9
1000
5N
1002
{
1000
Class
1070
     4
1000
DIM,SYM
1002
{
1002
}
1000
Color
1070
     1
1070
     2
1002
{
1002
}
1000
LType
1070
     4
1000
CONTINUOUS
1002
{
1002
}
1002
}
1000
N_DIXL
1070
     9
1000
5N
1002
{
1000
Class
1070
     4
1000
DIM,SYM
1002
{
1002
}
1000
Color
1070
     1
1070
   256
1002
{
1002
}
1000
LType
1070
     4
1000
BYLAYER
1002
{
1002
}
1002
}
1000
N_HATC
1070
     9
1000
8N
1002
{
1000
Class
1070
     4
1000
HTC,BGD
1002
{
1002
}
1000
Color
1070
     1
1070
   256
1002
{
1002
}
1000
LType
1070
     4
1000
BYLAYER
1002
{
1002
}
1002
}
1000
N_HIDN
1070
     9
1000
3AN
1002
{
1000
Class
1070
     4
1000
HID,BGD
1002
{
1002
}
1000
Color
1070
     1
1070
   256
1002
{
1002
}
1000
LType
1070
     4
1000
BYLAYER
1002
{
1002
}
1002
}
1000
N_HIDW
1070
     9
1000
3N
1002
{
1000
Class
1070
     4
1000
HID,BGD
1002
{
1002
}
1000
Color
1070
     1
1070
   256
1002
{
1002
}
1000
LType
1070
     4
1000
BYLAYER
1002
{
1002
}
1002
}
1000
N_NGIP
1070
     9
1000
IPN
1002
{
1000
Class
1070
     4
1000

1002
{
1002
}
1000
Color
1070
     1
1070
   256
1002
{
1002
}
1000
LType
1070
     4
1000
BYLAYER
1002
{
1002
}
1002
}
1000
N_PHAN
1070
     9
1000
4AN
1002
{
1000
Class
1070
     4
1000

1002
{
1002
}
1000
Color
1070
     1
1070
   256
1002
{
1002
}
1000
LType
1070
     4
1000
BYLAYER
1002
{
1002
}
1002
}
1000
N_POSL
1070
     9
1000
5N
1002
{
1000
Class
1070
     4
1000
SYM
1002
{
1002
}
1000
Color
1070
     1
1070
   256
1002
{
1002
}
1000
LType
1070
     4
1000
BYLAYER
1002
{
1002
}
1002
}
1000
N_TCON
1070
     9
1000
0N
1002
{
1000
Class
1070
     4
1000
CON,BGD
1002
{
1002
}
1000
Color
1070
     1
1070
   256
1002
{
1002
}
1000
LType
1070
     4
1000
BYLAYER
1002
{
1002
}
1002
}
1000
N_THLI
1070
     9
1000
4N
1002
{
1000
Class
1070
     4
1000
BGD
1002
{
1002
}
1000
Color
1070
     1
1070
   256
1002
{
1002
}
1000
LType
1070
     4
1000
BYLAYER
1002
{
1002
}
1002
}
1000
N_TLEN
1070
     9
1000
0N
1002
{
1000
Class
1070
     4
1000
CON,BGD
1002
{
1002
}
1000
Color
1070
     1
1070
   256
1002
{
1002
}
1000
LType
1070
     4
1000
BYLAYER
1002
{
1002
}
1002
}
1000
N_TXT3
1070
     9
1000
6N
1002
{
1000
Class
1070
     4
1000
SYM
1002
{
1002
}
1000
Color
1070
     1
1070
   256
1002
{
1002
}
1000
LType
1070
     4
1000
BYLAYER
1002
{
1002
}
1002
}
1000
N_VPLI
1070
     9
1000
2AN
1002
{
1000
Class
1070
     4
1000

1002
{
1002
}
1000
Color
1070
     1
1070
   256
1002
{
1002
}
1000
LType
1070
     4
1000
BYLAYER
1002
{
1002
}
1002
}
1000
NGIP
1070
     9
1000
IP
1002
{
1000
Class
1070
     4
1000

1002
{
1002
}
1000
Color
1070
     1
1070
   256
1002
{
1002
}
1000
LType
1070
     4
1000
BYLAYER
1002
{
1002
}
1002
}
1000
PAL2
1070
     9
1000
RAHM2
1002
{
1000
Class
1070
     4
1000
SPZ,SYM
1002
{
1002
}
1000
Color
1070
     1
1070
   256
1002
{
1002
}
1000
LType
1070
     4
1000
BYLAYER
1002
{
1002
}
1002
}
1000
PAL3
1070
     9
1000
RAHM3
1002
{
1000
Class
1070
     4
1000
SPZ,SYM
1002
{
1002
}
1000
Color
1070
     1
1070
   256
1002
{
1002
}
1000
LType
1070
     4
1000
BYLAYER
1002
{
1002
}
1002
}
1000
PAL5
1070
     9
1000
RAHM5
1002
{
1000
Class
1070
     4
1000
SPZ,SYM
1002
{
1002
}
1000
Color
1070
     1
1070
   256
1002
{
1002
}
1000
LType
1070
     4
1000
BYLAYER
1002
{
1002
}
1002
}
1000
PAL7
1070
     9
1000
RAHM5
1002
{
1000
Class
1070
     4
1000
SPZ,SYM
1002
{
1002
}
1000
Color
1070
     1
1070
     7
1002
{
1002
}
1000
LType
1070
     4
1000
CONTINUOUS
1002
{
1002
}
1002
}
1000
PHAN
1070
     9
1000
4A
1002
{
1000
Class
1070
     4
1000

1002
{
1002
}
1000
Color
1070
     1
1070
   256
1002
{
1002
}
1000
LType
1070
     4
1000
BYLAYER
1002
{
1002
}
1002
}
1000
POSL
1070
     9
1000
5
1002
{
1000
Class
1070
     4
1000
SYM
1002
{
1002
}
1000
Color
1070
     1
1070
   256
1002
{
1002
}
1000
LType
1070
     4
1000
BYLAYER
1002
{
1002
}
1002
}
1000
POSN
1070
     9
1000
6
1002
{
1000
Class
1070
     4
1000
SYM
1002
{
1002
}
1000
Color
1070
     1
1070
     7
1002
{
1002
}
1000
LType
1070
     4
1000
BYLAYER
1002
{
1002
}
1002
}
1000
POSREF
1070
     9
1000
6
1002
{
1000
Class
1070
     4
1000
SYM
1002
{
1002
}
1000
Color
1070
     1
1070
     5
1002
{
1002
}
1000
LType
1070
     4
1000
BYLAYER
1002
{
1002
}
1002
}
1000
POSX
1070
     9
1000
5
1002
{
1000
Class
1070
     4
1000
SYM
1002
{
1002
}
1000
Color
1070
     1
1070
     2
1002
{
1002
}
1000
LType
1070
     4
1000
CONTINUOUS
1002
{
1002
}
1002
}
1000
PSEC
1070
     9
1000
4A
1002
{
1000
Class
1070
     4
1000

1002
{
1002
}
1000
Color
1070
     1
1070
   256
1002
{
1002
}
1000
LType
1070
     4
1000
BYLAYER
1002
{
1002
}
1002
}
1000
RCGN
1070
     9
1000
7A
1002
{
1000
Class
1070
     4
1000
CEN
1002
{
1002
}
1000
Color
1070
     1
1070
   256
1002
{
1002
}
1000
LType
1070
     4
1000
BYLAYER
1002
{
1002
}
1002
}
1000
RCGW
1070
     9
1000
7
1002
{
1000
Class
1070
     4
1000
CEN
1002
{
1002
}
1000
Color
1070
     1
1070
   256
1002
{
1002
}
1000
LType
1070
     4
1000
BYLAYER
1002
{
1002
}
1002
}
1000
RFDI
1070
     9
1000
4
1002
{
1000
Class
1070
     4
1000
BGD
1002
{
1002
}
1000
Color
1070
     1
1070
   256
1002
{
1002
}
1000
LType
1070
     4
1000
BYLAYER
1002
{
1002
}
1002
}
1000
RQTR
1070
     9
1000
4
1002
{
1000
Class
1070
     4
1000

1002
{
1002
}
1000
Color
1070
     1
1070
     7
1002
{
1002
}
1000
LType
1070
     4
1000
GEN7A
1002
{
1002
}
1002
}
1000
RSBO
1070
     9
1000
4
1002
{
1000
Class
1070
     4
1000
BGD
1002
{
1002
}
1000
Color
1070
     1
1070
   256
1002
{
1002
}
1000
LType
1070
     4
1000
BYLAYER
1002
{
1002
}
1002
}
1000
SBRK
1070
     9
1000
4
1002
{
1000
Class
1070
     4
1000
BGD
1002
{
1002
}
1000
Color
1070
     1
1070
   256
1002
{
1002
}
1000
LType
1070
     4
1000
BYLAYER
1002
{
1002
}
1002
}
1000
SCEN
1070
     9
1000
7
1002
{
1000
Class
1070
     4
1000

1002
{
1002
}
1000
Color
1070
     1
1070
   256
1002
{
1002
}
1000
LType
1070
     4
1000
CONTINUOUS
1002
{
1002
}
1002
}
1000
SECT
1070
     9
1000
4
1002
{
1000
Class
1070
     4
1000
BGD
1002
{
1002
}
1000
Color
1070
     1
1070
   256
1002
{
1002
}
1000
LType
1070
     4
1000
BYLAYER
1002
{
1002
}
1002
}
1000
SELN
1070
     9
1000
7A
1002
{
1000
Class
1070
     4
1000

1002
{
1002
}
1000
Color
1070
     1
1070
   256
1002
{
1002
}
1000
LType
1070
     4
1000
BYLAYER
1002
{
1002
}
1002
}
1000
SELW
1070
     9
1000
7
1002
{
1000
Class
1070
     4
1000

1002
{
1002
}
1000
Color
1070
     1
1070
   256
1002
{
1002
}
1000
LType
1070
     4
1000
BYLAYER
1002
{
1002
}
1002
}
1000
SSYS
1070
     9
1000
0
1002
{
1000
Class
1070
     4
1000

1002
{
1002
}
1000
Color
1070
     1
1070
   256
1002
{
1002
}
1000
LType
1070
     4
1000
BYLAYER
1002
{
1002
}
1002
}
1000
STLI
1070
     9
1000
4
1002
{
1000
Class
1070
     4
1000

1002
{
1002
}
1000
Color
1070
     1
1070
     7
1002
{
1002
}
1000
LType
1070
     4
1000
GEN3A
1002
{
1002
}
1002
}
1000
SYB1
1070
     9
1000
5
1002
{
1000
Class
1070
     4
1000
SYM
1002
{
1002
}
1000
Color
1070
     1
1070
   256
1002
{
1002
}
1000
LType
1070
     4
1000
BYLAYER
1002
{
1002
}
1002
}
1000
SYB2
1070
     9
1000
5
1002
{
1000
Class
1070
     4
1000
SYM
1002
{
1002
}
1000
Color
1070
     1
1070
   256
1002
{
1002
}
1000
LType
1070
     4
1000
BYLAYER
1002
{
1002
}
1002
}
1000
SYB3
1070
     9
1000
6
1002
{
1000
Class
1070
     4
1000
SYM
1002
{
1002
}
1000
Color
1070
     1
1070
   256
1002
{
1002
}
1000
LType
1070
     4
1000
CONTINUOUS
1002
{
1002
}
1002
}
1000
SYB5
1070
     9
1000
5
1002
{
1000
Class
1070
     4
1000
SYM
1002
{
1002
}
1000
Color
1070
     1
1070
     7
1002
{
1002
}
1000
LType
1070
     4
1000
BYLAYER
1002
{
1002
}
1002
}
1000
SYMN
1070
     9
1000
7A
1002
{
1000
Class
1070
     4
1000
CEN
1002
{
1002
}
1000
Color
1070
     1
1070
   256
1002
{
1002
}
1000
LType
1070
     4
1000
BYLAYER
1002
{
1002
}
1002
}
1000
SYMW
1070
     9
1000
7
1002
{
1000
Class
1070
     4
1000
CEN
1002
{
1002
}
1000
Color
1070
     1
1070
   256
1002
{
1002
}
1000
LType
1070
     4
1000
BYLAYER
1002
{
1002
}
1002
}
1000
TCON
1070
     9
1000
0
1002
{
1000
Class
1070
     4
1000
CON,BGD
1002
{
1002
}
1000
Color
1070
     1
1070
   256
1002
{
1002
}
1000
LType
1070
     4
1000
BYLAYER
1002
{
1002
}
1002
}
1000
THLI
1070
     9
1000
4
1002
{
1000
Class
1070
     4
1000
BGD
1002
{
1002
}
1000
Color
1070
     1
1070
   256
1002
{
1002
}
1000
LType
1070
     4
1000
BYLAYER
1002
{
1002
}
1002
}
1000
TIT2
1070
     9
1000
RAHM2
1002
{
1000
Class
1070
     4
1000
SPZ,SYM
1002
{
1002
}
1000
Color
1070
     1
1070
   256
1002
{
1002
}
1000
LType
1070
     4
1000
BYLAYER
1002
{
1002
}
1002
}
1000
TIT3
1070
     9
1000
RAHM3
1002
{
1000
Class
1070
     4
1000
SPZ,SYM
1002
{
1002
}
1000
Color
1070
     1
1070
   256
1002
{
1002
}
1000
LType
1070
     4
1000
BYLAYER
1002
{
1002
}
1002
}
1000
TIT5
1070
     9
1000
RAHM5
1002
{
1000
Class
1070
     4
1000
SPZ,SYM
1002
{
1002
}
1000
Color
1070
     1
1070
   256
1002
{
1002
}
1000
LType
1070
     4
1000
BYLAYER
1002
{
1002
}
1002
}
1000
TIT7
1070
     9
1000
RAHM5
1002
{
1000
Class
1070
     4
1000
SPZ,SYM
1002
{
1002
}
1000
Color
1070
     1
1070
     7
1002
{
1002
}
1000
LType
1070
     4
1000
CONTINUOUS
1002
{
1002
}
1002
}
1000
TLEN
1070
     9
1000
0
1002
{
1000
Class
1070
     4
1000
CON,BGD
1002
{
1002
}
1000
Color
1070
     1
1070
   256
1002
{
1002
}
1000
LType
1070
     4
1000
BYLAYER
1002
{
1002
}
1002
}
1000
TRKN
1070
     9
1000
7A
1002
{
1000
Class
1070
     4
1000

1002
{
1002
}
1000
Color
1070
     1
1070
   256
1002
{
1002
}
1000
LType
1070
     4
1000
BYLAYER
1002
{
1002
}
1002
}
1000
TRKW
1070
     9
1000
7
1002
{
1000
Class
1070
     4
1000

1002
{
1002
}
1000
Color
1070
     1
1070
   256
1002
{
1002
}
1000
LType
1070
     4
1000
BYLAYER
1002
{
1002
}
1002
}
1000
TRLI
1070
     9
1000
4
1002
{
1000
Class
1070
     4
1000
BGD
1002
{
1002
}
1000
Color
1070
     1
1070
   256
1002
{
1002
}
1000
LType
1070
     4
1000
BYLAYER
1002
{
1002
}
1002
}
1000
TXT1
1070
     9
1000
6
1002
{
1000
Class
1070
     4
1000
SYM
1002
{
1002
}
1000
Color
1070
     1
1070
     2
1002
{
1002
}
1000
LType
1070
     4
1000
BYLAYER
1002
{
1002
}
1002
}
1000
TXT2
1070
     9
1000
6
1002
{
1000
Class
1070
     4
1000
SYM
1002
{
1002
}
1000
Color
1070
     1
1070
     2
1002
{
1002
}
1000
LType
1070
     4
1000
BYLAYER
1002
{
1002
}
1002
}
1000
TXT3
1070
     9
1000
6
1002
{
1000
Class
1070
     4
1000
SYM
1002
{
1002
}
1000
Color
1070
     1
1070
   256
1002
{
1002
}
1000
LType
1070
     4
1000
BYLAYER
1002
{
1002
}
1002
}
1000
TXT5
1070
     9
1000
6
1002
{
1000
Class
1070
     4
1000
SYM
1002
{
1002
}
1000
Color
1070
     1
1070
     7
1002
{
1002
}
1000
LType
1070
     4
1000
BYLAYER
1002
{
1002
}
1002
}
1000
TXT7
1070
     9
1000
6
1002
{
1000
Class
1070
     4
1000
SYM
1002
{
1002
}
1000
Color
1070
     1
1070
     7
1002
{
1002
}
1000
LType
1070
     4
1000
BYLAYER
1002
{
1002
}
1002
}
1000
VIEW
1070
     9
1000
VIEW
1002
{
1000
Class
1070
     4
1000
SPZ
1002
{
1002
}
1000
Color
1070
     1
1070
   256
1002
{
1002
}
1000
LType
1070
     4
1000
BYLAYER
1002
{
1002
}
1002
}
1000
VPLI
1070
     9
1000
2A
1002
{
1000
Class
1070
     4
1000

1002
{
1002
}
1000
Color
1070
     1
1070
   256
1002
{
1002
}
1000
LType
1070
     4
1000
BYLAYER
1002
{
1002
}
1002
}
1000
ZIZA
1070
     9
1000
4
1002
{
1000
Class
1070
     4
1000
BGD
1002
{
1002
}
1000
Color
1070
     1
1070
   256
1002
{
1002
}
1000
LType
1070
     4
1000
GENZIGZAG
1002
{
1002
}
1002
}
  0
APPID
  5
1004
330
9
100
AcDbSymbolTableRecord
100
AcDbRegAppTableRecord
  2
GENIUS_GENCFG4_13
 70
     0
1001
GENIUS_GENCFG_13
1071
912092039
1000
1004
1000
GEN
1070
     9
1000
GenCfgObject
1000
GenCfgShort
1000
GenCfgReal
1000
GenCfgBool
1000
GenCfgString
1000
GenCfgDim
1000
GenCfgLaySection
1000
GenCfgLType
1000
GenCfgFilter
1000
Balloon
1070
     0
1002
{
1000
GenIF
1070
     1
1070
     3
1002
{
1002
}
1000
GenPosInc
1070
     1
1070
     1
1002
{
1002
}
1000
GenPosBlk
1070
     1
1070
     8
1002
{
1002
}
1000
GenPosVar
1070
     1
1070
     0
1002
{
1002
}
1000
GenZiCir
1070
     2
1040
1.5
1002
{
1002
}
1000
MaxCharForCenteredText
1070
     1
1070
    30
1002
{
1002
}
1000
Snap
1070
     0
1002
{
1000
ActivationRadius
1070
     2
1040
1.0
1002
{
1002
}
1000
M
1070
     0
1002
{
1000
SnapStepX
1070
     2
1040
20.0
1002
{
1002
}
1000
SnapStepY
1070
     2
1040
10.0
1002
{
1002
}
1002
}
1000
I
1070
     0
1002
{
1000
SnapStepX
1070
     2
1040
1.0
1002
{
1002
}
1000
SnapStepY
1070
     2
1040
0.5
1002
{
1002
}
1002
}
1002
}
1002
}
1000
Centerline
1070
     0
1002
{
1000
ScaleNot
1070
     3
1070
     0
1002
{
1002
}
1000
M
1070
     0
1002
{
1000
GenCenAng
1070
     4
1000
45|90|135
1002
{
1002
}
1000
GenCenDia
1070
     2
1040
10.0
1002
{
1002
}
1000
GenCenDias
1070
     4
1000
10|20|30
1002
{
1002
}
1000
GenCenDist
1070
     2
1040
3.0
1002
{
1002
}
1000
GenCenLen
1070
     2
1040
10.0
1002
{
1002
}
1000
GenCenOff
1070
     2
1040
10.0
1002
{
1002
}
1002
}
1000
I
1070
     0
1002
{
1000
GenCenAng
1070
     4
1000
45|90|135
1002
{
1002
}
1000
GenCenDia
1070
     2
1040
0.5
1002
{
1002
}
1000
GenCenDias
1070
     4
1000
0.5|1.0|1.5
1002
{
1002
}
1000
GenCenDist
1070
     2
1040
0.125
1002
{
1002
}
1000
GenCenLen
1070
     2
1040
0.5
1002
{
1002
}
1000
GenCenOff
1070
     2
1040
0.5
1002
{
1002
}
1002
}
1002
}
1000
CLine
1070
     0
1002
{
1000
CAngArray
1070
     4
1000
30|45|60
1002
{
1002
}
1000
Typ
1070
     4
1000
XLINE
1002
{
1002
}
1000
M
1070
     0
1002
{
1000
CLinArray
1070
     4
1000
10|20|30
1002
{
1002
}
1002
}
1000
I
1070
     0
1002
{
1000
CLinArray
1070
     4
1000
0.125|0.25|0.5
1002
{
1002
}
1002
}
1002
}
1000
Detail
1070
     0
1002
{
1002
}
1000
Dimension
1070
     5
1002
{
1000
DIMALT
1070
     1
1070
     0
1002
{
1002
}
1000
DIMALTD
1070
     1
1070
     2
1002
{
1002
}
1000
DIMALTTD
1070
     1
1070
     4
1002
{
1002
}
1000
DIMALTTZ
1070
     1
1070
     0
1002
{
1002
}
1000
DIMALTU
1070
     1
1070
     2
1002
{
1002
}
1000
DIMALTZ
1070
     1
1070
     0
1002
{
1002
}
1000
DIMAUNIT
1070
     1
1070
     0
1002
{
1002
}
1000
DIMBLK
1070
     4
1000

1002
{
1002
}
1000
DIMBLK1
1070
     4
1000

1002
{
1002
}
1000
DIMBLK2
1070
     4
1000

1002
{
1002
}
1000
DIMCLRD
1070
     1
1070
   256
1002
{
1002
}
1000
DIMCLRE
1070
     1
1070
   256
1002
{
1002
}
1000
DIMCLRT
1070
     1
1070
     2
1002
{
1002
}
1000
DIMDLE
1070
     2
1040
0.0
1002
{
1002
}
1000
DIMFIT
1070
     1
1070
     3
1002
{
1002
}
1000
DIMJUST
1070
     1
1070
     0
1002
{
1002
}
1000
DIMLFAC
1070
     2
1040
1.0
1002
{
1002
}
1000
DIMLIM
1070
     1
1070
     0
1002
{
1002
}
1000
DIMPOST
1070
     4
1000

1002
{
1002
}
1000
DIMRND
1070
     2
1040
0.0
1002
{
1002
}
1000
DIMSAH
1070
     1
1070
     0
1002
{
1002
}
1000
DIMSCALE
1070
     2
1040
1.0
1002
{
1000
S1_5
1070
     4
1000
5
1002
{
1002
}
1000
S1_10
1070
     4
1000
10
1002
{
1002
}
1002
}
1000
DIMSD1
1070
     1
1070
     0
1002
{
1002
}
1000
DIMSD2
1070
     1
1070
     0
1002
{
1002
}
1000
DIMSE1
1070
     1
1070
     0
1002
{
1002
}
1000
DIMSE2
1070
     1
1070
     0
1002
{
1002
}
1000
DIMSOXD
1070
     1
1070
     0
1002
{
1002
}
1000
DIMTAD
1070
     1
1070
     0
1002
{
1002
}
1000
DIMTFAC
1070
     2
1040
0.71
1002
{
1002
}
1000
DIMTIH
1070
     1
1070
     0
1002
{
1002
}
1000
DIMTIX
1070
     1
1070
     0
1002
{
1002
}
1000
DIMTM
1070
     2
1040
0.1
1002
{
1002
}
1000
DIMTOFL
1070
     1
1070
     0
1002
{
1002
}
1000
DIMTOH
1070
     1
1070
     0
1002
{
1002
}
1000
DIMTOL
1070
     1
1070
     0
1002
{
1002
}
1000
DIMTOLJ
1070
     1
1070
     1
1002
{
1002
}
1000
DIMTP
1070
     2
1040
0.1
1002
{
1002
}
1000
DIMTSZ
1070
     2
1040
0.0
1002
{
1002
}
1000
DIMTVP
1070
     2
1040
0.0
1002
{
1002
}
1000
DIMTXSTY
1070
     4
1000
STANDARD
1002
{
1002
}
1000
DIMTZIN
1070
     1
1070
     0
1002
{
1002
}
1000
DIMUNIT
1070
     1
1070
     2
1002
{
1002
}
1000
DIMUPT
1070
     1
1070
     0
1002
{
1002
}
1000
M
1070
     0
1002
{
1000
DIMALTF
1070
     2
1040
0.0393701
1002
{
1002
}
1000
DIMAPOST
1070
     4
1000
"
1002
{
1002
}
1000
DIMASZ
1070
     2
1040
2.5
1002
{
1002
}
1000
DIMCEN
1070
     2
1040
0.0
1002
{
1002
}
1000
DIMDEC
1070
     1
1070
     2
1002
{
1002
}
1000
DIMDLI
1070
     2
1040
7.0
1002
{
1002
}
1000
DIMEXE
1070
     2
1040
1.0
1002
{
1002
}
1000
DIMEXO
1070
     2
1040
1.0
1002
{
1002
}
1000
DIMGAP
1070
     2
1040
0.6
1002
{
1002
}
1000
DIMTDEC
1070
     1
1070
     3
1002
{
1002
}
1000
DIMTXT
1070
     2
1040
3.5
1002
{
1002
}
1000
DIMZIN
1070
     1
1070
     8
1002
{
1002
}
1002
}
1000
I
1070
     0
1002
{
1000
DIMALTF
1070
     2
1040
25.4
1002
{
1002
}
1000
DIMAPOST
1070
     4
1000
mm
1002
{
1002
}
1000
DIMASZ
1070
     2
1040
0.1
1002
{
1002
}
1000
DIMCEN
1070
     2
1040
0.0
1002
{
1002
}
1000
DIMDEC
1070
     1
1070
     4
1002
{
1002
}
1000
DIMDLI
1070
     2
1040
0.5
1002
{
1002
}
1000
DIMEXE
1070
     2
1040
0.1
1002
{
1002
}
1000
DIMEXO
1070
     2
1040
0.05
1002
{
1002
}
1000
DIMGAP
1070
     2
1040
0.06
1002
{
1002
}
1000
DIMTDEC
1070
     1
1070
     4
1002
{
1002
}
1000
DIMTXT
1070
     2
1040
0.12
1002
{
1002
}
1000
DIMZIN
1070
     1
1070
     7
1002
{
1002
}
1002
}
1000
GEN-ISO
1070
     5
1002
{
1000
NAME
1070
     4
1000
GEN-ISO
1002
{
1002
}
1000
DIMTAD
1070
     1
1070
     1
1002
{
1002
}
1000
DIMTOLJ
1070
     1
1070
     0
1002
{
1002
}
1000
DIMTOFL
1070
     1
1070
     1
1002
{
1002
}
1000
M
1070
     0
1002
{
1000
DIMEXE
1070
     2
1040
0.0
1002
{
1002
}
1000
DIMEXO
1070
     2
1040
0.0
1002
{
1002
}
1002
}
1000
I
1070
     0
1002
{
1002
}
1002
}
1000
GEN-ISO-POS
1070
     5
1002
{
1000
NAME
1070
     4
1000
GEN-ISO-POS
1002
{
1002
}
1000
DIMTOLJ
1070
     1
1070
     0
1002
{
1002
}
1000
DIMTXSTY
1070
     4
1000
STANDARD
1002
{
1002
}
1000
M
1070
     0
1002
{
1000
DIMASZ
1070
     2
1040
2.5
1002
{
1002
}
1000
DIMGAP
1070
     2
1040
1.5
1002
{
1002
}
1000
DIMTXT
1070
     2
1040
5.0
1002
{
1002
}
1002
}
1000
I
1070
     0
1002
{
1000
DIMASZ
1070
     2
1040
0.1
1002
{
1002
}
1000
DIMGAP
1070
     2
1040
0.06
1002
{
1002
}
1000
DIMTXT
1070
     2
1040
0.2
1002
{
1002
}
1002
}
1002
}
1000
GEN-ISO-CIR
1070
     5
1002
{
1000
NAME
1070
     4
1000
GEN-ISO$3
1002
{
1002
}
1000
DIMFIT
1070
     1
1070
     0
1002
{
1002
}
1000
DIMTAD
1070
     1
1070
     1
1002
{
1002
}
1000
DIMTOH
1070
     1
1070
     1
1002
{
1002
}
1000
DIMTOLJ
1070
     1
1070
     0
1002
{
1002
}
1000
DIMUPT
1070
     1
1070
     1
1002
{
1002
}
1000
M
1070
     0
1002
{
1002
}
1000
I
1070
     0
1002
{
1002
}
1000
DIMTIH
1070
     1
1070
     0
1002
{
1002
}
1000
DIMTIX
1070
     1
1070
     0
1002
{
1002
}
1000
DIMTOFL
1070
     1
1070
     0
1002
{
1002
}
1002
}
1000
GEN-ISO-RAD
1070
     5
1002
{
1000
NAME
1070
     4
1000
GEN-ISO$4
1002
{
1002
}
1000
DIMFIT
1070
     1
1070
     0
1002
{
1002
}
1000
DIMTAD
1070
     1
1070
     1
1002
{
1002
}
1000
DIMTOH
1070
     1
1070
     1
1002
{
1002
}
1000
DIMTOLJ
1070
     1
1070
     0
1002
{
1002
}
1000
DIMUPT
1070
     1
1070
     1
1002
{
1002
}
1000
M
1070
     0
1002
{
1000
DIMASZ
1070
     2
1040
1.5
1002
{
1002
}
1000
DIMEXE
1070
     2
1040
0.0
1002
{
1002
}
1000
DIMEXO
1070
     2
1040
0.0
1002
{
1002
}
1002
}
1000
I
1070
     0
1002
{
1002
}
1000
DIMTIH
1070
     1
1070
     0
1002
{
1002
}
1000
DIMTIX
1070
     1
1070
     0
1002
{
1002
}
1000
DIMTOFL
1070
     1
1070
     0
1002
{
1002
}
1002
}
1000
GEN-ISO-ORD
1070
     5
1002
{
1000
NAME
1070
     4
1000
GEN-ISO$6
1002
{
1002
}
1000
DIMTOLJ
1070
     1
1070
     0
1002
{
1002
}
1000
M
1070
     0
1002
{
1002
}
1000
I
1070
     0
1002
{
1002
}
1002
}
1000
GEN-ISO-AXE-F
1070
     5
1002
{
1000
NAME
1070
     4
1000
GEN-ISO-AXE-F
1002
{
1002
}
1000
DIMSE1
1070
     1
1070
     1
1002
{
1002
}
1000
DIMSE2
1070
     1
1070
     1
1002
{
1002
}
1000
DIMTAD
1070
     1
1070
     1
1002
{
1002
}
1000
DIMTOLJ
1070
     1
1070
     0
1002
{
1002
}
1000
DIMTOFL
1070
     1
1070
     1
1002
{
1002
}
1000
M
1070
     0
1002
{
1002
}
1000
I
1070
     0
1002
{
1002
}
1002
}
1000
GEN-ISO-AXE-H
1070
     5
1002
{
1000
NAME
1070
     4
1000
GEN-ISO-AXE-H
1002
{
1002
}
1000
DIMBLK1
1070
     4
1000
GENAXEH
1002
{
1002
}
1000
DIMLFAC
1070
     2
1040
2.0
1002
{
1002
}
1000
DIMSAH
1070
     1
1070
     1
1002
{
1002
}
1000
DIMSE1
1070
     1
1070
     1
1002
{
1002
}
1000
DIMSE2
1070
     1
1070
     1
1002
{
1002
}
1000
DIMTAD
1070
     1
1070
     1
1002
{
1002
}
1000
DIMTOLJ
1070
     1
1070
     0
1002
{
1002
}
1000
DIMTOFL
1070
     1
1070
     1
1002
{
1002
}
1000
M
1070
     0
1002
{
1002
}
1000
I
1070
     0
1002
{
1002
}
1002
}
1000
GEN-ANSI
1070
     5
1002
{
1000
NAME
1070
     4
1000
GEN-ANSI
1002
{
1002
}
1000
DIMTIH
1070
     1
1070
     1
1002
{
1002
}
1000
DIMTOH
1070
     1
1070
     1
1002
{
1002
}
1000
DIMTAD
1070
     1
1070
     0
1002
{
1002
}
1000
DIMTOLJ
1070
     1
1070
     1
1002
{
1002
}
1000
M
1070
     0
1002
{
1002
}
1000
I
1070
     0
1002
{
1002
}
1002
}
1000
GEN-ANSI-POS
1070
     5
1002
{
1000
NAME
1070
     4
1000
GEN-ANSI-POS
1002
{
1002
}
1000
DIMTOLJ
1070
     1
1070
     1
1002
{
1002
}
1000
DIMTXSTY
1070
     4
1000
STANDARD
1002
{
1002
}
1000
M
1070
     0
1002
{
1000
DIMASZ
1070
     2
1040
2.5
1002
{
1002
}
1000
DIMGAP
1070
     2
1040
1.5
1002
{
1002
}
1000
DIMTXT
1070
     2
1040
5.0
1002
{
1002
}
1002
}
1000
I
1070
     0
1002
{
1000
DIMASZ
1070
     2
1040
0.1
1002
{
1002
}
1000
DIMGAP
1070
     2
1040
0.06
1002
{
1002
}
1000
DIMTXT
1070
     2
1040
0.2
1002
{
1002
}
1002
}
1002
}
1000
GEN-ANSI-CIR
1070
     5
1002
{
1000
NAME
1070
     4
1000
GEN-ANSI$3
1002
{
1002
}
1000
DIMFIT
1070
     1
1070
     0
1002
{
1002
}
1000
DIMTAD
1070
     1
1070
     0
1002
{
1002
}
1000
DIMTIH
1070
     1
1070
     1
1002
{
1002
}
1000
DIMTIX
1070
     1
1070
     0
1002
{
1002
}
1000
DIMTOFL
1070
     1
1070
     0
1002
{
1002
}
1000
DIMTOH
1070
     1
1070
     1
1002
{
1002
}
1000
DIMTOLJ
1070
     1
1070
     1
1002
{
1002
}
1000
DIMUPT
1070
     1
1070
     1
1002
{
1002
}
1000
M
1070
     0
1002
{
1002
}
1000
I
1070
     0
1002
{
1002
}
1002
}
1000
GEN-ANSI-RAD
1070
     5
1002
{
1000
NAME
1070
     4
1000
GEN-ANSI$4
1002
{
1002
}
1000
DIMFIT
1070
     1
1070
     0
1002
{
1002
}
1000
DIMTAD
1070
     1
1070
     0
1002
{
1002
}
1000
DIMTIH
1070
     1
1070
     1
1002
{
1002
}
1000
DIMTIX
1070
     1
1070
     0
1002
{
1002
}
1000
DIMTOFL
1070
     1
1070
     0
1002
{
1002
}
1000
DIMTOH
1070
     1
1070
     1
1002
{
1002
}
1000
DIMTOLJ
1070
     1
1070
     1
1002
{
1002
}
1000
DIMUPT
1070
     1
1070
     1
1002
{
1002
}
1000
M
1070
     0
1002
{
1002
}
1000
I
1070
     0
1002
{
1002
}
1002
}
1000
GEN-ANSI-ORD
1070
     5
1002
{
1000
NAME
1070
     4
1000
GEN-ANSI$6
1002
{
1002
}
1000
DIMTAD
1070
     1
1070
     0
1002
{
1002
}
1000
DIMTIH
1070
     1
1070
     1
1002
{
1002
}
1000
DIMTOH
1070
     1
1070
     1
1002
{
1002
}
1000
DIMTOLJ
1070
     1
1070
     1
1002
{
1002
}
1000
M
1070
     0
1002
{
1002
}
1000
I
1070
     0
1002
{
1002
}
1002
}
1000
GEN-ANSI-AXE-F
1070
     5
1002
{
1000
NAME
1070
     4
1000
GEN-ANSI-AXE-F
1002
{
1002
}
1000
DIMBLK1
1070
     4
1000
GENAXEH
1002
{
1002
}
1000
DIMSAH
1070
     1
1070
     1
1002
{
1002
}
1000
DIMSE1
1070
     1
1070
     1
1002
{
1002
}
1000
DIMSE2
1070
     1
1070
     1
1002
{
1002
}
1000
DIMTAD
1070
     1
1070
     0
1002
{
1002
}
1000
DIMTIH
1070
     1
1070
     1
1002
{
1002
}
1000
DIMTOH
1070
     1
1070
     1
1002
{
1002
}
1000
DIMTOLJ
1070
     1
1070
     1
1002
{
1002
}
1000
M
1070
     0
1002
{
1002
}
1000
I
1070
     0
1002
{
1002
}
1002
}
1000
GEN-ANSI-AXE-H
1070
     5
1002
{
1000
NAME
1070
     4
1000
GEN-ANSI-AXE-H
1002
{
1002
}
1000
DIMBLK1
1070
     4
1000
GENAXEH
1002
{
1002
}
1000
DIMLFAC
1070
     2
1040
2.0
1002
{
1002
}
1000
DIMSAH
1070
     1
1070
     1
1002
{
1002
}
1000
DIMSE1
1070
     1
1070
     1
1002
{
1002
}
1000
DIMSE2
1070
     1
1070
     1
1002
{
1002
}
1000
DIMTAD
1070
     1
1070
     0
1002
{
1002
}
1000
DIMTOFL
1070
     1
1070
     1
1002
{
1002
}
1000
DIMTOLJ
1070
     1
1070
     1
1002
{
1002
}
1000
M
1070
     0
1002
{
1002
}
1000
I
1070
     0
1002
{
1002
}
1002
}
1002
}
1000
DimSet
1070
     0
1002
{
1000
ChainSum
1070
     3
1070
     0
1002
{
1002
}
1000
DimDclTyp0
1070
     4
1000
dim23
1002
{
1002
}
1000
HorBra
1070
     3
1070
     0
1002
{
1002
}
1000
StrDia
1070
     4
1000
%%c<>
1002
{
1002
}
1000
StrRad
1070
     4
1000
R<>
1002
{
1002
}
1000
TextMinus
1070
     4
1000
<>
1002
{
1002
}
1000
TextPlus
1070
     4
1000
<>
1002
{
1002
}
1000
M
1070
     0
1002
{
1000
DimdliFirst
1070
     2
1040
10.0
1002
{
1002
}
1000
PointMakeDist
1070
     2
1040
10.0
1002
{
1002
}
1002
}
1000
I
1070
     0
1002
{
1000
DimdliFirst
1070
     2
1040
0.5
1002
{
1002
}
1000
PointMakeDist
1070
     2
1040
0.5
1002
{
1002
}
1002
}
1000
FitGrade
1070
     4
1000
h7
1002
{
1002
}
1002
}
1000
Drawing
1070
     0
1002
{
1000
ChamferDimMode
1070
     1
1070
     2
1002
{
1002
}
1000
Gen_Fiso
1070
    -3
1040
1.0
1002
{
1002
}
1000
GenDimStil
1070
     4
1000
ISO
1002
{
1002
}
1000
GenDwgUScale
1070
     2
1040
1.0
1002
{
1002
}
1000
GenInch
1070
     4
1000
M
1002
{
1002
}
1000
GenPlotScale
1070
     4
1000
1:1
1002
{
1002
}
1000
Revisi
1070
     4
1000
0
1002
{
1002
}
1000
Version
1070
    -5
1000
14.01/May 26 1998
1002
{
1002
}
1000
Platform
1070
    -5
1000
WINNT
1002
{
1002
}
1002
}
1000
DwgVar
1070
     0
1002
{
1000
M
1070
     0
1002
{
1002
}
1000
I
1070
     0
1002
{
1002
}
1002
}
1000
Hatch
1070
     0
1002
{
1000
GenHtcFlag
1070
     3
1070
     0
1002
{
1002
}
1002
}
1000
Info_Pos
1070
     0
1002
{
1000
>
1002
}
1000
Layer
1070
     6
1002
{
1000
Defs
1070
     0
1002
{
1000
>
1002
}
1000
EntSort
1070
     0
1002
{
1000
>
1002
}
1000
Match
1070
     0
1002
{
1002
}
1000
Settings
1070
     0
1002
{
1000
FocGrNC
1070
     3
1070
     0
1002
{
1002
}
1000
FocGrLo
1070
     3
1070
     0
1002
{
1002
}
1000
FocLoNC
1070
     3
1070
     0
1002
{
1002
}
1000
FocusCol
1070
     1
1070
   253
1002
{
1002
}
1000
GenStdLG
1070
     4
1000

1002
{
1002
}
1000
LayMatch
1070
     3
1070
     0
1002
{
1002
}
1000
LgOff
1070
     3
1070
     0
1002
{
1002
}
1000
CurLG
1070
    -5
1000

1002
{
1002
}
1002
}
1002
}
1000
LType
1070
     0
1002
{
1000
GEN3
1070
     7
1000
genius.lin
1002
{
1002
}
1000
GEN7
1070
     7
1000
genius.lin
1002
{
1002
}
1000
GEN4A
1070
     7
1000
genius.lin
1002
{
1002
}
1000
GEN3A
1070
     7
1000
genius.lin
1002
{
1002
}
1000
GEN7A
1070
     7
1000
genius.lin
1002
{
1002
}
1000
GENZIGZAG
1070
     7
1000
genius.lin
1002
{
1002
}
1002
}
1000
Objecter
1070
     0
1002
{
1000
CreateGroups
1070
     3
1070
     0
1002
{
1002
}
1000
LaySwitch
1070
     3
1070
     1
1002
{
1002
}
1000
LastObj
1070
    -5
1000
0
1002
{
1002
}
1000
TimeStamp
1070
    -5
1000
19981126.15535021
1002
{
1002
}
1002
}
1000
OSWiz
1070
     0
1002
{
1000
Filter
1070
     0
1002
{
1000
HATCH
1070
     8
1002
{
1000
EntityType
1070
     4
1000
LINE
1002
{
1002
}
1000
Layer
1070
     4
1000
8,8N,*-8,*-8N
1002
{
1002
}
1000
Linetype
1070
     4
1000
*
1002
{
1002
}
1000
Color
1070
     4
1000
*
1002
{
1002
}
1000
ApplyInDims
1070
     3
1070
     1
1002
{
1002
}
1002
}
1000
SYMBOLS
1070
     8
1002
{
1000
EntityType
1070
     4
1000
*
1002
{
1002
}
1000
Layer
1070
     4
1000
[5-6],[5-6]N,*-[5-6],*-[5-6]N
1002
{
1002
}
1000
Linetype
1070
     4
1000
*
1002
{
1002
}
1000
Color
1070
     4
1000
*
1002
{
1002
}
1000
ApplyInDims
1070
     3
1070
     1
1002
{
1002
}
1002
}
1000
FEM
1070
     8
1002
{
1000
EntityType
1070
     4
1000
*
1002
{
1002
}
1000
Layer
1070
     4
1000
4A,4AN,*-4A,*-4AN
1002
{
1002
}
1000
Linetype
1070
     4
1000
*
1002
{
1002
}
1000
Color
1070
     4
1000
*
1002
{
1002
}
1000
ApplyInDims
1070
     3
1070
     1
1002
{
1002
}
1002
}
1002
}
1002
}
1000
PaList
1070
     0
1002
{
1000
AutoUpdatePartList
1070
     1
1070
     0
1002
{
1002
}
1000
ReadInfoPoint
1070
     3
1070
     0
1002
{
1002
}
1000
ReadPosNr
1070
     3
1070
     1
1002
{
1002
}
1000
RevStr
1070
     4
1000
0
1002
{
1002
}
1002
}
1000
Paper
1070
     0
1002
{
1000
Layer
1070
    -5
1000
5
1002
{
1002
}
1002
}
1000
PartDB
1070
     0
1002
{
1000
GenDbOwner
1070
     4
1000

1002
{
1002
}
1002
}
1000
System
1070
     0
1002
{
1000
Menu
1070
     4
1000
GEV
1002
{
1002
}
1002
}
1000
Title
1070
     0
1002
{
1000
MakeView
1070
     1
1070
     2
1002
{
1002
}
1002
}
1000
Tools
1070
     0
1002
{
1000
Trans
1070
     0
1002
{
1000
Drawingtranslation
1070
    -4
1070
     1
1002
{
1002
}
1000
upreserve
1070
     3
1070
     1
1002
{
1002
}
1000
originally_on
1070
    -4
1070
     0
1002
{
1002
}
1000
sourcelang
1070
    -5
1000
D
1002
{
1002
}
1002
}
1002
}
  0
APPID
  5
1005
330
9
100
AcDbSymbolTableRecord
100
AcDbRegAppTableRecord
  2
GENIUS_GEVCFG0_13
 70
     0
1001
GENIUS_GENCFG_13
1071
912092035
1000
1005
1000
GEV
1070
     1
1000
GenCfgObject
1000
VED
1070
     0
1002
{
1002
}
  0
APPID
  5
112B
330
9
100
AcDbSymbolTableRecord
100
AcDbRegAppTableRecord
  2
GEV_VCCNULL_SWITCH_OFF
 70
     0
  0
APPID
  5
1138
330
9
100
AcDbSymbolTableRecord
100
AcDbRegAppTableRecord
  2
GENIUS_GENDTOL_13
 70
     0
  0
APPID
  5
1203
330
9
100
AcDbSymbolTableRecord
100
AcDbRegAppTableRecord
  2
GENIUS_GENDIM_13
 70
     0
  0
APPID
  5
1205
330
9
100
AcDbSymbolTableRecord
100
AcDbRegAppTableRecord
  2
GENIUS_GE3DTOL_13
 70
     0
  0
APPID
  5
1208
330
9
100
AcDbSymbolTableRecord
100
AcDbRegAppTableRecord
  2
ACAD_TEMP_GRAPHIC
 70
     0
  0
APPID
  5
1212
330
9
100
AcDbSymbolTableRecord
100
AcDbRegAppTableRecord
  2
ACATTRIBSERVICES
 70
     0
  0
APPID
  5
1273
330
9
100
AcDbSymbolTableRecord
100
AcDbRegAppTableRecord
  2
ACADM_DIM_EDIT
 70
     0
  0
APPID
  5
1285
330
9
100
AcDbSymbolTableRecord
100
AcDbRegAppTableRecord
  2
GENIUS_GENSCREG_15
 70
     0
  0
APPID
  5
1287
330
9
100
AcDbSymbolTableRecord
100
AcDbRegAppTableRecord
  2
GENIUS_GENODEF_13
 70
     0
  0
APPID
  5
1288
330
9
100
AcDbSymbolTableRecord
100
AcDbRegAppTableRecord
  2
GENIUS_GENOBJ-N-SDF_13
 70
     0
  0
APPID
  5
1289
330
9
100
AcDbSymbolTableRecord
100
AcDbRegAppTableRecord
  2
GENIUS_GENOENT_13
 70
     0
  0
APPID
  5
128A
330
9
100
AcDbSymbolTableRecord
100
AcDbRegAppTableRecord
  2
GENIUS_GENOREF_13
 70
     0
  0
APPID
  5
128B
330
9
100
AcDbSymbolTableRecord
100
AcDbRegAppTableRecord
  2
GENIUS_GENOLIS_13
 70
     0
  0
APPID
  5
14A0
330
9
100
AcDbSymbolTableRecord
100
AcDbRegAppTableRecord
  2
GENIUS_GEFCFG0_13
 70
     0
  0
ENDTAB
  0
TABLE
  2
DIMSTYLE
  5
A
330
0
100
AcDbSymbolTable
 70
    15
100
AcDbDimStyleTable
 71
     1
340
10B
  0
DIMSTYLE
105
10B
102
{ACAD_REACTORS
330
1722
330
172F
330
173C
330
1748
330
1757
102
}
330
A
100
AcDbSymbolTableRecord
100
AcDbDimStyleTableRecord
  2
PALETTI
 70
     0
 41
2.0
 42
0.0
 43
0.0
 44
1.5
 47
0.2
 48
0.2
 73
     0
 74
     0
 77
     1
 78
     8
140
3.5
141
-2.5
146
0.5
147
0.4
172
     1
176
   256
177
   256
178
   256
271
     1
272
     1
283
     2
284
     8
288
     1
340
10
  0
DIMSTYLE
105
1278
330
A
100
AcDbSymbolTableRecord
100
AcDbDimStyleTableRecord
  2
GEN-ISO
 70
     0
  4
"
 41
2.5
 42
0.0
 43
7.0
 44
0.0
 47
0.1
 48
0.1
 73
     0
 74
     0
 77
     1
 78
     8
140
3.5
141
0.0
143
0.0393701
146
0.71
147
0.6
172
     1
176
   256
177
   256
178
     2
271
     2
272
     3
274
     4
283
     0
340
10
  0
DIMSTYLE
105
1279
330
A
100
AcDbSymbolTableRecord
100
AcDbDimStyleTableRecord
  2
GEN-ISO$3
 70
     0
  4
"
 41
2.5
 42
1.0
 43
7.0
 44
1.0
 47
0.1
 48
0.1
 73
     0
 77
     1
 78
     8
140
3.5
141
0.0
143
0.0393701
146
0.71
147
0.6
176
   256
177
   256
178
     2
271
     2
272
     3
274
     4
283
     0
288
     1
289
     0
340
10
  0
DIMSTYLE
105
127A
330
A
100
AcDbSymbolTableRecord
100
AcDbDimStyleTableRecord
  2
GEN-ISO$4
 70
     0
  4
"
 41
1.5
 42
0.0
 43
7.0
 44
0.0
 47
0.1
 48
0.1
 73
     0
 77
     1
 78
     8
140
3.5
141
0.0
143
0.0393701
146
0.71
147
0.6
176
   256
177
   256
178
     2
271
     2
272
     3
274
     4
283
     0
288
     1
289
     0
340
10
  0
DIMSTYLE
105
127B
330
A
100
AcDbSymbolTableRecord
100
AcDbDimStyleTableRecord
  2
GEN-ISO$6
 70
     0
  4
"
 41
2.5
 42
1.0
 43
7.0
 44
1.0
 47
0.1
 48
0.1
 73
     0
 74
     0
 78
     8
140
3.5
141
0.0
143
0.0393701
146
0.71
147
0.6
176
   256
177
   256
178
     2
271
     2
272
     3
274
     4
283
     0
340
10
  0
DIMSTYLE
105
127C
330
A
100
AcDbSymbolTableRecord
100
AcDbDimStyleTableRecord
  2
GEN-ISO-POS
 70
     0
  4
"
 41
2.5
 42
1.0
 43
7.0
 44
1.0
 47
0.1
 48
0.1
 73
     0
 74
     0
 78
     8
140
5.0
141
0.0
143
0.0393701
146
0.71
147
1.5
176
   256
177
   256
178
     2
271
     2
272
     3
274
     4
283
     0
340
10
  0
DIMSTYLE
105
127D
330
A
100
AcDbSymbolTableRecord
100
AcDbDimStyleTableRecord
  2
GEN-ISO-AXE-F
 70
     0
  4
"
 41
2.5
 42
1.0
 43
7.0
 44
1.0
 47
0.1
 48
0.1
 73
     0
 74
     0
 75
     1
 76
     1
 77
     1
 78
     8
140
3.5
141
0.0
143
0.0393701
146
0.71
147
0.6
172
     1
176
   256
177
   256
178
     2
271
     2
272
     3
274
     4
283
     0
340
10
  0
DIMSTYLE
105
127E
330
A
100
AcDbSymbolTableRecord
100
AcDbDimStyleTableRecord
  2
GEN-ISO-AXE-H
 70
     0
  4
"
 41
2.5
 42
1.0
 43
7.0
 44
1.0
 47
0.1
 48
0.1
 73
     0
 74
     0
 75
     1
 76
     1
 77
     1
 78
     8
140
3.5
141
0.0
143
0.0393701
144
2.0
146
0.71
147
0.6
172
     1
173
     1
176
   256
177
   256
178
     2
271
     2
272
     3
274
     4
283
     0
340
10
  0
DIMSTYLE
105
170F
330
A
100
AcDbSymbolTableRecord
100
AcDbDimStyleTableRecord
  2
AM_DIN
 70
     0
  4
"
 41
2.5
 42
1.0
 43
10.0
 44
1.0
 47
0.1
 48
0.1
 73
     0
 74
     0
 77
     1
 78
     8
 79
     2
140
3.5
141
0.0
143
0.0393701
146
0.71
147
1.5
172
     1
176
   256
177
   256
178
     2
271
     2
272
     3
274
     4
283
     0
340
10
371
    -1
372
    -1
  0
DIMSTYLE
105
1710
330
A
100
AcDbSymbolTableRecord
100
AcDbDimStyleTableRecord
  2
AM_DIN$3
 70
     0
  4
"
 41
2.5
 42
1.0
 43
10.0
 44
1.0
 47
0.1
 48
0.1
 73
     0
 77
     1
 78
     8
 79
     2
140
3.5
141
0.0
143
0.0393701
146
0.71
147
1.5
176
   256
177
   256
178
     2
271
     2
272
     3
274
     4
283
     0
288
     1
289
     0
340
10
371
    -1
372
    -1
  0
DIMSTYLE
105
1711
330
A
100
AcDbSymbolTableRecord
100
AcDbDimStyleTableRecord
  2
AM_DIN$4
 70
     0
  4
"
 41
2.5
 42
1.0
 43
10.0
 44
1.0
 47
0.1
 48
0.1
 73
     0
 77
     1
 78
     8
 79
     2
140
3.5
141
0.0
143
0.0393701
146
0.71
147
1.5
176
   256
177
   256
178
     2
271
     2
272
     3
274
     4
283
     0
288
     1
289
     0
340
10
371
    -1
372
    -1
  0
DIMSTYLE
105
1712
330
A
100
AcDbSymbolTableRecord
100
AcDbDimStyleTableRecord
  2
AM_DIN$6
 70
     0
  4
"
 41
2.5
 42
1.0
 43
10.0
 44
1.0
 47
0.1
 48
0.1
 73
     0
 74
     0
 78
     8
 79
     2
140
3.5
141
0.0
143
0.0393701
146
0.71
147
1.5
172
     1
176
   256
177
   256
178
     2
271
     2
272
     3
274
     4
283
     0
340
10
371
    -1
372
    -1
  0
DIMSTYLE
105
1713
330
A
100
AcDbSymbolTableRecord
100
AcDbDimStyleTableRecord
  2
AM_DIN$7
 70
     0
  4
"
 41
2.5
 42
1.0
 43
10.0
 44
1.0
 47
0.1
 48
0.1
 73
     0
 74
     0
 77
     1
 78
     8
 79
     2
140
5.0
141
0.0
143
0.0393701
146
0.71
147
1.5
172
     1
176
   256
177
   256
178
     2
271
     2
272
     3
274
     4
283
     0
340
10
371
    -1
372
    -1
  0
DIMSTYLE
105
1714
330
A
100
AcDbSymbolTableRecord
100
AcDbDimStyleTableRecord
  2
AM_DIN$SF
 70
     0
  4
"
 41
2.5
 42
1.0
 43
10.0
 44
1.0
 47
0.1
 48
0.1
 73
     0
 74
     0
 75
     1
 76
     1
 77
     1
 78
     8
 79
     2
140
3.5
141
0.0
143
0.0393701
146
0.71
147
1.5
172
     1
176
   256
177
   256
178
     2
271
     2
272
     3
274
     4
283
     0
340
10
371
    -1
372
    -1
  0
DIMSTYLE
105
1715
330
A
100
AcDbSymbolTableRecord
100
AcDbDimStyleTableRecord
  2
AM_DIN$SH
 70
     0
  4
"
 41
2.5
 42
1.0
 43
10.0
 44
1.0
 47
0.1
 48
0.1
 73
     0
 74
     0
 75
     1
 76
     1
 77
     1
 78
     8
 79
     2
140
3.5
141
0.0
143
0.0393701
144
2.0
146
0.71
147
1.5
172
     1
173
     1
176
   256
177
   256
178
     2
271
     2
272
     3
274
     4
283
     0
340
10
343
1703
371
    -1
372
    -1
  0
ENDTAB
  0
TABLE
  2
BLOCK_RECORD
  5
1
330
0
100
AcDbSymbolTable
 70
     8
  0
BLOCK_RECORD
  5
1A
102
{ACAD_XDICTIONARY
360
10AA
102
}
330
1
100
AcDbSymbolTableRecord
100
AcDbBlockTableRecord
  2
*MODEL_SPACE
340
11EE
  0
BLOCK_RECORD
  5
17
330
1
100
AcDbSymbolTableRecord
100
AcDbBlockTableRecord
  2
*PAPER_SPACE
340
11EF
  0
BLOCK_RECORD
  5
FAA
330
1
100
AcDbSymbolTableRecord
100
AcDbBlockTableRecord
  2
*U0
340
0
  0
BLOCK_RECORD
  5
1703
330
1
100
AcDbSymbolTableRecord
100
AcDbBlockTableRecord
  2
GENAXEH
340
0
  0
BLOCK_RECORD
  5
1723
330
1
100
AcDbSymbolTableRecord
100
AcDbBlockTableRecord
  2
*D3
340
0
  0
BLOCK_RECORD
  5
1730
330
1
100
AcDbSymbolTableRecord
100
AcDbBlockTableRecord
  2
*D4
340
0
  0
BLOCK_RECORD
  5
173D
330
1
100
AcDbSymbolTableRecord
100
AcDbBlockTableRecord
  2
*D5
340
0
  0
BLOCK_RECORD
  5
1749
330
1
100
AcDbSymbolTableRecord
100
AcDbBlockTableRecord
  2
*D6
340
0
  0
BLOCK_RECORD
  5
1758
330
1
100
AcDbSymbolTableRecord
100
AcDbBlockTableRecord
  2
*D7
340
0
  0
ENDTAB
  0
ENDSEC
  0
SECTION
  2
BLOCKS
  0
BLOCK
  5
1B
330
1A
100
AcDbEntity
  8
0
100
AcDbBlockBegin
  2
*MODEL_SPACE
 70
     0
 10
0.0
 20
0.0
 30
0.0
  3
*MODEL_SPACE
  1

  0
ENDBLK
  5
1C
330
1A
100
AcDbEntity
  8
0
100
AcDbBlockEnd
  0
BLOCK
  5
18
330
17
100
AcDbEntity
 67
     1
  8
0
100
AcDbBlockBegin
  2
*PAPER_SPACE
 70
     0
 10
0.0
 20
0.0
 30
0.0
  3
*PAPER_SPACE
  1

  0
ENDBLK
  5
19
330
17
100
AcDbEntity
 67
     1
  8
0
100
AcDbBlockEnd
  0
BLOCK
  5
FAB
330
FAA
100
AcDbEntity
  8
0
100
AcDbBlockBegin
  2
*U0
 70
     1
 10
0.0
 20
0.0
 30
0.0
  3
*U0
  1

  0
ENDBLK
  5
FAC
330
FAA
100
AcDbEntity
  8
0
100
AcDbBlockEnd
  0
BLOCK
  5
1705
330
1703
100
AcDbEntity
  8
0
100
AcDbBlockBegin
  2
GENAXEH
 70
     0
 10
0.0
 20
0.0
 30
0.0
  3
GENAXEH
  1

  0
LINE
  5
1704
330
1703
100
AcDbEntity
  8
0
100
AcDbLine
 10
-1.0
 20
0.0
 30
0.0
 11
1.0
 21
0.0
 31
0.0
  0
ENDBLK
  5
1706
330
1703
100
AcDbEntity
  8
0
100
AcDbBlockEnd
  0
BLOCK
  5
172D
330
1723
100
AcDbEntity
  8
0
100
AcDbBlockBegin
  2
*D3
 70
     1
 10
0.0
 20
0.0
 30
0.0
  3
*D3
  1

  0
LINE
  5
1724
330
1723
100
AcDbEntity
  8
Dimension1_Bemaßung1
370
    -2
100
AcDbLine
 10
-19.05000000000006
 20
15.55000000000001
 30
0.0
 11
-19.05000000000006
 21
26.70696795866752
 31
0.0
  0
LINE
  5
1725
330
1723
100
AcDbEntity
  8
Dimension1_Bemaßung1
370
    -2
100
AcDbLine
 10
19.04999999999995
 20
15.55000000000001
 30
0.0
 11
19.04999999999995
 21
26.70696795866752
 31
0.0
  0
LINE
  5
1726
330
1723
100
AcDbEntity
  8
Dimension1_Bemaßung1
370
    -2
100
AcDbLine
 10
-17.05000000000006
 20
25.20696795866752
 30
0.0
 11
17.04999999999995
 21
25.20696795866752
 31
0.0
  0
SOLID
  5
1727
330
1723
100
AcDbEntity
  8
Dimension1_Bemaßung1
100
AcDbTrace
 10
-17.05000000000006
 20
25.54030129200085
 30
0.0
 11
-17.05000000000006
 21
24.87363462533418
 31
0.0
 12
-19.05000000000006
 22
25.20696795866752
 32
0.0
 13
-19.05000000000006
 23
25.20696795866752
 33
0.0
  0
SOLID
  5
1728
330
1723
100
AcDbEntity
  8
Dimension1_Bemaßung1
100
AcDbTrace
 10
17.04999999999995
 20
25.54030129200085
 30
0.0
 11
17.04999999999995
 21
24.87363462533418
 31
0.0
 12
19.04999999999995
 22
25.20696795866752
 32
0.0
 13
19.04999999999995
 23
25.20696795866752
 33
0.0
  0
MTEXT
  5
1729
330
1723
100
AcDbEntity
  8
Dimension1_Bemaßung1
100
AcDbMText
 10
-0.0068174904656642
 20
27.35696795866751
 30
0.0
 40
3.5
 41
0.0
 71
     5
 72
     1
  1
\A2;38.1
 73
     1
 44
1.0
  0
POINT
  5
172A
330
1723
100
AcDbEntity
  8
Defpoints
 62
     0
100
AcDbPoint
 10
-19.05000000000006
 20
15.55000000000001
 30
0.0
  0
POINT
  5
172B
330
1723
100
AcDbEntity
  8
Defpoints
 62
     0
100
AcDbPoint
 10
19.04999999999995
 20
15.55000000000001
 30
0.0
  0
POINT
  5
172C
330
1723
100
AcDbEntity
  8
Defpoints
 62
     0
100
AcDbPoint
 10
19.04999999999995
 20
25.20696795866752
 30
0.0
  0
ENDBLK
  5
172E
330
1723
100
AcDbEntity
  8
0
100
AcDbBlockEnd
  0
BLOCK
  5
173A
330
1730
100
AcDbEntity
  8
0
100
AcDbBlockBegin
  2
*D4
 70
     1
 10
0.0
 20
0.0
 30
0.0
  3
*D4
  1

  0
LINE
  5
1761
330
1730
100
AcDbEntity
  8
Dimension1_Bemaßung1
370
    -2
100
AcDbLine
 10
15.54999999999995
 20
19.05000000000001
 30
0.0
 11
29.98739710374412
 21
19.05
 31
0.0
  0
LINE
  5
1762
330
1730
100
AcDbEntity
  8
Dimension1_Bemaßung1
370
    -2
100
AcDbLine
 10
15.54999999999995
 20
-19.05000000000001
 30
0.0
 11
29.98739710374411
 21
-19.05000000000001
 31
0.0
  0
LINE
  5
1763
330
1730
100
AcDbEntity
  8
Dimension1_Bemaßung1
370
    -2
100
AcDbLine
 10
28.48739710374412
 20
17.05
 30
0.0
 11
28.48739710374411
 21
-17.05000000000001
 31
0.0
  0
SOLID
  5
1764
330
1730
100
AcDbEntity
  8
Dimension1_Bemaßung1
100
AcDbTrace
 10
28.15406377041079
 20
17.05
 30
0.0
 11
28.82073043707745
 21
17.05
 31
0.0
 12
28.48739710374412
 22
19.05
 32
0.0
 13
28.48739710374412
 23
19.05
 33
0.0
  0
SOLID
  5
1765
330
1730
100
AcDbEntity
  8
Dimension1_Bemaßung1
100
AcDbTrace
 10
28.15406377041078
 20
-17.05000000000001
 30
0.0
 11
28.82073043707745
 21
-17.05000000000001
 31
0.0
 12
28.48739710374411
 22
-19.05000000000001
 32
0.0
 13
28.48739710374411
 23
-19.05000000000001
 33
0.0
  0
MTEXT
  5
1766
330
1730
100
AcDbEntity
  8
Dimension1_Bemaßung1
100
AcDbMText
 10
26.33739710374412
 20
0.0145759215654382
 30
0.0
 40
3.5
 41
0.0
 71
     5
 72
     1
  1
\A2;38.1
 11
0.0000000000000001
 21
1.0
 31
0.0
 73
     1
 44
1.0
  0
POINT
  5
1767
330
1730
100
AcDbEntity
  8
Defpoints
 62
     0
100
AcDbPoint
 10
15.54999999999995
 20
19.05000000000001
 30
0.0
  0
POINT
  5
1768
330
1730
100
AcDbEntity
  8
Defpoints
 62
     0
100
AcDbPoint
 10
15.54999999999995
 20
-19.05000000000001
 30
0.0
  0
POINT
  5
1769
330
1730
100
AcDbEntity
  8
Defpoints
 62
     0
100
AcDbPoint
 10
28.48739710374411
 20
-19.05000000000001
 30
0.0
  0
ENDBLK
  5
173B
330
1730
100
AcDbEntity
  8
0
100
AcDbBlockEnd
  0
BLOCK
  5
1746
330
173D
100
AcDbEntity
  8
0
100
AcDbBlockBegin
  2
*D5
 70
     1
 10
0.0
 20
0.0
 30
0.0
  3
*D5
  1

  0
LINE
  5
173E
330
173D
100
AcDbEntity
  8
Dimension1_Bemaßung1
370
    -2
100
AcDbLine
 10
-30.71245827614896
 20
5.355096624405837
 30
0.0
 11
-5.319739481337358
 21
0.9275623163435104
 31
0.0
  0
LINE
  5
173F
330
173D
100
AcDbEntity
  8
Dimension1_Bemaßung1
370
    -2
100
AcDbLine
 10
5.319739481337358
 20
-0.9275623163435104
 30
0.0
 11
7.290013363314157
 21
-1.271103914989254
 31
0.0
  0
MTEXT
  5
1740
330
173D
100
AcDbEntity
  8
Dimension1_Bemaßung1
100
AcDbMText
 10
-25.98392009373112
 20
6.713055260527186
 30
0.0
 40
3.5
 41
0.0
 71
     5
 72
     1
  1
\A2;\U+22056.8
 11
0.9851369409883997
 21
-0.1717707993228723
 31
0.0
 73
     1
 44
1.0
  0
LINE
  5
1741
330
173D
100
AcDbEntity
  8
Dimension1_Bemaßung1
370
    -2
100
AcDbLine
 10
3.349465599360559
 20
-0.584020717697766
 30
0.0
 11
-3.349465599360559
 21
0.584020717697766
 31
0.0
  0
SOLID
  5
1742
330
173D
100
AcDbEntity
  8
Dimension1_Bemaßung1
100
AcDbTrace
 10
5.376996414444982
 20
-0.599183336014044
 30
0.0
 11
5.262482548229734
 21
-1.255941296672977
 31
0.0
 12
3.349465599360559
 22
-0.584020717697766
 32
0.0
 13
3.349465599360559
 23
-0.584020717697766
 33
0.0
  0
SOLID
  5
1743
330
173D
100
AcDbEntity
  8
Dimension1_Bemaßung1
100
AcDbTrace
 10
-5.262482548229734
 20
1.255941296672977
 30
0.0
 11
-5.376996414444982
 21
0.599183336014044
 31
0.0
 12
-3.349465599360559
 22
0.584020717697766
 32
0.0
 13
-3.349465599360559
 23
0.584020717697766
 33
0.0
  0
POINT
  5
1744
330
173D
100
AcDbEntity
  8
Defpoints
 62
     0
100
AcDbPoint
 10
-3.349465599360559
 20
0.584020717697766
 30
0.0
  0
POINT
  5
1745
330
173D
100
AcDbEntity
  8
Defpoints
 62
     0
100
AcDbPoint
 10
3.349465599360559
 20
-0.584020717697766
 30
0.0
  0
ENDBLK
  5
1747
330
173D
100
AcDbEntity
  8
0
100
AcDbBlockEnd
  0
BLOCK
  5
1755
330
1749
100
AcDbEntity
  8
0
100
AcDbBlockBegin
  2
*D6
 70
     1
 10
0.0
 20
0.0
 30
0.0
  3
*D6
  1

  0
LINE
  5
174A
330
1749
100
AcDbEntity
  8
Dimension2_Bemaßung2
370
    -2
100
AcDbLine
 10
-4.099999999990188
 20
-17.85931907991857
 30
0.0
 11
-4.099999999990189
 21
-29.97000335149891
 31
0.0
  0
LINE
  5
174B
330
1749
100
AcDbEntity
  8
Dimension2_Bemaßung2
370
    -2
100
AcDbLine
 10
4.099999999990075
 20
-17.85931907991864
 30
0.0
 11
4.099999999990074
 21
-29.97000335149891
 31
0.0
  0
LINE
  5
174C
330
1749
100
AcDbEntity
  8
Dimension2_Bemaßung2
370
    -2
100
AcDbLine
 10
-6.099999999990189
 20
-28.47000335149891
 30
0.0
 11
-8.099999999990188
 21
-28.47000335149891
 31
0.0
  0
LINE
  5
174D
330
1749
100
AcDbEntity
  8
Dimension2_Bemaßung2
370
    -2
100
AcDbLine
 10
6.099999999990074
 20
-28.47000335149891
 30
0.0
 11
8.099999999990075
 21
-28.47000335149891
 31
0.0
  0
LINE
  5
174E
330
1749
100
AcDbEntity
  8
Dimension2_Bemaßung2
370
    -2
100
AcDbLine
 10
-4.099999999990189
 20
-28.47000335149891
 30
0.0
 11
4.099999999990074
 21
-28.47000335149891
 31
0.0
  0
SOLID
  5
174F
330
1749
100
AcDbEntity
  8
Dimension2_Bemaßung2
100
AcDbTrace
 10
-6.099999999990189
 20
-28.13667001816558
 30
0.0
 11
-6.099999999990189
 21
-28.80333668483224
 31
0.0
 12
-4.099999999990189
 22
-28.47000335149891
 32
0.0
 13
-4.099999999990189
 23
-28.47000335149891
 33
0.0
  0
SOLID
  5
1750
330
1749
100
AcDbEntity
  8
Dimension2_Bemaßung2
100
AcDbTrace
 10
6.099999999990074
 20
-28.13667001816558
 30
0.0
 11
6.099999999990074
 21
-28.80333668483224
 31
0.0
 12
4.099999999990074
 22
-28.47000335149891
 32
0.0
 13
4.099999999990074
 23
-28.47000335149891
 33
0.0
  0
MTEXT
  5
1751
330
1749
100
AcDbEntity
  8
Dimension2_Bemaßung2
100
AcDbMText
 10
-0.0068174904656642
 20
-26.31965886330994
 30
0.0
 40
3.5
 41
0.0
 71
     5
 72
     1
  1
\A2;8.2
 73
     1
 44
1.0
  0
POINT
  5
1752
330
1749
100
AcDbEntity
  8
Defpoints
 62
     0
100
AcDbPoint
 10
-4.099999999990188
 20
-17.85931907991857
 30
0.0
  0
POINT
  5
1753
330
1749
100
AcDbEntity
  8
Defpoints
 62
     0
100
AcDbPoint
 10
4.099999999990075
 20
-17.85931907991864
 30
0.0
  0
POINT
  5
1754
330
1749
100
AcDbEntity
  8
Defpoints
 62
     0
100
AcDbPoint
 10
4.099999999990074
 20
-28.47000335149891
 30
0.0
  0
ENDBLK
  5
1756
330
1749
100
AcDbEntity
  8
0
100
AcDbBlockEnd
  0
BLOCK
  5
175F
330
1758
100
AcDbEntity
  8
0
100
AcDbBlockBegin
  2
*D7
 70
     1
 10
0.0
 20
0.0
 30
0.0
  3
*D7
  1

  0
LINE
  5
1759
330
1758
100
AcDbEntity
  8
Dimension2_Bemaßung2
370
    -2
100
AcDbLine
 10
-27.39401921356726
 20
-26.52175548599442
 30
0.0
 11
-19.58482239496279
 21
-19.28767417535389
 31
0.0
  0
MTEXT
  5
175A
330
1758
100
AcDbEntity
  8
Dimension2_Bemaßung2
100
AcDbMText
 10
-25.68411569007841
 20
-22.00704319907125
 30
0.0
 40
3.5
 41
0.0
 71
     5
 72
     1
  1
\A2;R3.5
 11
0.733604071811403
 21
0.6795771227916151
 31
0.0
 73
     1
 44
1.0
  0
LINE
  5
175B
330
1758
100
AcDbEntity
  8
Dimension2_Bemaßung2
370
    -2
100
AcDbLine
 10
-15.55000000000008
 20
-15.55
 30
0.0
 11
-18.11761425133998
 21
-17.92851992977066
 31
0.0
  0
SOLID
  5
175C
330
1758
100
AcDbEntity
  8
Dimension2_Bemaßung2
100
AcDbTrace
 10
-19.81134810255999
 20
-19.04313948475009
 30
0.0
 11
-19.35829668736558
 21
-19.53220886595769
 31
0.0
 12
-18.11761425133998
 22
-17.92851992977066
 32
0.0
 13
-18.11761425133998
 23
-17.92851992977066
 33
0.0
  0
POINT
  5
175D
330
1758
100
AcDbEntity
  8
Defpoints
 62
     0
100
AcDbPoint
 10
-18.11761425133998
 20
-17.92851992977066
 30
0.0
  0
POINT
  5
175E
330
1758
100
AcDbEntity
  8
Defpoints
 62
     0
100
AcDbPoint
 10
-15.55000000000008
 20
-15.55
 30
0.0
  0
ENDBLK
  5
1760
330
1758
100
AcDbEntity
  8
0
100
AcDbBlockEnd
  0
ENDSEC
  0
SECTION
  2
ENTITIES
  0
POINT
  5
1286
330
1A
100
AcDbEntity
  8
0
 60
     1
100
AcDbPoint
 10
0.0
 20
0.0
 30
0.0
1001
GENIUS_GENODEF_13
1002
{
1000
HIER
1070
     1
1002
}
1002
{
1000
MANEDIT
1070
     0
1002
}
1002
{
1000
NOSEL
1070
     0
1002
}
1002
{
1000
BEHIND
1070
     0
1002
}
1002
{
1000
REACTOR
1002
}
1001
GENIUS_GENOBJ-N-SDF_13
1002
{
1000
OWNER
1000
GEN
1002
}
1001
GENIUS_GENOENT_13
1002
{
1000
MYREF
1005
1286
1002
}
1002
{
1000
GRP
1005
0
1002
}
1001
GENIUS_GENOLIS_13
1002
{
1000
ENT
1005
22
1002
}
  0
REGION
  5
171C
330
1A
100
AcDbEntity
  8
2D_Profile
100
AcDbModelerGeometry
 70
     1
  1
joo fli n o         
  1
ln ^ *+0;:,4 R:<7>16<>3 [:,4+0/ kqo nl ^ \VL jqoqn QK mk Y-6 L:/ nk ohejgemi moon 
  1
rn fqfffffffffffffffj:rooh n:rono 
  1
=0;& {n {m {rn {rn |
  1
-:9@)+r:&:r>++-6= {rn {rn {rn {o {l {k |
  1
3*2/ {j {rn {i {o |
  1
:&:@-:961:2:1+ {rn j 8-6;  n l +-6 l k ,*-9 o l >;5 o k 8->; o f /0,+<7:<4 o k ,+03 oqoonoooooookhkfhkjnl k 1+03 lo k ;,63 o g 93>+1:,, o h /6'>-:> o k 72>' o i 8-6;>- o j 28-6; looo j *8-6; o j )8-6; o no :1;@96:3;, |
  1
):-+:'@+:2/3>+: {rn l o n g |
  1
-:9@)+r:&:r>++-6= {rn {rn {rn {m {l {k |
  1
,7:33 {h {rn {rn {g {rn {m |
  1
-:9@)+r:&:r>++-6= {rn {rn {rn {i {l {k |
  1
9><: {f {rn {no {i {rn {nn 90-(>-; ;0*=3: 0*+ |
  1
92:,7r:&:r>++-6= {rn {nm {rn {g |
  1
300/ {rn {nl {nk {g |
  1
/3>1:r,*-9><: {rn rlqknoiojnlnikgkgof:ronl nqnligiglhhmniniol:ronl o o o n n o o 90-(>-;@) V V V V |
  1
-:9@)+r:&:r>++-6= {rn {rn {f {g {l {k |
  1
300/ {rn {nj {ni {g |
  1
<0:;8: {rn {nh {ng {rn {nf 90-(>-; {no {rn |
  1
300/ {rn {mo {mn {g |
  1
<0:;8: {rn {ni {ni {rn {mm 90-(>-; {nl {rn |
  1
<0:;8: {rn {ml {nk {rn {mk 90-(>-; {no {rn |
  1
<0:;8: {rn {nk {mj {rn {mi 90-(>-; {no {rn |
  1
:;8: {mh {mg rlqnknjfmijljgfgoom {mf rnqjhohfilmihfkfoon {nk {lo 90-(>-; h *1410(1 |
  1
300/ {rn {ln {lm {g |
  1
<0:;8: {rn {ll {lk {rn {lj 90-(>-; {nj {rn |
  1
:;8: {li {lh o {lh iqmglngjlohnhfiook {ni {lg 90-(>-; h *1410(1 |
  1
<0:;8: {rn {lf {nh {rn {ko 90-(>-; {no {rn |
  1
:;8: {kn {mf o {km kqlohlfmfllokhlihj {nh {kl 90-(>-; h *1410(1 |
  1
<0:;8: {rn {ng {kk {rn {kj 90-(>-; {no {rn |
  1
:;8: {ki {kh o {mg kqlohlfmfllokfjmhj {ng {kg 90-(>-; h *1410(1 |
  1
/+36,+r:&:r>++-6= {rn {rn {rn {nf |
  1
):-+:' {rn {nf {kf |
  1
):-+:' {rn {nf {jo |
  1
:336/,:r<*-): {rn nmqmkffffffffgfffi rnmqmkffffffffggkok o o o rn oqhj o o n Y rlqnknjfmijljgfgoom Y rnqjhohfilmihfkfoon |
  1
300/ {rn {jn {jm {g |
  1
<0:;8: {rn {jl {jk {rn {jj 90-(>-; {mo {rn |
  1
<0:;8: {rn {ji {mn {rn {jh 90-(>-; {nj {rn |
  1
<0:;8: {rn {mn {jg {rn {jf 90-(>-; {nj {rn |
  1
:;8: {io {in nqjhohfilmihfkfoon {im lqnknjfmijljgfgl {mn {il 90-(>-; h *1410(1 |
  1
/+36,+r:&:r>++-6= {rn {rn {rn {mm |
  1
):-+:' {rn {mm {ik |
  1
:336/,:r<*-): {rn o o o o o rn lqlfffffffffffffff o o n V V |
  1
<0:;8: {rn {ij {ml {rn {ii 90-(>-; {no {rn |
  1
:;8: {ih {km rnqjhohfilmihfkfoon {ig o {ml {if 90-(>-; h *1410(1 |
  1
/+36,+r:&:r>++-6= {rn {rn {rn {mk |
  1
):-+:' {rn {ko {ho |
  1
,+->687+r<*-): {rn nmqmkffffffffgfffi rnnqkfffffffffggkok o n lqmffnhhhonmklnolh:ronj o Y o Y kqlohlfmfllokhlihj |
  1
<0:;8: {rn {mj {ij {rn {hn 90-(>-; {no {rn |
  1
:;8: {hm {hl nqjhohfilmihfkfoon {kh lqnknjfmijljgfgoom {mj {hk 90-(>-; h *1410(1 |
  1
/+36,+r:&:r>++-6= {rn {rn {rn {mi |
  1
):-+:' {rn {mi {hj |
  1
,+->687+r<*-): {rn nnqkfffffffffgfffi rniqjjhlfmfllolhfln o o n o Y o Y kqlohlfmfllokfjmhj |
  1
/061+ {rn nnqkfffffffffgfffi rnmqmkffffffffggkok o |
  1
/061+ {rn nmqmkffffffffgfffi rnnqkfffffffffggkok o |
  1
300/ {rn {rn {hi {g |
  1
<0:;8: {rn {hh {hg {rn {hf 90-(>-; {ln {rn |
  1
<0:;8: {rn {go {lm {rn {gn 90-(>-; {mo {rn |
  1
<0:;8: {rn {lm {gm {rn {gl 90-(>-; {mo {rn |
  1
:;8: {gk {gj o {gi kqlohlfmfllokhlihj {lm {gh 90-(>-; h *1410(1 |
  1
<0:;8: {rn {gg {ll {rn {gf 90-(>-; {nj {rn |
  1
:;8: {fo {im rmqjjhlfmfllokfkhoh {fn rjqigklknggiogogonj:ronk {ll {fm 90-(>-; h *1410(1 |
  1
<0:;8: {rn {lk {fl {rn {fk 90-(>-; {nj {rn |
  1
:;8: {fj {fi rmqjjhlfmfllokhlnoi {in o {lk {fh 90-(>-; h *1410(1 |
  1
/+36,+r:&:r>++-6= {rn {rn {rn {lj |
  1
):-+:' {rn {lj {fg |
  1
):-+:' {rn {lj {ff |
  1
:336/,:r<*-): {rn rnjqojhlfmfllolhloi rnjqojhlfmfllolhfln o o o rn mqj o o n Y nqjhohfilmihfkfoon Y lqnknjfmijljgfgl |
  1
/061+ {rn lqlffffffffffffhhl o o |
  1
<0:;8: {rn {kk {lf {rn {noo 90-(>-; {no {rn |
  1
:;8: {non {ig o {nom mqjjhlfmfllokfkhoh {lf {nol 90-(>-; h *1410(1 |
  1
/+36,+r:&:r>++-6= {rn {rn {rn {ko |
  1
):-+:' {rn {ii {nok |
  1
:336/,:r<*-): {rn niqjjhlfmfllolhlil rnmqkfffffffffggkok o o o rn n o o n Y rnqjhohfilmihfkfoon Y o |
  1
/061+ {rn niqjjhlfmfllolhlil rnnqkfffffffffggkok o |
  1
:;8: {noj {noi o {hl mqjjhlfmfllokhlnoi {kk {noh 90-(>-; h *1410(1 |
  1
/+36,+r:&:r>++-6= {rn {rn {rn {kj |
  1
):-+:' {rn {kj {nog |
  1
:336/,:r<*-): {rn nmqkfffffffffgfffi rniqjjhlfmfllolhfln o o o rn n o o n Y nqjhohfilmihfkfoon Y lqnknjfmijljgfgoom |
  1
/061+ {rn nnqkfffffffffgfffi rniqjjhlfmfllolhfln o |
  1
<0:;8: {rn {nof {nno {rn {nnn 90-(>-; {jn {rn |
  1
<0:;8: {rn {nnm {jm {rn {nnl 90-(>-; {ln {rn |
  1
<0:;8: {rn {jm {nnk {rn {nnj 90-(>-; {ln {rn |
  1
:;8: {nni {nnh rlqnknjfmijljgfgikm {nng rnqjhohfilmihfkfoon {jm {nnf 90-(>-; h *1410(1 |
  1
<0:;8: {rn {nmo {jl {rn {nmn 90-(>-; {mo {rn |
  1
:;8: {nmm {gi nqjhohfilmihfkfoon {nml lqnknjfmijljgfgikm {jl {nmk 90-(>-; h *1410(1 |
  1
<0:;8: {rn {jk {nmj {rn {nmi 90-(>-; {mo {rn |
  1
:;8: {nmh {nmg o {gj nqjhohfilmihfkfoon {jk {nmf 90-(>-; h *1410(1 |
  1
/+36,+r:&:r>++-6= {rn {rn {rn {jj |
  1
):-+:' {rn {jj {nlo |
  1
):-+:' {rn {jj {nln |
  1
,+->687+r<*-): {rn rnmqmkffffffffgfffi nnqkfffffffffggkok o rn rlqmffnhhhonmklnolh:ronj o Y o Y kqlohlfmfllokhlihj |
  1
<0:;8: {rn {nlm {ji {rn {nll 90-(>-; {nj {rn |
  1
:;8: {nlk {fn rlqnknjfmijljgfgikm {nlj rnqjhohfilmihfkfoon {ji {nli 90-(>-; h *1410(1 |
  1
/+36,+r:&:r>++-6= {rn {rn {rn {jh |
  1
):-+:' {rn {gf {nlh |
  1
,+->687+r<*-): {rn rnhqjjhlfmfllolhlil rnmqkfffffffffggkok o rmqmmmhofimkjilfnim:ronk n o Y rmqjjhlfmfllokfkhoh Y rjqigklknggiogogonj:ronk |
  1
<0:;8: {rn {jg {nlm {rn {nlg 90-(>-; {nj {rn |
  1
:;8: {nlf {nko o {fi nqjhohfilmihfkfoon {jg {nkn 90-(>-; h *1410(1 |
  1
/+36,+r:&:r>++-6= {rn {rn {rn {jf |
  1
):-+:' {rn {jf {nkm |
  1
,+->687+r<*-): {rn rnjqojhlfmfllolhloi rnhqjjhlfmfllolhfln o rn nqnnnljkgnmmgmgfig:ronk o Y rmqjjhlfmfllokhlnoi Y o |
  1
/061+ {rn rnjqojhlfmfllolhloi rnhqjjhlfmfllolhfln o |
  1
/061+ {rn rnhqjjhlfmfllolhloi rnjqojhlfmfllolhghj o |
  1
:;8: {nkl {nom rmqmhlhlihjkklmlmoh:ronk {noi nqjhohfilmihfkfoon {ij {nkk 90-(>-; h *1410(1 |
  1
/+36,+r:&:r>++-6= {rn {rn {rn {ii |
  1
):-+:' {rn {noo {nkj |
  1
,+->687+r<*-): {rn nhqjjhlfmfllolhlil rnmqkfffffffffggkok o rmqmmmhofimkjilfkog:ronk rn o Y o Y mqjjhlfmfllokfkhoh |
  1
/061+ {rn nhqjjhlfmfllolhlil rnmqkfffffffffggkok o |
  1
/+36,+r:&:r>++-6= {rn {rn {rn {hn |
  1
):-+:' {rn {hn {nki |
  1
,+->687+r<*-): {rn njqojhlfmfllolhloi rnhqjjhlfmfllolhfln o rn rnqnnnljkgnmmgmgfig:ronk o Y o Y mqjjhlfmfllokhlnoi |
  1
/061+ {rn nmqkfffffffffgfffi rnhqjjhlfmfllolhfln o |
  1
<0:;8: {rn {nkh {hi {rn {nkg -:):-,:; {jn {rn |
  1
<0:;8: {rn {hi {nkf {rn {njo -:):-,:; {jn {rn |
  1
:;8: {njn {njm o {njl iqhkjnimfhfolnnfmh {hi {njk 90-(>-; h *1410(1 |
  1
<0:;8: {rn {njj {hh {rn {nji 90-(>-; {ln {rn |
  1
:;8: {njh {nng rmqjjhlfmfllokhlnoi {njg o {hh {njf 90-(>-; h *1410(1 |
  1
<0:;8: {rn {hg {nio {rn {nin 90-(>-; {ln {rn |
  1
:;8: {nim {nil rkqlohlfmfllokfkhoh {nnh o {hg {nik 90-(>-; h *1410(1 |
  1
/+36,+r:&:r>++-6= {rn {rn {rn {hf |
  1
):-+:' {rn {hf {nij |
  1
):-+:' {rn {hf {nii |
  1
:336/,:r<*-): {rn nmqkfffffffffgfffi niqjjhlfmfllolhfln o o o rn n o o n Y rlqnknjfmijljgfgikm Y rnqjhohfilmihfkfoon |
  1
<0:;8: {rn {nih {go {rn {nig 90-(>-; {mo {rn |
  1
:;8: {nif {nml jqigklknggiogogonj:ronk {nho mqjjhlfmfllokfjmhj {go {nhn 90-(>-; h *1410(1 |
  1
/+36,+r:&:r>++-6= {rn {rn {rn {gn |
  1
):-+:' {rn {nmn {nhm |
  1
:336/,:r<*-): {rn rniqjjhlfmfllolhlil nmqkfffffffffggkok o o o rn n o o n Y nqjhohfilmihfkfoon Y lqnknjfmijljgfgikm |
  1
<0:;8: {rn {gm {nih {rn {nhl 90-(>-; {mo {rn |
  1
:;8: {nhk {nhj o {nmg kqlohlfmfllokfkhoh {gm {nhi 90-(>-; h *1410(1 |
  1
/+36,+r:&:r>++-6= {rn {rn {rn {gl |
  1
):-+:' {rn {gl {nhh |
  1
:336/,:r<*-): {rn rnmqmkffffffffgfffi nmqmkffffffffggkok o o o rn oqhj o o n Y o Y nqjhohfilmihfkfoon |
  1
/061+ {rn rnmqmkffffffffgfffi nnqkfffffffffggkok o |
  1
/061+ {rn rniqjjhlfmfllolhlil nnqkfffffffffggkok o |
  1
<0:;8: {rn {fl {gg {rn {nhg 90-(>-; {nj {rn |
  1
:;8: {nhf {nlj rkqlohlfmfllokhlihj {ngo o {gg {ngn 90-(>-; h *1410(1 |
  1
/+36,+r:&:r>++-6= {rn {rn {rn {gf |
  1
):-+:' {rn {nll {ngm |
  1
:336/,:r<*-): {rn rniqjjhlfmfllolhlil rnmqkfffffffffggkok o o o rn n o o n Y rlqnknjfmijljgfgikm Y rnqjhohfilmihfkfoon |
  1
/061+ {rn rnhqjjhlfmfllolhlil rnmqkfffffffffggkin o |
  1
:;8: {ngl {ngk rkqlohlfmfllokfjmhj {nko o {fl {ngj 90-(>-; h *1410(1 |
  1
/+36,+r:&:r>++-6= {rn {rn {rn {fk |
  1
):-+:' {rn {fk {ngi |
  1
:336/,:r<*-): {rn rnmqkfffffffffgfffi rniqjjhlfmfllolhfln o o o rn n o o n Y o Y nqjhohfilmihfkfoon |
  1
/061+ {rn rnmqkfffffffffgfffi rnhqjjhlfmfllolhfln o |
  1
/+36,+r:&:r>++-6= {rn {rn {rn {noo |
  1
:336/,:r<*-): {rn njqojhlfmfllolhloi rnjqojhlfmfllolhfln o o o rn mqj o o n Y rmqmhlhlihjkklmlmoh:ronk Y nqjhohfilmihfkfoon |
  1
/061+ {rn nhqjjhlfmfllolhloi rnjqojhlfmfllolhghj o |
  1
/061+ {rn njqojhlfmfllolhloi rnhqjjhlfmfllolhfln o |
  1
<0:;8: {rn {ngh {nof {rn {ngg 90-(>-; {jn {rn |
  1
:;8: {ngf {nfo roqhgjlfgnillfhkhnmi {njl rkqghmmflokjmnmnnjl:ronk {nof {nfn 90-(>-; h *1410(1 |
  1
<0:;8: {rn {nno {nfm {rn {nfl -:):-,:; {jn {rn |
  1
:;8: {nfk {njm kqghmmflokjmnmnnjl:ronk {nfj oqhgjlfgnillfhkhnmi {nno {nfi 90-(>-; h *1410(1 |
  1
/+36,+r:&:r>++-6= {rn {rn {rn {nnn |
  1
):-+:' {rn {nnn {nfh |
  1
):-+:' {rn {nnn {nfg |
  1
,+->687+r<*-): {rn riqkihhknffnofiollf lqlhmjgnkgfjnjjfil o o rn o V V |
  1
<0:;8: {rn {nff {nnm {rn {moo 90-(>-; {ln {rn |
  1
:;8: {mon {njg rnqjhohfilmihfkfoon {mom o {nnm {mol 90-(>-; h *1410(1 |
  1
/+36,+r:&:r>++-6= {rn {rn {rn {nnl |
  1
):-+:' {rn {nji {mok |
  1
,+->687+r<*-): {rn njqojhlfmfllolhloi nhqjjhlfmfllolhfln o n rjqjjihhkoinknkkgkm:ronj o Y rmqjjhlfmfllokhlnoi Y o |
  1
<0:;8: {rn {nnk {nff {rn {moj 90-(>-; {ln {rn |
  1
:;8: {moi {moh nqjhohfilmihfkfoon {nil lqnknjfmijljgfgoom {nnk {mog 90-(>-; h *1410(1 |
  1
/+36,+r:&:r>++-6= {rn {rn {rn {nnj |
  1
):-+:' {rn {nnj {mof |
  1
,+->687+r<*-): {rn nnqkfffffffffgfffi niqjjhlfmfllolhghj o o n o Y rkqlohlfmfllokfkhoh Y o |
  1
/061+ {rn nnqkfffffffffgfffi niqjjhlfmfllolhghj o |
  1
/061+ {rn nmqkfffffffffgfffi nhqjjhlfmfllolhfln o |
  1
<0:;8: {rn {nmj {nmo {rn {mno 90-(>-; {mo {rn |
  1
:;8: {mnn {nho rlqnknjfmijljgfgoom {mnm rnqjhohfilmihfkfoon {nmo {mnl 90-(>-; h *1410(1 |
  1
/+36,+r:&:r>++-6= {rn {rn {rn {nmn |
  1
):-+:' {rn {nig {mnk |
  1
,+->687+r<*-): {rn rnhqjjhlfmfllolhlil nmqkfffffffffggkok o mqmmmhofimkjilfnim:ronk n o Y jqigklknggiogogonj:ronk Y mqjjhlfmfllokfjmhj |
  1
/061+ {rn rnhqjjhlfmfllolhlil nmqkfffffffffggkin o |
  1
:;8: {mnj {mni rnqjhohfilmihfkfoon {nhj jqigklknggiogogonj:ronk {nmj {mnh 90-(>-; h *1410(1 |
  1
/+36,+r:&:r>++-6= {rn {rn {rn {nmi |
  1
):-+:' {rn {nmi {mng |
  1
,+->687+r<*-): {rn rnnqkfffffffffgfffi niqjjhlfmfllolhghj o o rn o Y o Y kqlohlfmfllokfkhoh |
  1
/061+ {rn rnnqkfffffffffgfffi nmqmkffffffffggkok o |
  1
:;8: {mnf {ngo rnqjhohfilmihfkfoon {ngk o {nlm {mmo 90-(>-; h *1410(1 |
  1
/+36,+r:&:r>++-6= {rn {rn {rn {nll |
  1
):-+:' {rn {nhg {mmn |
  1
,+->687+r<*-): {rn rnmqmkffffffffgfffi rnnqkfffffffffggkok o n rlqmffnhhhonmklnolh:ronj o Y rkqlohlfmfllokhlihj Y o |
  1
/061+ {rn rniqjjhlfmfllolhlil rnnqkfffffffffggkok o |
  1
/+36,+r:&:r>++-6= {rn {rn {rn {nlg |
  1
):-+:' {rn {nlg {mmm |
  1
,+->687+r<*-): {rn rnnqkfffffffffgfffi rniqjjhlfmfllolhfln o o rn o Y rkqlohlfmfllokfjmhj Y o |
  1
/061+ {rn rnnqkfffffffffgfffi rniqjjhlfmfllolhfln o |
  1
<0:;8: {rn {mml {nkh {rn {mmk -:):-,:; {jn {rn |
  1
:;8: {mmj {nfo o {mmi kqkmmglhihmhlokgkn {nkh {mmh 90-(>-; h *1410(1 |
  1
/+36,+r:&:r>++-6= {rn {rn {rn {nkg |
  1
):-+:' {rn {nkg {mmg |
  1
:336/,:r<*-): {rn rfqfihhknffnofiollf rlqlhmjgnkgfjnjkmjg o o o n lqj o o n V V |
  1
<0:;8: {rn {nkf {mmf {rn {mlo -:):-,:; {jn {rn |
  1
:;8: {mln {nfj o {mlm kqkmmglhihmhlokgkn {nkf {mll 90-(>-; h *1410(1 |
  1
/+36,+r:&:r>++-6= {rn {rn {rn {njo |
  1
):-+:' {rn {nfl {mlk |
  1
:336/,:r<*-): {rn rfqfihhknffnofiollf lqlhmjgnkgfjnjkmjg o o o n lqj o o n V V |
  1
/061+ {rn riqkihhknffnofiollf lqlhmjgnkgfjnjjfil o |
  1
/061+ {rn riqkihhknffnofiollf rlqlhmjgnkgfjnjjfil o |
  1
<0:;8: {rn {nio {njj {rn {mlj 90-(>-; {ln {rn |
  1
:;8: {mli {mom rmqjjhlfmfllokfjmhj {mlh o {njj {mlg 90-(>-; h *1410(1 |
  1
/+36,+r:&:r>++-6= {rn {rn {rn {nji |
  1
):-+:' {rn {moo {mlf |
  1
:336/,:r<*-): {rn njqojhlfmfllolhloi njqojhlfmfllolhfln o o o rn mqj o o n Y rnqjhohfilmihfkfoon Y o |
  1
/061+ {rn njqojhlfmfllolhloi nhqjjhlfmfllolhfln o |
  1
:;8: {mko {mkn rkqlohlfmfllokhlihj {moh o {nio {mkm 90-(>-; h *1410(1 |
  1
/+36,+r:&:r>++-6= {rn {rn {rn {nin |
  1
):-+:' {rn {nin {mkl |
  1
:336/,:r<*-): {rn nmqmkffffffffgfffi nmqmkffffffffggkok o o o rn oqhj o o n Y nqjhohfilmihfkfoon Y lqnknjfmijljgfgoom |
  1
/061+ {rn nnqkfffffffffgfffi nmqmkffffffffggkok o |
  1
:;8: {mkk {mnm o {mni mqjjhlfmfllokhlnoi {nih {mkj 90-(>-; h *1410(1 |
  1
/+36,+r:&:r>++-6= {rn {rn {rn {nig |
  1
):-+:' {rn {mno {mki |
  1
:336/,:r<*-): {rn rnjqojhlfmfllolhloi njqojhlfmfllolhfln o o o rn mqj o o n Y rlqnknjfmijljgfgoom Y rnqjhohfilmihfkfoon |
  1
/061+ {rn rnhqjjhlfmfllolhloi njqojhlfmfllolhfln o |
  1
/+36,+r:&:r>++-6= {rn {rn {rn {nhl |
  1
):-+:' {rn {nhl {mkh |
  1
:336/,:r<*-): {rn rnmqkfffffffffgfffi niqjjhlfmfllolhfln o o o rn n o o n Y rnqjhohfilmihfkfoon Y jqigklknggiogogonj:ronk |
  1
/061+ {rn rnnqkfffffffffgfffi niqjjhlfmfllolhghj o |
  1
/+36,+r:&:r>++-6= {rn {rn {rn {nhg |
  1
:336/,:r<*-): {rn rnmqmkffffffffgfffi rnmqmkffffffffggkok o o o rn oqhj o o n Y rnqjhohfilmihfkfoon Y o |
  1
/061+ {rn rnmqmkffffffffgfffi rnnqkfffffffffggkok o |
  1
/061+ {rn rnnqkfffffffffgfffi rnmqmkffffffffggkok o |
  1
<0:;8: {rn {mkg {ngh {rn {mkf 90-(>-; {jn {rn |
  1
:;8: {mjo {mjn rnqjhohfilmihfkfoon {mmi roqhgjlfgnillfhkgmgn {ngh {mjm 90-(>-; h *1410(1 |
  1
/+36,+r:&:r>++-6= {rn {rn {rn {ngg |
  1
):-+:' {rn {ngg {mjl |
  1
,+->687+r<*-): {rn rhqkfmgigmjifklnjkk rjqgkhkjjmmliigknf o roqhohnoihgnngijhgn roqhohnoihgnngijnhok o V V |
  1
/061+ {rn rhqkfmgigmjifklnjkk rjqgkhkjjmmliigknf o |
  1
<0:;8: {rn {nfm {mjk {rn {mjj -:):-,:; {jn {rn |
  1
:;8: {mji {mlm oqhgjlfgnillfhkgmgn {mjh nqjhohfilmihfkfoon {nfm {mjg 90-(>-; h *1410(1 |
  1
/+36,+r:&:r>++-6= {rn {rn {rn {nfl |
  1
):-+:' {rn {mlo {mjf |
  1
,+->687+r<*-): {rn rhqkfmgigmjifklnjkk jqgkhkjjmmliigknf o roqhohnoihgnngijhgn oqhohnoihgnngijnhok o V V |
  1
/061+ {rn rhqkfmgigmjifklnjkk jqgkhkjjmmliigknf o |
  1
:;8: {mio {mlh o {mkn nqjhohfilmihfkfoon {nff {min 90-(>-; h *1410(1 |
  1
/+36,+r:&:r>++-6= {rn {rn {rn {moo |
  1
):-+:' {rn {mlj {mim |
  1
,+->687+r<*-): {rn nhqjjhlfmfllolhlil nmqkfffffffffggkok o mqmmmhofimkjilfnim:ronk rn o Y rmqjjhlfmfllokfjmhj Y o |
  1
/061+ {rn nhqjjhlfmfllolhloi njqojhlfmfllolhfln o |
  1
/+36,+r:&:r>++-6= {rn {rn {rn {moj |
  1
):-+:' {rn {moj {mil |
  1
,+->687+r<*-): {rn nmqmkffffffffgfffi nnqkfffffffffggkok o rn lqmffnhhhonmklnolh:ronj o Y rkqlohlfmfllokhlihj Y o |
  1
/061+ {rn nmqmkffffffffgfffi nnqkfffffffffggkok o |
  1
/+36,+r:&:r>++-6= {rn {rn {rn {mno |
  1
,+->687+r<*-): {rn rnjqojhlfmfllolhloi nhqjjhlfmfllolhfln o n jqjjihhkoinknkkgkm:ronj o Y o Y mqjjhlfmfllokhlnoi |
  1
/061+ {rn rnjqojhlfmfllolhloi nhqjjhlfmfllolhfln o |
  1
/061+ {rn rnmqkfffffffffgfffi nhqjjhlfmfllolhfln o |
  1
<0:;8: {rn {mik {mml {rn {mij -:):-,:; {jn {rn |
  1
:;8: {mii {mjn o {mih mqhhokiinllmghngij {mml {mig 90-(>-; h *1410(1 |
  1
/+36,+r:&:r>++-6= {rn {rn {rn {mmk |
  1
):-+:' {rn {mmk {mif |
  1
:336/,:r<*-): {rn rnlqofjniojonjhnnhm riqkffffffffffollii o o o n lqj o o n V V |
  1
/061+ {rn rnoqimomgihihknglkf rgqfhkghlhlknkllmfg o |
  1
<0:;8: {rn {mmf {mho {rn {mhn -:):-,:; {jn {rn |
  1
:;8: {mhm {mjh o {mhl mqhhokiinllmghngij {mmf {mhk 90-(>-; h *1410(1 |
  1
/+36,+r:&:r>++-6= {rn {rn {rn {mlo |
  1
):-+:' {rn {mjj {mhj |
  1
:336/,:r<*-): {rn rnlqofjniojonjhnnhm iqkffffffffffollii o o o n lqj o o n V V |
  1
/061+ {rn rnoqimomgihihknglkf gqfhkghlhlknkllmfg o |
  1
/+36,+r:&:r>++-6= {rn {rn {rn {mlj |
  1
:336/,:r<*-): {rn niqjjhlfmfllolhlil nmqkfffffffffggkok o o o rn n o o n Y o Y nqjhohfilmihfkfoon |
  1
/061+ {rn nhqjjhlfmfllolhlil nmqkfffffffffggkok o |
  1
/061+ {rn niqjjhlfmfllolhlil nnqkfffffffffggkok o |
  1
<0:;8: {rn {mhi {mkg {rn {mhh 90-(>-; {jn {rn |
  1
:;8: {mhg {mhf rlqnknjfmijljgfgikm {mih rnqjhohfilmihfkfoon {mkg {mgo 90-(>-; h *1410(1 |
  1
/+36,+r:&:r>++-6= {rn {rn {rn {mkf |
  1
):-+:' {rn {mkf {mgn |
  1
,+->687+r<*-): {rn rnlqofjniojonjhnnhm rfqfffffffffffollii o rn o o V V |
  1
/061+ {rn rnlqofjniojonjhnnhm rfqfffffffffffollii o |
  1
<0:;8: {rn {mjk {mgm {rn {mgl -:):-,:; {jn {rn |
  1
:;8: {mgk {mhl nqjhohfilmihfkfoon {mgj lqnknjfmijljgfgoom {mjk {mgi 90-(>-; h *1410(1 |
  1
/+36,+r:&:r>++-6= {rn {rn {rn {mjj |
  1
):-+:' {rn {mhn {mgh |
  1
,+->687+r<*-): {rn rnlqofjniojonjhnnhm fqfffffffffffollii o rn o o V V |
  1
/061+ {rn rnlqofjniojonjhnnhm fqfffffffffffollii o |
  1
<0:;8: {rn {mgg {mik {rn {mgf -:):-,:; {jn {rn |
  1
:;8: {mfo {mhf jqigklknggiogogonj:ronk {mfn mqkffffffffffokjol {mik {mfm 90-(>-; h *1410(1 |
  1
/+36,+r:&:r>++-6= {rn {rn {rn {mij |
  1
):-+:' {rn {mij {mfl |
  1
:336/,:r<*-): {rn rnjqgijimiilkgjgljf rgqfffffffffffollii o o o n n o o n V V |
  1
/061+ {rn rnjqgijimiilkgjgljf rfqfffffffffffollii o |
  1
<0:;8: {rn {mho {mfk {rn {mfj -:):-,:; {jn {rn |
  1
:;8: {mfi {mgj o {mfh mqkffffffffffokjol {mho {mfg 90-(>-; h *1410(1 |
  1
/+36,+r:&:r>++-6= {rn {rn {rn {mhn |
  1
):-+:' {rn {mgl {mff |
  1
:336/,:r<*-): {rn rnjqgijimiilkgjgljf gqfffffffffffollii o o o n n o o n V V |
  1
/061+ {rn rnjqgijimiilkgjgljf fqfffffffffffollii o |
  1
<0:;8: {rn {loo {mhi {rn {lon 90-(>-; {jn {rn |
  1
:;8: {lom {lol nqjhohfilmihfkfoon {mfn lqnknjfmijljgfgoom {mhi {lok 90-(>-; h *1410(1 |
  1
/+36,+r:&:r>++-6= {rn {rn {rn {mhh |
  1
):-+:' {rn {mhh {loj |
  1
,+->687+r<*-): {rn rniqgijimiilkgjgljf rgqfffffffffffollii o o n o V V |
  1
/061+ {rn rniqgijimiilkgjgljf rgqfffffffffffomhfg o |
  1
<0:;8: {rn {mgm {loi {rn {loh -:):-,:; {jn {rn |
  1
:;8: {log {mfh rlqnknjfmijljgfgoom {lof rnqjhohfilmihfkfoon {mgm {lno 90-(>-; h *1410(1 |
  1
/+36,+r:&:r>++-6= {rn {rn {rn {mgl |
  1
):-+:' {rn {mfj {lnn |
  1
,+->687+r<*-): {rn rniqgijimiilkgjgljf gqfffffffffffollii o o rn o V V |
  1
/061+ {rn rniqgijimiilkgjgljf gqfffffffffffollii o |
  1
<0:;8: {rn {lnm {mgg {rn {lnl 90-(>-; {jn {rn |
  1
:;8: {lnk {lol o {lnj nqkfhggkiklhiohjjg {mgg {lni 90-(>-; h *1410(1 |
  1
/+36,+r:&:r>++-6= {rn {rn {rn {mgf |
  1
):-+:' {rn {mgf {lnh |
  1
:336/,:r<*-): {rn rniqlijimiilkgjgljf riqkfffffffffffggil o o o n oqj o o n V V |
  1
/061+ {rn rniqgijimiilkgjgljf riqkfffffffffffggil o |
  1
<0:;8: {rn {mfk {lng {rn {lnf 90-(>-; {jn {rn |
  1
:;8: {lmo {lof o {lmn nqkfhggkiklhiohjjg {mfk {lmm 90-(>-; h *1410(1 |
  1
/+36,+r:&:r>++-6= {rn {rn {rn {mfj |
  1
):-+:' {rn {loh {lml |
  1
:336/,:r<*-): {rn rniqlijimiilkgjgljf iqkfffffffffffggil o o o n oqj o o n V V |
  1
/061+ {rn rniqgijimiilkgjgljf iqkfffffffffffggil o |
  1
<0:;8: {rn {lmk {loo {rn {lmj 90-(>-; {jn {rn |
  1
:;8: {lmi {lnj rnqjhohfilmihfkfoon {lmh o {loo {lmg 90-(>-; h *1410(1 |
  1
/+36,+r:&:r>++-6= {rn {rn {rn {lon |
  1
):-+:' {rn {lon {lmf |
  1
,+->687+r<*-): {rn rniqlijimiilkgjgljf rjqffffffffffffggil o n o o V V |
  1
/061+ {rn rniqlijimiilkgjgljf rjqffffffffffffggil o |
  1
<0:;8: {rn {loi {llo {rn {lln -:):-,:; {jn {rn |
  1
:;8: {llm {lll o {lmn nqjhohfilmihfkfoon {loi {llk 90-(>-; h *1410(1 |
  1
/+36,+r:&:r>++-6= {rn {rn {rn {loh |
  1
):-+:' {rn {lnf {llj |
  1
,+->687+r<*-): {rn rniqlijimiilkgjgljf jqffffffffffffggil o n o o V V |
  1
/061+ {rn rniqlijimiilkgjgljf jqffffffffffffggil o |
  1
<0:;8: {rn {lli {lnm {rn {llh 90-(>-; {jn {rn |
  1
:;8: {llg {lmh o {llf oqkoooooooooofgnnnh {lnm {lko 90-(>-; h *1410(1 |
  1
/+36,+r:&:r>++-6= {rn {rn {rn {lnl |
  1
):-+:' {rn {lnl {lkn |
  1
:336/,:r<*-): {rn rnkqgihhknffnofhiol rjqkfffffffffffggil o o o n oqj o o n V V |
  1
/061+ {rn rnkqgihhknffnofhiol rjqffffffffffffggil o |
  1
<0:;8: {rn {lng {lkm {rn {lkl 90-(>-; {jn {rn |
  1
:;8: {lkk {lll o {lkj oqkoooooooooofgnnnh {lng {lki 90-(>-; h *1410(1 |
  1
/+36,+r:&:r>++-6= {rn {rn {rn {lnf |
  1
):-+:' {rn {lln {lkh |
  1
:336/,:r<*-): {rn rnkqgihhknffnofhiol jqkfffffffffffggil o o o n oqj o o n V V |
  1
/061+ {rn rnkqgihhknffnofhiol jqffffffffffffggil o |
  1
<0:;8: {rn {lkg {lmk {rn {lkf 90-(>-; {jn {rn |
  1
:;8: {ljo {llf o {ljn nqjhohfilmihfkfjlk {lmk {ljm 90-(>-; h *1410(1 |
  1
/+36,+r:&:r>++-6= {rn {rn {rn {lmj |
  1
):-+:' {rn {lmj {ljl |
  1
,+->687+r<*-): {rn rnkqlihhknffnofhiol rjqkfffffffffffggil o o n o V V |
  1
/061+ {rn rnkqlihhknffnofhiol rjqkfffffffffffggil o |
  1
<0:;8: {rn {llo {ljk {rn {ljj -:):-,:; {jn {rn |
  1
:;8: {lji {ljh rnqjhohfilmihfkfjlk {lkj o {llo {ljg 90-(>-; h *1410(1 |
  1
/+36,+r:&:r>++-6= {rn {rn {rn {lln |
  1
):-+:' {rn {lkl {ljf |
  1
,+->687+r<*-): {rn rnkqlihhknffnofhiol jqkfffffffffffggil o o rn o V V |
  1
/061+ {rn rnkqlihhknffnofhiol jqkfffffffffffggil o |
  1
<0:;8: {rn {lio {lli {rn {lin 90-(>-; {jn {rn |
  1
:;8: {lim {ljn o {lil mqkfnjhhogggmmmgml {lli {lik 90-(>-; h *1410(1 |
  1
/+36,+r:&:r>++-6= {rn {rn {rn {llh |
  1
):-+:' {rn {llh {lij |
  1
:336/,:r<*-): {rn rnjqlihhknffnofhiol rjqoffffffffffoohjn o o o n n o o n V V |
  1
/061+ {rn rnkqlihhknffnofhiol rjqoffffffffffoohjn o |
  1
<0:;8: {rn {lkm {lii {rn {lih 90-(>-; {jn {rn |
  1
:;8: {lig {ljh o {lif mqkfnjhhogggmmmgml {lkm {lho 90-(>-; h *1410(1 |
  1
/+36,+r:&:r>++-6= {rn {rn {rn {lkl |
  1
):-+:' {rn {ljj {lhn |
  1
:336/,:r<*-): {rn rnjqlihhknffnofhiol jqoffffffffffoohjn o o o n n o o n V V |
  1
/061+ {rn rnkqlihhknffnofhiol jqoffffffffffoohjn o |
  1
<0:;8: {rn {lhm {lkg {rn {lhl 90-(>-; {jn {rn |
  1
:;8: {lhk {lil nqjhohfilmihfkfoon {lhj lqnmknlflinoifghim {lkg {lhi 90-(>-; h *1410(1 |
  1
/+36,+r:&:r>++-6= {rn {rn {rn {lkf |
  1
):-+:' {rn {lkf {lhh |
  1
,+->687+r<*-): {rn rnjqlihhknffnofhii rkqoffffffffffoohjn o rn o o V V |
  1
/061+ {rn rnjqlihhknffnofhii rkqoffffffffffoohjn o |
  1
<0:;8: {rn {ljk {lhg {rn {lhf -:):-,:; {jn {rn |
  1
:;8: {lgo {lgn rlqnmknlflinoifghim {lif rnqjhohfilmihfkfoon {ljk {lgm 90-(>-; h *1410(1 |
  1
/+36,+r:&:r>++-6= {rn {rn {rn {ljj |
  1
):-+:' {rn {lih {lgl |
  1
,+->687+r<*-): {rn rnjqlihhknffnofhii kqoffffffffffoohjn o rn o o V V |
  1
/061+ {rn rnjqlihhknffnofhii kqoffffffffffoohjn o |
  1
<0:;8: {rn {lgk {lio {rn {lgj 90-(>-; {jn {rn |
  1
:;8: {lgi {lhj o {lgh noqkifnfngnmmnioif {lio {lgg 90-(>-; h *1410(1 |
  1
/+36,+r:&:r>++-6= {rn {rn {rn {lin |
  1
):-+:' {rn {lin {lgf |
  1
:336/,:r<*-): {rn rnhqgjflnfohffnffkm rjqoffffffffffoohjn o o o n n o o n V V |
  1
/061+ {rn rnhqgjflnfohffnffkm rkqoffffffffffoohjn o |
  1
<0:;8: {rn {lii {lfo {rn {lfn 90-(>-; {jn {rn |
  1
:;8: {lfm {lgn o {lfl noqkifnfngnmmnioif {lii {lfk 90-(>-; h *1410(1 |
  1
/+36,+r:&:r>++-6= {rn {rn {rn {lih |
  1
):-+:' {rn {lhf {lfj |
  1
:336/,:r<*-): {rn rnhqgjflnfohffnffkm jqoffffffffffoohjn o o o n n o o n V V |
  1
/061+ {rn rnhqgjflnfohffnffkm kqoffffffffffoohjn o |
  1
<0:;8: {rn {lfi {lhm {rn {lfh 90-(>-; {jn {rn |
  1
:;8: {lfg {lgh rlqnknjfmijljgfgoom {lff rnqjhohfilmihfkfoon {lhm {koo 90-(>-; h *1410(1 |
  1
/+36,+r:&:r>++-6= {rn {rn {rn {lhl |
  1
):-+:' {rn {lhl {kon |
  1
,+->687+r<*-): {rn rngqgjfniihhjohilki rjqogmjkhjfljjmgnhj o roqongmmgohioghnnflhk roqfffgllgjkgngfhokh o V V |
  1
/061+ {rn rngqgjfniihhjohilki rjqogmjkhjfljjmgnhj o |
  1
<0:;8: {rn {lhg {kom {rn {kol -:):-,:; {jn {rn |
  1
:;8: {kok {koj nqjhohfilmihfkfoon {lfl lqnknjfmijljgfgoom {lhg {koi 90-(>-; h *1410(1 |
  1
/+36,+r:&:r>++-6= {rn {rn {rn {lhf |
  1
):-+:' {rn {lfn {koh |
  1
,+->687+r<*-): {rn rngqgjfniihhjohilki jqogmjkhjfljjmgnhj o roqongmmgohioghnnflhk oqfffgllgjkgngfhokh o V V |
  1
/061+ {rn rngqgjfniihhjohilki jqogmjkhjfljjmgnhj o |
  1
<0:;8: {rn {kog {lgk {rn {kof 90-(>-; {jn {rn |
  1
:;8: {kno {lff o {knn noqkifnfngnmmniofm {lgk {knm 90-(>-; h *1410(1 |
  1
/+36,+r:&:r>++-6= {rn {rn {rn {lgj |
  1
):-+:' {rn {lgj {knl |
  1
:336/,:r<*-): {rn rnjqjjoooooooooooig rnjqjjooooooooooonn o o o n lqj o o n V V |
  1
/061+ {rn rnfqojoooooooooooig rnjqjjooooooooooonn o |
  1
<0:;8: {rn {lfo {knk {rn {knj 90-(>-; {jn {rn |
  1
:;8: {kni {koj o {knh noqkifnfngnmmniofm {lfo {kng 90-(>-; h *1410(1 |
  1
/+36,+r:&:r>++-6= {rn {rn {rn {lfn |
  1
):-+:' {rn {kol {knf |
  1
:336/,:r<*-): {rn rnjqjjoooooooooooig njqjjooooooooooonn o o o n lqj o o n V V |
  1
/061+ {rn rnfqojoooooooooooig njqjjooooooooooonn o |
  1
<0:;8: {rn {kmo {lfi {rn {kmn 90-(>-; {jn {rn |
  1
:;8: {kmm {knn rnqjjllklolkmhkfmmi {kml o {lfi {kmk 90-(>-; h *1410(1 |
  1
/+36,+r:&:r>++-6= {rn {rn {rn {lfh |
  1
):-+:' {rn {lfh {kmj |
  1
,+->687+r<*-): {rn rnjqjjoooooooooooig rnfqojooooooooooonn o oqfffgllgjkgngfigmj oqongmmgohioghmkkmlf o V V |
  1
/061+ {rn rnjqjjoooooooooooig rnfqojooooooooooonn o |
  1
<0:;8: {rn {kom {kmi {rn {kmh -:):-,:; {jn {rn |
  1
:;8: {kmg {kmf nqnligiglhhmniniol:ronl {knh nqjjllklolkmhkfmmi {kom {klo 90-(>-; h *1410(1 |
  1
/+36,+r:&:r>++-6= {rn {rn {rn {kol |
  1
):-+:' {rn {knj {kln |
  1
,+->687+r<*-): {rn rnjqjjoooooooooooig nfqojooooooooooonn o oqfffgllgjkgngfigmj roqongmmgohioghmkkmlf o V V |
  1
/061+ {rn rnjqjjoooooooooooig nfqojooooooooooonn o |
  1
<0:;8: {rn {klm {kog {rn {kll 90-(>-; {jn {rn |
  1
:;8: {klk {kml o {klj mqkfnjhhogggmnolng {kog {kli 90-(>-; h *1410(1 |
  1
/+36,+r:&:r>++-6= {rn {rn {rn {kof |
  1
):-+:' {rn {kof {klh |
  1
:336/,:r<*-): {rn rjqoffffffffffonggg rnhqgjflnfohffngjhg o o o n n o o n V V |
  1
/061+ {rn rjqogmjkhjfljjmghkl rngqgjfniihhjohkfgm o |
  1
<0:;8: {rn {knk {klg {rn {klf 90-(>-; {jn {rn |
  1
:;8: {kko {kmf o {kkn mqkfnjhhogggmnnkjj {knk {kkm 90-(>-; h *1410(1 |
  1
/+36,+r:&:r>++-6= {rn {rn {rn {knj |
  1
):-+:' {rn {kmh {kkl |
  1
:336/,:r<*-): {rn rjqoffffffffffonggg nhqgjflnfohffngjhg o o o n n o o n V V |
  1
/061+ {rn rjqogmjkhjfljjmghkl ngqgjfniihhjohkfgm o |
  1
<0:;8: {rn {kkk {kmo {rn {kkj 90-(>-; {jn {rn |
  1
:;8: {kki {klj o {kkh nqjhohfilmihfkfoon {kmo {kkg 90-(>-; h *1410(1 |
  1
/+36,+r:&:r>++-6= {rn {rn {rn {kmn |
  1
):-+:' {rn {kmn {kkf |
  1
,+->687+r<*-): {rn rkqoffffffffffonggg rnhqgjflnfohffngjhg o iqgkkmifhllhnhhilf:ronk n o V V |
  1
/061+ {rn rkqoffffffffffonggg rnhqgjflnfohffngjhg o |
  1
<0:;8: {rn {kmi {kjo {rn {kjn -:):-,:; {jn {rn |
  1
:;8: {kjm {kjl rnqjhohfilmihfkfoon {kkn o {kmi {kjk 90-(>-; h *1410(1 |
  1
/+36,+r:&:r>++-6= {rn {rn {rn {kmh |
  1
):-+:' {rn {klf {kjj |
  1
,+->687+r<*-): {rn rkqoffffffffffonggg nhqgjflnfohffngifn o iqgkkmifhllhnhjmfn:ronk rn o V V |
  1
/061+ {rn rkqoffffffffffonggg nhqgjflnfohffngifn o |
  1
<0:;8: {rn {kji {klm {rn {kjh 90-(>-; {jn {rn |
  1
:;8: {kjg {kkh o {kjf oqkoooooooooofgigom {klm {kio 90-(>-; h *1410(1 |
  1
/+36,+r:&:r>++-6= {rn {rn {rn {kll |
  1
):-+:' {rn {kll {kin |
  1
:336/,:r<*-): {rn rjqoffffffffffoongl rnjqlihhknffnofhjki o o o n n o o n V V |
  1
/061+ {rn rkqoffffffffffoongl rnjqlihhknffnofhjki o |
  1
<0:;8: {rn {klg {kim {rn {kil 90-(>-; {jn {rn |
  1
:;8: {kik {kjl o {kij oqkoooooooooofgigom {klg {kii 90-(>-; h *1410(1 |
  1
/+36,+r:&:r>++-6= {rn {rn {rn {klf |
  1
):-+:' {rn {kjn {kih |
  1
:336/,:r<*-): {rn rjqoffffffffffoongl njqlihhknffnofhjki o o o n n o o n V V |
  1
/061+ {rn rkqoffffffffffoongl njqlihhknffnofhjki o |
  1
<0:;8: {rn {kig {kkk {rn {kif 90-(>-; {jn {rn |
  1
:;8: {kho {kjf nqjhohfilmihfjonom {khn lqnknjfmijljgfgoom {kkk {khm 90-(>-; h *1410(1 |
  1
/+36,+r:&:r>++-6= {rn {rn {rn {kkj |
  1
):-+:' {rn {kkj {khl |
  1
,+->687+r<*-): {rn rjqoffffffffffoongl rnkqlihhknffnofhjki o rn o o V V |
  1
/061+ {rn rjqoffffffffffoongl rnkqlihhknffnofhjki o |
  1
<0:;8: {rn {kjo {khk {rn {khj -:):-,:; {jn {rn |
  1
:;8: {khi {khh rlqnknjfmijljgfgoom {kij rnqjhohfilmihfjonom {kjo {khg 90-(>-; h *1410(1 |
  1
/+36,+r:&:r>++-6= {rn {rn {rn {kjn |
  1
):-+:' {rn {kil {khf |
  1
,+->687+r<*-): {rn rjqoffffffffffoongl nkqlihhknffnofhjki o rn o o V V |
  1
/061+ {rn rjqoffffffffffoongl nkqlihhknffnofhjki o |
  1
<0:;8: {rn {kgo {kji {rn {kgn -:):-,:; {jn {rn |
  1
:;8: {kgm {khn o {kgl nqkfhggkiklhiohjjg {kji {kgk 90-(>-; h *1410(1 |
  1
/+36,+r:&:r>++-6= {rn {rn {rn {kjh |
  1
):-+:' {rn {kjh {kgj |
  1
:336/,:r<*-): {rn rjqkfffffffffffgmfj rnkqgihhknffnofhjki o o o n oqj o o n V V |
  1
/061+ {rn rjqkfffffffffffggil rnkqlihhknffnofhjki o |
  1
<0:;8: {rn {kim {kgi {rn {kgh -:):-,:; {jn {rn |
  1
:;8: {kgg {khh o {kgf nqkfhggkiklhiohjjg {kim {kfo 90-(>-; h *1410(1 |
  1
/+36,+r:&:r>++-6= {rn {rn {rn {kil |
  1
):-+:' {rn {khj {kfn |
  1
:336/,:r<*-): {rn rjqkfffffffffffgmfj nkqgihhknffnofhjki o o o n oqj o o n V V |
  1
/061+ {rn rjqkfffffffffffggil nkqlihhknffnofhjki o |
  1
<0:;8: {rn {kfm {kig {rn {kfl 90-(>-; {jn {rn |
  1
:;8: {kfk {kfj rnqjhohfilmihfkfoon {kgl o {kig {kfi 90-(>-; h *1410(1 |
  1
/+36,+r:&:r>++-6= {rn {rn {rn {kif |
  1
):-+:' {rn {kif {kfh |
  1
,+->687+r<*-): {rn rjqffffffffffffgmfj rnkqgihhknffnofhjki o rlqhfkfnmfgjfimnonf:ronk rn o V V |
  1
/061+ {rn rjqffffffffffffgmfj rnkqgihhknffnofhjki o |
  1
<0:;8: {rn {khk {kfg {rn {kff -:):-,:; {jn {rn |
  1
:;8: {joo {kgf o {jon nqjhohfilmihfkfoon {khk {jom 90-(>-; h *1410(1 |
  1
/+36,+r:&:r>++-6= {rn {rn {rn {khj |
  1
):-+:' {rn {kgh {jol |
  1
,+->687+r<*-): {rn rjqffffffffffffgmfj nkqgihhknffnofhjki o rlqhfkfnmfgjfimnonf:ronk n o V V |
  1
/061+ {rn rjqffffffffffffgmfj nkqgihhknffnofhjki o |
  1
<0:;8: {rn {jok {kgo {rn {joj -:):-,:; {jn {rn |
  1
:;8: {joi {kfj o {joh mqjomnnjljimmfgij {kgo {jog 90-(>-; h *1410(1 |
  1
/+36,+r:&:r>++-6= {rn {rn {rn {kgn |
  1
):-+:' {rn {kgn {jof |
  1
:336/,:r<*-): {rn riqkfffffffffffggil rniqlijimiilkgjglom o o o n oqj o o n V V |
  1
/061+ {rn rjqffffffffffffggil rniqlijimiilkgjglom o |
  1
<0:;8: {rn {kgi {jno {rn {jnn -:):-,:; {jn {rn |
  1
:;8: {jnm {jon o {jnl mqjomnnjljimmfgij {kgi {jnk 90-(>-; h *1410(1 |
  1
/+36,+r:&:r>++-6= {rn {rn {rn {kgh |
  1
):-+:' {rn {kff {jnj |
  1
:336/,:r<*-): {rn riqkfffffffffffggil niqlijimiilkgjglom o o o n oqj o o n V V |
  1
/061+ {rn rjqffffffffffffggil niqlijimiilkgjglom o |
  1
<0:;8: {rn {jni {kfm {rn {jnh 90-(>-; {jn {rn |
  1
:;8: {jng {jnf rlqnknjfmijljgfgoom {joh rnqjhohfilmihfkfoon {kfm {jmo 90-(>-; h *1410(1 |
  1
/+36,+r:&:r>++-6= {rn {rn {rn {kfl |
  1
):-+:' {rn {kfl {jmn |
  1
,+->687+r<*-): {rn riqkfffffffffffggil rniqgijimiilkgjglom o rn o o V V |
  1
/061+ {rn riqkfffffffffffggil rniqgijimiilkgjglom o |
  1
<0:;8: {rn {kfg {jmm {rn {jml -:):-,:; {jn {rn |
  1
:;8: {jmk {jnl nqjhohfilmihfkfoon {jmj lqnknjfmijljgfgoom {kfg {jmi 90-(>-; h *1410(1 |
  1
/+36,+r:&:r>++-6= {rn {rn {rn {kff |
  1
):-+:' {rn {jnn {jmh |
  1
,+->687+r<*-): {rn riqkfffffffffffggil niqgijimiilkgjglom o rn o o V V |
  1
/061+ {rn riqkfffffffffffggil niqgijimiilkgjglom o |
  1
<0:;8: {rn {jmg {jok {rn {jmf -:):-,:; {jn {rn |
  1
:;8: {jlo {jnf o {jln mqhhkgfgojgffnfflg {jok {jlm 90-(>-; h *1410(1 |
  1
/+36,+r:&:r>++-6= {rn {rn {rn {joj |
  1
):-+:' {rn {joj {jll |
  1
:336/,:r<*-): {rn rfqoomnnjljimmfhjnl rnjqgijimiilkgjglom o o o n n o o n V V |
  1
/061+ {rn rfqoomnnjljimmfhjnl rniqgijimiilkgjglom o |
  1
<0:;8: {rn {jno {jlk {rn {jlj -:):-,:; {jn {rn |
  1
:;8: {jli {jmj o {jlh mqhhkgfgojgffnfflg {jno {jlg 90-(>-; h *1410(1 |
  1
/+36,+r:&:r>++-6= {rn {rn {rn {jnn |
  1
):-+:' {rn {jml {jlf |
  1
:336/,:r<*-): {rn rfqoomnnjljimmfhjnl njqgijimiilkgjglom o o o n n o o n V V |
  1
/061+ {rn rfqoomnnjljimmfhjnl niqgijimiilkgjglom o |
  1
<0:;8: {rn {jko {jni {rn {jkn 90-(>-; {jn {rn |
  1
:;8: {jkm {jkl mqljinfkkfonfmllll {jln lqnknjfmijljgfgoom {jni {jkk 90-(>-; h *1410(1 |
  1
/+36,+r:&:r>++-6= {rn {rn {rn {jnh |
  1
):-+:' {rn {jnh {jkj |
  1
,+->687+r<*-): {rn rnoqoomnnjljimmfhjn rnjqgijimiilkgjglom o o n o V V |
  1
/061+ {rn rnoqoomnnjljimmfhjn rnjqgijimiilkgjglom o |
  1
<0:;8: {rn {jmm {jki {rn {jkh -:):-,:; {jn {rn |
  1
:;8: {jkg {jlh rlqnknjfmijljgfgoom {jkf rmqljinfkkfonfmllll {jmm {jjo 90-(>-; h *1410(1 |
  1
/+36,+r:&:r>++-6= {rn {rn {rn {jml |
  1
):-+:' {rn {jlj {jjn |
  1
,+->687+r<*-): {rn rnoqoomnnjljimmfhjn njqgijimiilkgjglom o o rn o V V |
  1
/061+ {rn rnoqoomnnjljimmfhjn njqgijimiilkgjglom o |
  1
<0:;8: {rn {jjm {jmg {rn {jjl -:):-,:; {jn {rn |
  1
:;8: {jjk {jkl o {jjj kqknijiffglmfnihji {jmg {jji 90-(>-; h *1410(1 |
  1
/+36,+r:&:r>++-6= {rn {rn {rn {jmf |
  1
):-+:' {rn {jmf {jjh |
  1
:336/,:r<*-): {rn riqjomnnjljimmfhjnl rnlqofohmgjhjgiilog o o o n lqj o o n V V |
  1
/061+ {rn rnoqoomnnjljimmfhjn rnlqofohmgjhjgiilog o |
  1
<0:;8: {rn {jlk {jjg {rn {jjf -:):-,:; {jn {rn |
  1
:;8: {jio {jkf o {jin kqknijiffglmfnihji {jlk {jim 90-(>-; h *1410(1 |
  1
/+36,+r:&:r>++-6= {rn {rn {rn {jlj |
  1
):-+:' {rn {jkh {jil |
  1
:336/,:r<*-): {rn riqjomnnjljimmfhjnl nlqofohmgjhjgiilog o o o n lqj o o n V V |
  1
/061+ {rn rnoqoomnnjljimmfhjn nlqofohmgjhjgiilog o |
  1
<0:;8: {rn {jik {jko {rn {jij -:):-,:; {jn {rn |
  1
:;8: {jii {jih nqjhohfilmihfkgikn {jjj mqljinfkkfonfmllll {jko {jig 90-(>-; h *1410(1 |
  1
/+36,+r:&:r>++-6= {rn {rn {rn {jkn |
  1
):-+:' {rn {jkn {jif |
  1
,+->687+r<*-): {rn rgqfhifgfofolgmilog rnoqinjgjkgknhnllhm o oqhohnoihgnngijkiom oqhohnoihgnngijkfmk o V V |
  1
/061+ {rn rgqfhifgfofolgmilog rnoqinjgjkgknhnllhm o |
  1
<0:;8: {rn {jki {jho {rn {jhn 90-(>-; {jn {rn |
  1
:;8: {jhm {jin rmqljinfkkfonfmllll {jhl rnqjhohfilmihfkgikn {jki {jhk 90-(>-; h *1410(1 |
  1
/+36,+r:&:r>++-6= {rn {rn {rn {jkh |
  1
):-+:' {rn {jjf {jhj |
  1
,+->687+r<*-): {rn rgqfhifgfofolgmilog noqinjgjkgknhnllhm o oqhohnoihgnngijkiom roqhohnoihgnngijkfmk o V V |
  1
/061+ {rn rgqfhifgfofolgmilog noqinjgjkgknhnllhm o |
  1
<0:;8: {rn {jhi {jjm {rn {jhh -:):-,:; {jn {rn |
  1
:;8: {jhg {jhf o {jih iqhjgmjhjkmfngnjgg {jjm {jgo 90-(>-; h *1410(1 |
  1
/+36,+r:&:r>++-6= {rn {rn {rn {jjl |
  1
):-+:' {rn {jjl {jgn |
  1
:336/,:r<*-): {rn rlqlhfnmghhnkjfmkff rfqfihhknffnofjgoij o o o n lqj o o n V V |
  1
/061+ {rn rjqgjkoomjojinmnmfk rhqkfmgigmjifkmghom o |
  1
<0:;8: {rn {jjg {jgm {rn {jgl -:):-,:; {jn {rn |
  1
:;8: {jgk {jgj o {jhl iqhjgmjhjkmfngnjgg {jjg {jgi 90-(>-; h *1410(1 |
  1
/+36,+r:&:r>++-6= {rn {rn {rn {jjf |
  1
):-+:' {rn {jhn {jgh |
  1
:336/,:r<*-): {rn rlqlhfnmghhnkjfmkff fqfihhknffnofjgoij o o o n lqj o o n V V |
  1
/061+ {rn rjqgjkoomjojinmnmfk hqkfmgigmjifkmghom o |
  1
<0:;8: {rn {jgg {jik {rn {jgf -:):-,:; {jn {rn |
  1
:;8: {jfo {jfn oqhgjlfgnillfhkjfgl {jhf nqjhohfilmihfkfmfm {jik {jfm 90-(>-; h *1410(1 |
  1
/+36,+r:&:r>++-6= {rn {rn {rn {jij |
  1
):-+:' {rn {jij {jfl |
  1
,+->687+r<*-): {rn lqlhfnmghhnkjfommi riqkihhknffnofjgoij o rn mqnomhlfkkjoljlfjk:ronj o V V |
  1
/061+ {rn rlqlhfnmghhnkjfnlil riqkihhknffnofjgoij o |
  1
<0:;8: {rn {jho {jfk {rn {jfj 90-(>-; {jn {rn |
  1
:;8: {jfi {jgj rnqjhohfilmihfkfmfm {jfh roqhgjlfgnillfhkjfgl {jho {jfg 90-(>-; h *1410(1 |
  1
/+36,+r:&:r>++-6= {rn {rn {rn {jhn |
  1
):-+:' {rn {jgl {jff |
  1
,+->687+r<*-): {rn lqlhfnmghhnkjfommi iqkihhknffnofjgoij o rn rmqnomhlfkkjoljlfjk:ronj o V V |
  1
/061+ {rn rlqlhfnmghhnkjfnlil iqkihhknffnofjgoij o |
  1
<0:;8: {rn {ioo {jhi {rn {ion -:):-,:; {jn {rn |
  1
:;8: {iom {iol o {jfn kqknijiffglmfnihji {jhi {iok 90-(>-; h *1410(1 |
  1
/+36,+r:&:r>++-6= {rn {rn {rn {jhh |
  1
):-+:' {rn {jhh {ioj |
  1
:336/,:r<*-): {rn lqlhfnmghhnkjfnlil rfqfihhknffnofjgoij o o o n lqj o o n V V |
  1
/061+ {rn lqlhfnmghhnkjfommi riqkihhknffnofjgoij o |
  1
<0:;8: {rn {jgm {ioi {rn {ioh -:):-,:; {jn {rn |
  1
:;8: {iog {iof o {jfh kqknijiffglmfnihji {jgm {ino 90-(>-; h *1410(1 |
  1
/+36,+r:&:r>++-6= {rn {rn {rn {jgl |
  1
):-+:' {rn {jfj {inn |
  1
:336/,:r<*-): {rn lqlhfnmghhnkjfnlil fqfihhknffnofjgoij o o o n lqj o o n V V |
  1
/061+ {rn lqlhfnmghhnkjfommi iqkihhknffnofjgoij o |
  1
<0:;8: {rn {inm {jgg {rn {inl -:):-,:; {jn {rn |
  1
:;8: {ink {inj o {iol oqhgjlfgnillfhkjfgl {jgg {ini 90-(>-; h *1410(1 |
  1
/+36,+r:&:r>++-6= {rn {rn {rn {jgf |
  1
):-+:' {rn {jgf {inh |
  1
,+->687+r<*-): {rn gqfhifgfofolgmjnhn rnoqinjgjkgknhnllhm o roqhohnoihgnngijkiom oqhohnoihgnngijkfmk o V V |
  1
/061+ {rn jqgjkoomjojinmonjh rhqkfmgigmjifkmghom o |
  1
<0:;8: {rn {jfk {ing {rn {inf 90-(>-; {jn {rn |
  1
:;8: {imo {iof roqhgjlfgnillfhkjfgl {imn o {jfk {imm 90-(>-; h *1410(1 |
  1
/+36,+r:&:r>++-6= {rn {rn {rn {jfj |
  1
):-+:' {rn {ioh {iml |
  1
,+->687+r<*-): {rn gqfhifgfofolgmjnhn noqinjgjkgknhnllhm o roqhohnoihgnngijkiom roqhohnoihgnngijkfmk o V V |
  1
/061+ {rn jqgjkoomjojinmonjh hqkfmgigmjifkmghom o |
  1
<0:;8: {rn {imk {ioo {rn {imj -:):-,:; {jn {rn |
  1
:;8: {imi {imh o {inj mqhhkgfgojgffnfflg {ioo {img 90-(>-; h *1410(1 |
  1
/+36,+r:&:r>++-6= {rn {rn {rn {ion |
  1
):-+:' {rn {ion {imf |
  1
:336/,:r<*-): {rn iqjomnnjljimmfilhh rnlqofohmgjhjgiilog o o o n lqj o o n V V |
  1
/061+ {rn gqfhifgfofolgmjnhn rnoqinjgjkgknhnllhm o |
  1
<0:;8: {rn {ioi {ilo {rn {iln -:):-,:; {jn {rn |
  1
:;8: {ilm {ill o {imn mqhhkgfgojgffnfflg {ioi {ilk 90-(>-; h *1410(1 |
  1
/+36,+r:&:r>++-6= {rn {rn {rn {ioh |
  1
):-+:' {rn {inf {ilj |
  1
:336/,:r<*-): {rn iqjomnnjljimmfilhh nlqofohmgjhjgiilog o o o n lqj o o n V V |
  1
/061+ {rn gqfhifgfofolgmjnhn noqinjgjkgknhnllhm o |
  1
<0:;8: {rn {ili {inm {rn {ilh -:):-,:; {jn {rn |
  1
:;8: {ilg {ilf rnqjhohfilmihfkfoon {imh o {inm {iko 90-(>-; h *1410(1 |
  1
/+36,+r:&:r>++-6= {rn {rn {rn {inl |
  1
):-+:' {rn {inl {ikn |
  1
,+->687+r<*-): {rn noqoomnnjljimmfilg rnjqgijimiilkgjglom o o n o V V |
  1
/061+ {rn noqoomnnjljimmfilg rnlqofohmgjhjgiilog o |
  1
<0:;8: {rn {ing {ikm {rn {ikl 90-(>-; {jn {rn |
  1
:;8: {ikk {ill o {ikj nqjhohfilmihfkfoon {ing {iki 90-(>-; h *1410(1 |
  1
/+36,+r:&:r>++-6= {rn {rn {rn {inf |
  1
):-+:' {rn {iln {ikh |
  1
,+->687+r<*-): {rn noqoomnnjljimmfilg njqgijimiilkgjglom o o rn o V V |
  1
/061+ {rn noqoomnnjljimmfilg nlqofohmgjhjgiilog o |
  1
<0:;8: {rn {ikg {imk {rn {ikf -:):-,:; {jn {rn |
  1
:;8: {ijo {ijn o {ilf mqjomnnjljimmfgij {imk {ijm 90-(>-; h *1410(1 |
  1
/+36,+r:&:r>++-6= {rn {rn {rn {imj |
  1
):-+:' {rn {imj {ijl |
  1
:336/,:r<*-): {rn fqoomnnjljimmfilhh rnjqgijimiilkgjglom o o o n n o o n V V |
  1
/061+ {rn noqoomnnjljimmfilg rnjqgijimiilkgjglom o |
  1
<0:;8: {rn {ilo {ijk {rn {ijj -:):-,:; {jn {rn |
  1
:;8: {iji {ijh o {ikj mqjomnnjljimmfgij {ilo {ijg 90-(>-; h *1410(1 |
  1
/+36,+r:&:r>++-6= {rn {rn {rn {iln |
  1
):-+:' {rn {ikl {ijf |
  1
:336/,:r<*-): {rn fqoomnnjljimmfilhh njqgijimiilkgjglom o o o n n o o n V V |
  1
/061+ {rn noqoomnnjljimmfilg njqgijimiilkgjglom o |
  1
<0:;8: {rn {iio {ili {rn {iin -:):-,:; {jn {rn |
  1
:;8: {iim {iil rlqnknjfmijljgfgoom {ijn rnqjhohfilmihfkfoon {ili {iik 90-(>-; h *1410(1 |
  1
/+36,+r:&:r>++-6= {rn {rn {rn {ilh |
  1
):-+:' {rn {ilh {iij |
  1
,+->687+r<*-): {rn iqkfffffffffffhhmi rniqgijimiilkgjglom o n o o V V |
  1
/061+ {rn fqoomnnjljimmfilhh rniqgijimiilkgjglom o |
  1
<0:;8: {rn {ikm {iii {rn {iih 90-(>-; {jn {rn |
  1
:;8: {iig {ijh nqjhohfilmihfkfoon {iif lqnknjfmijljgfgoom {ikm {iho 90-(>-; h *1410(1 |
  1
/+36,+r:&:r>++-6= {rn {rn {rn {ikl |
  1
):-+:' {rn {ijj {ihn |
  1
,+->687+r<*-): {rn iqkfffffffffffhhmi niqgijimiilkgjglom o n o o V V |
  1
/061+ {rn fqoomnnjljimmfilhh niqgijimiilkgjglom o |
  1
<0:;8: {rn {ihm {ikg {rn {ihl 90-(>-; {jn {rn |
  1
:;8: {ihk {ihj o {iil nqkfhggkiklhiohjjg {ikg {ihi 90-(>-; h *1410(1 |
  1
/+36,+r:&:r>++-6= {rn {rn {rn {ikf |
  1
):-+:' {rn {ikf {ihh |
  1
:336/,:r<*-): {rn iqkfffffffffffhhmi rniqlijimiilkgjglom o o o n oqj o o n V V |
  1
/061+ {rn iqkfffffffffffhhmi rniqgijimiilkgjglom o |
  1
<0:;8: {rn {ijk {ihg {rn {ihf 90-(>-; {jn {rn |
  1
:;8: {igo {ign o {iif nqkfhggkiklhiohjjg {ijk {igm 90-(>-; h *1410(1 |
  1
/+36,+r:&:r>++-6= {rn {rn {rn {ijj |
  1
):-+:' {rn {iih {igl |
  1
:336/,:r<*-): {rn iqkfffffffffffhhmi niqlijimiilkgjglom o o o n oqj o o n V V |
  1
/061+ {rn iqkfffffffffffhhmi niqgijimiilkgjglom o |
  1
<0:;8: {rn {igk {iio {rn {igj -:):-,:; {jn {rn |
  1
:;8: {igi {ihj o {igh nqjhohfilmihfkhgmf {iio {igg 90-(>-; h *1410(1 |
  1
/+36,+r:&:r>++-6= {rn {rn {rn {iin |
  1
):-+:' {rn {iin {igf |
  1
,+->687+r<*-): {rn jqffffffffffffhnjg rnkqgihhknffnofhjki o lqhfkfnmfgjfimnonf:ronk rn o V V |
  1
/061+ {rn jqffffffffffffhhmi rniqlijimiilkgjglom o |
  1
<0:;8: {rn {iii {ifo {rn {ifn 90-(>-; {jn {rn |
  1
:;8: {ifm {ifl rnqjhohfilmihfkhgmf {ign o {iii {ifk 90-(>-; h *1410(1 |
  1
/+36,+r:&:r>++-6= {rn {rn {rn {iih |
  1
):-+:' {rn {ihf {ifj |
  1
,+->687+r<*-): {rn jqffffffffffffhnjg nkqgihhknffnofhjki o lqhfkfnmfgjfimnonf:ronk n o V V |
  1
/061+ {rn jqffffffffffffhhmi niqlijimiilkgjglom o |
  1
<0:;8: {rn {ifi {ihm {rn {ifh 90-(>-; {jn {rn |
  1
:;8: {ifg {iff o {igh oqkoooooooooofgigom {ihm {hoo 90-(>-; h *1410(1 |
  1
/+36,+r:&:r>++-6= {rn {rn {rn {ihl |
  1
):-+:' {rn {ihl {hon |
  1
:336/,:r<*-): {rn jqkfffffffffffhnjg rnkqgihhknffnofhjki o o o n oqj o o n V V |
  1
/061+ {rn jqffffffffffffhnjg rnkqgihhknffnofhjki o |
  1
<0:;8: {rn {ihg {hom {rn {hol 90-(>-; {jn {rn |
  1
:;8: {hok {hoj o {ifl oqkoooooooooofgigom {ihg {hoi 90-(>-; h *1410(1 |
  1
/+36,+r:&:r>++-6= {rn {rn {rn {ihf |
  1
):-+:' {rn {ifn {hoh |
  1
:336/,:r<*-): {rn jqkfffffffffffhnjg nkqgihhknffnofhjki o o o n oqj o o n V V |
  1
/061+ {rn jqffffffffffffhnjg nkqgihhknffnofhjki o |
  1
<0:;8: {rn {hog {igk {rn {hof -:):-,:; {jn {rn |
  1
:;8: {hno {iff nqjhohfilmihfkfoon {hnn lqnknjfmijljgfgoom {igk {hnm 90-(>-; h *1410(1 |
  1
/+36,+r:&:r>++-6= {rn {rn {rn {igj |
  1
):-+:' {rn {igj {hnl |
  1
,+->687+r<*-): {rn jqofffffffffgffoki rnkqlihhknffnofhjki o n o o V V |
  1
/061+ {rn jqkfffffffffffhhmi rnkqlihhknffnofhjki o |
  1
<0:;8: {rn {ifo {hnk {rn {hnj 90-(>-; {jn {rn |
  1
:;8: {hni {hnh rlqnknjfmijljgfgoom {hoj rnqjhohfilmihfkfoon {ifo {hng 90-(>-; h *1410(1 |
  1
/+36,+r:&:r>++-6= {rn {rn {rn {ifn |
  1
):-+:' {rn {hol {hnf |
  1
,+->687+r<*-): {rn jqofffffffffgffoki nkqlihhknffnofhjki o n o o V V |
  1
/061+ {rn jqkfffffffffffhhmi nkqlihhknffnofhjki o |
  1
<0:;8: {rn {hmo {ifi {rn {hmn 90-(>-; {jn {rn |
  1
:;8: {hmm {hml o {hnn mqkfnjhhogggmnolng {ifi {hmk 90-(>-; h *1410(1 |
  1
/+36,+r:&:r>++-6= {rn {rn {rn {ifh |
  1
):-+:' {rn {ifh {hmj |
  1
:336/,:r<*-): {rn jqofffffffffgffoki rnjqlihhknffnofhjki o o o n n o o n V V |
  1
/061+ {rn jqofffffffffgffoki rnkqlihhknffnofhjki o |
  1
<0:;8: {rn {hom {hmi {rn {hmh 90-(>-; {jn {rn |
  1
:;8: {hmg {hmf rjqigklknggiogogonj:ronk {hnh mqkfnjhhogggmnolng {hom {hlo 90-(>-; h *1410(1 |
  1
/+36,+r:&:r>++-6= {rn {rn {rn {hol |
  1
):-+:' {rn {hnj {hln |
  1
:336/,:r<*-): {rn jqofffffffffgffoki njqlihhknffnofhjki o o o n n o o n V V |
  1
/061+ {rn jqofffffffffgffoki nkqlihhknffnofhjki o |
  1
<0:;8: {rn {hlm {hog {rn {hll -:):-,:; {jn {rn |
  1
:;8: {hlk {hml rlqnknjfmijljgfgoom {hlj rnqjggmkfinflnkghoh {hog {hli 90-(>-; h *1410(1 |
  1
/+36,+r:&:r>++-6= {rn {rn {rn {hof |
  1
):-+:' {rn {hof {hlh |
  1
,+->687+r<*-): {rn kqoffffffffffoohjn rnhqgjflnfohffngjhg o riqgkkmifhllhnhhilf:ronk n o V V |
  1
/061+ {rn kqofffffffffgffoki rnjqlihhknffnofhjki o |
  1
<0:;8: {rn {hnk {hlg {rn {hlf 90-(>-; {jn {rn |
  1
:;8: {hko {hkn nqjggmkfinflnkghoh {hmf lqnknjfmijljgfhlil {hnk {hkm 90-(>-; h *1410(1 |
  1
/+36,+r:&:r>++-6= {rn {rn {rn {hnj |
  1
):-+:' {rn {hmh {hkl |
  1
,+->687+r<*-): {rn kqoffffffffffoohjn nhqgjflnfohffngjhg o riqgkkmifhllhnhhilf:ronk rn o V V |
  1
/061+ {rn kqofffffffffgffoki njqlihhknffnofhjki o |
  1
<0:;8: {rn {hkk {hmo {rn {hkj 90-(>-; {jn {rn |
  1
:;8: {hki {hkh o {hlj noqkifnfngnmmniofm {hmo {hkg 90-(>-; h *1410(1 |
  1
/+36,+r:&:r>++-6= {rn {rn {rn {hmn |
  1
):-+:' {rn {hmn {hkf |
  1
:336/,:r<*-): {rn jqoffffffffffoohjn rnhqgjflnfohffngjhg o o o n n o o n V V |
  1
/061+ {rn kqoffffffffffoohjn rnhqgjflnfohffngjhg o |
  1
<0:;8: {rn {hmi {hjo {rn {hjn 90-(>-; {jn {rn |
  1
:;8: {hjm {hjl o {hkn noqkifnfngnmmniofm {hmi {hjk 90-(>-; h *1410(1 |
  1
/+36,+r:&:r>++-6= {rn {rn {rn {hmh |
  1
):-+:' {rn {hlf {hjj |
  1
:336/,:r<*-): {rn jqoffffffffffoohjn nhqgjflnfohffngjhg o o o n n o o n V V |
  1
/061+ {rn kqoffffffffffoohjn nhqgjflnfohffngilj o |
  1
<0:;8: {rn {hji {hlm {rn {hjh -:):-,:; {jn {rn |
  1
:;8: {hjg {hkh rnqjhohfilmihfkfoon {hjf o {hlm {hio 90-(>-; h *1410(1 |
  1
/+36,+r:&:r>++-6= {rn {rn {rn {hll |
  1
):-+:' {rn {hll {hin |
  1
,+->687+r<*-): {rn njqjkfffffffffffjj rnfqojooooooooooonn o roqfffgllgjkgngfigmj oqongmmgohioghmkkmlf o V V |
  1
/061+ {rn jqogmjkhjfljjmhioi rngqgjfniihhjohkfgm o |
  1
<0:;8: {rn {hlg {him {rn {hil 90-(>-; {jn {rn |
  1
:;8: {hik {hij o {hjl nqjhohfilmihfkfoon {hlg {hii 90-(>-; h *1410(1 |
  1
/+36,+r:&:r>++-6= {rn {rn {rn {hlf |
  1
):-+:' {rn {hjn {hih |
  1
,+->687+r<*-): {rn njqjkfffffffffffjj nfqojooooooooooonn o roqfffgllgjkgngfigmj roqongmmgohioghmkkmlf o V V |
  1
/061+ {rn jqogmjkhjfljjmhioi ngqgjfniihhjohkfgm o |
  1
<0:;8: {rn {hig {hkk {rn {hif 90-(>-; {jn {rn |
  1
:;8: {hho {hhn o {hjf noqkifnfngnmmnioif {hkk {hhm 90-(>-; h *1410(1 |
  1
/+36,+r:&:r>++-6= {rn {rn {rn {hkj |
  1
):-+:' {rn {hkj {hhl |
  1
:336/,:r<*-): {rn njqjkfffffffffffjj rnjqjjooooooooooonn o o o n lqj o o n V V |
  1
/061+ {rn njqjkfffffffffffjj rnfqojooooooooooonn o |
  1
<0:;8: {rn {hjo {hhk {rn {hhj 90-(>-; {jn {rn |
  1
:;8: {hhi {hhh o {hij noqkifnfngnmmnioif {hjo {hhg 90-(>-; h *1410(1 |
  1
/+36,+r:&:r>++-6= {rn {rn {rn {hjn |
  1
):-+:' {rn {hil {hhf |
  1
:336/,:r<*-): {rn njqjkfffffffffffjj njqjjooooooooooonn o o o n lqj o o n V V |
  1
/061+ {rn njqjkfffffffffffjj nfqojooooooooooonn o |
  1
<0:;8: {rn {hgo {hji {rn {hgn -:):-,:; {jn {rn |
  1
:;8: {hgm {hhn oqonhkjlmfmjnffnhmof {hgl nqjhohfilmihfkfoon {hji {hgk 90-(>-; h *1410(1 |
  1
/+36,+r:&:r>++-6= {rn {rn {rn {hjh |
  1
):-+:' {rn {hjh {hgj |
  1
,+->687+r<*-): {rn ngqgjfniihhjohimll rjqogmjkhjfljjmgnhj o oqongmmgohioghnnflhk roqfffgllgjkgngfhokh o V V |
  1
/061+ {rn nfqokfffffffffffjj rnjqjjooooooooooonn o |
  1
<0:;8: {rn {him {hgi {rn {hgh 90-(>-; {jn {rn |
  1
:;8: {hgg {hgf rnqjhohfilmihfkfoon {hhh roqonhkjlmfmjnffnhmof {him {hfo 90-(>-; h *1410(1 |
  1
/+36,+r:&:r>++-6= {rn {rn {rn {hil |
  1
):-+:' {rn {hhj {hfn |
  1
,+->687+r<*-): {rn ngqgjfniihhjohimll jqogmjkhjfljjmgnhj o oqongmmgohioghnnflhk oqfffgllgjkgngfhokh o V V |
  1
/061+ {rn nfqokfffffffffffjj njqjjooooooooooonn o |
  1
<0:;8: {rn {hfm {hig {rn {hfl 90-(>-; {jn {rn |
  1
:;8: {hfk {hfj o {hgl mqkfnjhhogggmmmgml {hig {hfi 90-(>-; h *1410(1 |
  1
/+36,+r:&:r>++-6= {rn {rn {rn {hif |
  1
):-+:' {rn {hif {hfh |
  1
:336/,:r<*-): {rn nhqgjflnfohffnfgmg rjqoffffffffffoohjn o o o n n o o n V V |
  1
/061+ {rn ngqgjfniihhjohimll rjqogmjkhjfljjmgnhj o |
  1
<0:;8: {rn {hhk {hfg {rn {hff 90-(>-; {jn {rn |
  1
:;8: {goo {gon o {hgf mqkfnjhhogggmmmgml {hhk {gom 90-(>-; h *1410(1 |
  1
/+36,+r:&:r>++-6= {rn {rn {rn {hhj |
  1
):-+:' {rn {hgh {gol |
  1
:336/,:r<*-): {rn nhqgjflnfohffnfgmg jqoffffffffffoohjn o o o n n o o n V V |
  1
/061+ {rn ngqgjfniihhjohimll jqogmjkhjfljjmgnhj o |
  1
<0:;8: {rn {gok {hgo {rn {goj -:):-,:; {jn {rn |
  1
:;8: {goi {hfj nqjhohfilmihfkglfh {goh lqnknjfmijljgfgoom {hgo {gog 90-(>-; h *1410(1 |
  1
/+36,+r:&:r>++-6= {rn {rn {rn {hgn |
  1
):-+:' {rn {hgn {gof |
  1
,+->687+r<*-): {rn njqlihhknffnofhjki rkqoffffffffffoohjn o n o o V V |
  1
/061+ {rn nhqgjflnfohffnfgmg rkqoffffffffffoohjn o |
  1
<0:;8: {rn {hgi {gno {rn {gnn 90-(>-; {jn {rn |
  1
:;8: {gnm {gnl rlqnknjfmijljgfgoom {gon rnqjhohfilmihfkglfh {hgi {gnk 90-(>-; h *1410(1 |
  1
/+36,+r:&:r>++-6= {rn {rn {rn {hgh |
  1
):-+:' {rn {hff {gnj |
  1
,+->687+r<*-): {rn njqlihhknffnofhjki kqoffffffffffoohjn o n o o V V |
  1
/061+ {rn nhqgjflnfohffnfgmg kqoffffffffffoohjn o |
  1
<0:;8: {rn {gni {hfm {rn {gnh 90-(>-; {jn {rn |
  1
:;8: {gng {gnf o {goh oqkoooooooooofgnnnh {hfm {gmo 90-(>-; h *1410(1 |
  1
/+36,+r:&:r>++-6= {rn {rn {rn {hfl |
  1
):-+:' {rn {hfl {gmn |
  1
:336/,:r<*-): {rn njqlihhknffnofhkgf rjqoffffffffffoohjn o o o n n o o n V V |
  1
/061+ {rn njqlihhknffnofhjki rkqoffffffffffoohjn o |
  1
<0:;8: {rn {hfg {gmm {rn {gml 90-(>-; {jn {rn |
  1
:;8: {gmk {gmj o {gnl oqkoooooooooofgnnnh {hfg {gmi 90-(>-; h *1410(1 |
  1
/+36,+r:&:r>++-6= {rn {rn {rn {hff |
  1
):-+:' {rn {gnn {gmh |
  1
:336/,:r<*-): {rn njqlihhknffnofhkgf jqoffffffffffoohjn o o o n n o o n V V |
  1
/061+ {rn njqlihhknffnofhjki kqoffffffffffoohjn o |
  1
<0:;8: {rn {gmg {gok {rn {gmf -:):-,:; {jn {rn |
  1
:;8: {glo {gnf rlqnknjfmijljgfgoom {gln rnqjhohfilmihfkfoon {gok {glm 90-(>-; h *1410(1 |
  1
/+36,+r:&:r>++-6= {rn {rn {rn {goj |
  1
):-+:' {rn {goj {gll |
  1
,+->687+r<*-): {rn nkqlihhknffnofhkgf rjqkfffffffffffggil o o n o V V |
  1
/061+ {rn nkqlihhknffnofhkgf rjqoffffffffffoohjn o |
  1
<0:;8: {rn {gno {glk {rn {glj 90-(>-; {jn {rn |
  1
:;8: {gli {glh nqjhohfilmihfkfoon {gmj lqnknjfmijljgfgoom {gno {glg 90-(>-; h *1410(1 |
  1
/+36,+r:&:r>++-6= {rn {rn {rn {gnn |
  1
):-+:' {rn {gml {glf |
  1
,+->687+r<*-): {rn nkqlihhknffnofhkgf jqkfffffffffffggil o o rn o V V |
  1
/061+ {rn nkqlihhknffnofhkgf jqoffffffffffoohjn o |
  1
<0:;8: {rn {gko {gni {rn {gkn -:):-,:; {jn {rn |
  1
:;8: {gkm {gkl o {gln nqkfhggkiklhiohjjg {gni {gkk 90-(>-; h *1410(1 |
  1
/+36,+r:&:r>++-6= {rn {rn {rn {gnh |
  1
):-+:' {rn {gnh {gkj |
  1
:336/,:r<*-): {rn nkqgihhknffnofhkgf rjqkfffffffffffggil o o o n oqj o o n V V |
  1
/061+ {rn nkqlihhknffnofhkgf rjqkfffffffffffggil o |
  1
<0:;8: {rn {gmm {gki {rn {gkh -:):-,:; {jn {rn |
  1
:;8: {gkg {gkf o {glh nqkfhggkiklhiohjjg {gmm {gjo 90-(>-; h *1410(1 |
  1
/+36,+r:&:r>++-6= {rn {rn {rn {gml |
  1
):-+:' {rn {glj {gjn |
  1
:336/,:r<*-): {rn nkqgihhknffnofhkgf jqkfffffffffffggil o o o n oqj o o n V V |
  1
/061+ {rn nkqlihhknffnofhkgf jqkfffffffffffggil o |
  1
<0:;8: {rn {gjm {gmg {rn {gjl -:):-,:; {jn {rn |
  1
:;8: {gjk {gjj o {gkl nqjhohfilmihfkfoon {gmg {gji 90-(>-; h *1410(1 |
  1
/+36,+r:&:r>++-6= {rn {rn {rn {gmf |
  1
):-+:' {rn {gmf {gjh |
  1
,+->687+r<*-): {rn niqlijimiilkgjgmkj rjqffffffffffffggil o rn o o V V |
  1
/061+ {rn nkqgihhknffnofhkgf rjqffffffffffffggil o |
  1
<0:;8: {rn {glk {gjg {rn {gjf 90-(>-; {jn {rn |
  1
:;8: {gio {gkf rnqjhohfilmihfkfoon {gin o {glk {gim 90-(>-; h *1410(1 |
  1
/+36,+r:&:r>++-6= {rn {rn {rn {glj |
  1
):-+:' {rn {gkh {gil |
  1
,+->687+r<*-): {rn niqlijimiilkgjgmkj jqffffffffffffggil o rn o o V V |
  1
/061+ {rn nkqgihhknffnofhkgf jqffffffffffffggil o |
  1
<0:;8: {rn {gik {gko {rn {gij -:):-,:; {jn {rn |
  1
:;8: {gii {gih o {gjj mqkffffffffffokjol {gko {gig 90-(>-; h *1410(1 |
  1
/+36,+r:&:r>++-6= {rn {rn {rn {gkn |
  1
):-+:' {rn {gkn {gif |
  1
:336/,:r<*-): {rn niqlijimiilkgjgmkj riqkfffffffffffggil o o o n oqj o o n V V |
  1
/061+ {rn niqlijimiilkgjgmkj rjqffffffffffffggil o |
  1
<0:;8: {rn {gki {gho {rn {ghn -:):-,:; {jn {rn |
  1
:;8: {ghm {ghl jqigklknggiogogonj:ronk {gin mqkffffffffffokjol {gki {ghk 90-(>-; h *1410(1 |
  1
/+36,+r:&:r>++-6= {rn {rn {rn {gkh |
  1
):-+:' {rn {gjf {ghj |
  1
:336/,:r<*-): {rn niqlijimiilkgjgmkj iqkfffffffffffggil o o o n oqj o o n V V |
  1
/061+ {rn niqlijimiilkgjgmkj jqffffffffffffggil o |
  1
<0:;8: {rn {ghi {gjm {rn {ghh -:):-,:; {jn {rn |
  1
:;8: {ghg {ghf rnqjhohfilmihfkfoon {gih o {gjm {ggo 90-(>-; h *1410(1 |
  1
/+36,+r:&:r>++-6= {rn {rn {rn {gjl |
  1
):-+:' {rn {gjl {ggn |
  1
,+->687+r<*-): {rn niqgijimiilkgjgmkj rgqfffffffffffollii o o n o V V |
  1
/061+ {rn niqgijimiilkgjgmkj riqkfffffffffffggil o |
  1
<0:;8: {rn {gjg {ggm {rn {ggl 90-(>-; {jn {rn |
  1
:;8: {ggk {ghl rjqigklknggiogogonj:ronk {ggj nqjhohfilmihfkfoon {gjg {ggi 90-(>-; h *1410(1 |
  1
/+36,+r:&:r>++-6= {rn {rn {rn {gjf |
  1
):-+:' {rn {ghn {ggh |
  1
,+->687+r<*-): {rn niqgijimiilkgjgmkj gqfffffffffffollii o o rn o V V |
  1
/061+ {rn niqgijimiilkgjgmkj iqkfffffffffffggil o |
  1
<0:;8: {rn {ggg {gik {rn {ggf -:):-,:; {jn {rn |
  1
:;8: {gfo {gfn o {ghf mqhhokiinllmghngij {gik {gfm 90-(>-; h *1410(1 |
  1
/+36,+r:&:r>++-6= {rn {rn {rn {gij |
  1
):-+:' {rn {gij {gfl |
  1
:336/,:r<*-): {rn njqgijimiilkgjgmkj rgqfffffffffffollii o o o n n o o n V V |
  1
/061+ {rn niqgijimiilkgjgmkj rgqfffffffffffollii o |
  1
<0:;8: {rn {gho {gfk {rn {gfj -:):-,:; {jn {rn |
  1
:;8: {gfi {gfh o {ggj mqhhokiinllmghngij {gho {gfg 90-(>-; h *1410(1 |
  1
/+36,+r:&:r>++-6= {rn {rn {rn {ghn |
  1
):-+:' {rn {ggl {gff |
  1
:336/,:r<*-): {rn njqgijimiilkgjgmkj gqfffffffffffollii o o o n n o o n V V |
  1
/061+ {rn niqgijimiilkgjgmkj gqfffffffffffomhfg o |
  1
<0:;8: {rn {foo {ghi {rn {fon -:):-,:; {jn {rn |
  1
:;8: {fom {fol rmqljinfkkfonfmlnoi {gfn rnqjhohfilmihfkfoon {ghi {fok 90-(>-; h *1410(1 |
  1
/+36,+r:&:r>++-6= {rn {rn {rn {ghh |
  1
):-+:' {rn {ghh {foj |
  1
,+->687+r<*-): {rn nlqofjniojonjhnojg rfqfffffffffffollii o n o o V V |
  1
/061+ {rn njqgijimiilkgjgmkj rfqfffffffffffollii o |
  1
<0:;8: {rn {ggm {foi {rn {foh 90-(>-; {jn {rn |
  1
:;8: {fog {gfh nqjhohfilmihfkfoon {fof mqljinfkkfonfmlnoi {ggm {fno 90-(>-; h *1410(1 |
  1
/+36,+r:&:r>++-6= {rn {rn {rn {ggl |
  1
):-+:' {rn {gfj {fnn |
  1
,+->687+r<*-): {rn nlqofjniojonjhnojg fqfffffffffffollii o n o o V V |
  1
/061+ {rn njqgijimiilkgjgmkj fqfffffffffffollii o |
  1
<0:;8: {rn {fnm {ggg {rn {fnl -:):-,:; {jn {rn |
  1
:;8: {fnk {fnj o {fol kqkmmglhihmhlokgkn {ggg {fni 90-(>-; h *1410(1 |
  1
/+36,+r:&:r>++-6= {rn {rn {rn {ggf |
  1
):-+:' {rn {ggf {fnh |
  1
:336/,:r<*-): {rn nlqofjniojonjhnojg riqkffffffffffollii o o o n lqj o o n V V |
  1
/061+ {rn nlqofjniojonjhnojg rfqfffffffffffollii o |
  1
<0:;8: {rn {gfk {fnm {rn {fng -:):-,:; {jn {rn |
  1
:;8: {fnf {fmo o {fof kqkmmglhihmhlokgkn {gfk {fmn 90-(>-; h *1410(1 |
  1
/+36,+r:&:r>++-6= {rn {rn {rn {gfj |
  1
):-+:' {rn {foh {fmm |
  1
:336/,:r<*-): {rn nlqofjniojonjhnojg iqkffffffffffollii o o o n lqj o o n V V |
  1
/061+ {rn nlqofjniojonjhnojg fqfffffffffffollii o |
  1
<0:;8: {rn {foi {foo {rn {fml -:):-,:; {jn {rn |
  1
:;8: {fmk {fmj rlqnknjfmijljgfhkkh {fnj rmqljinfkkfonfmlmnh {foo {fmi 90-(>-; h *1410(1 |
  1
/+36,+r:&:r>++-6= {rn {rn {rn {fon |
  1
):-+:' {rn {fon {fmh |
  1
,+->687+r<*-): {rn hqkfmgigmjifklokoh rjqgkhkjjmmliigknf o oqhohnoihgnngijhgn roqhohnoihgnngijnhok o V V |
  1
/061+ {rn noqimomgihihkngmli rgqfhkghlhlknkllmfg o |
  1
:;8: {fmg {fmo mqljinfkkfonfmlmnh {fmf lqnknjfmijljgfhkkh {foi {flo 90-(>-; h *1410(1 |
  1
/+36,+r:&:r>++-6= {rn {rn {rn {foh |
  1
):-+:' {rn {fng {fln |
  1
,+->687+r<*-): {rn hqkfmgigmjifklokoh jqgkhkjjmmliigknf o oqhohnoihgnngijhgn oqhohnoihgnngijnhok o V V |
  1
/061+ {rn noqimomgihihkngmli gqfhkghlhlknkllmfg o |
  1
:;8: {flm {fmf o {fmj iqhkjnimfhfolnnfmh {fnm {fll 90-(>-; h *1410(1 |
  1
/+36,+r:&:r>++-6= {rn {rn {rn {fnl |
  1
):-+:' {rn {fnl {flk |
  1
:336/,:r<*-): {rn fqfihhknffnofjfmom rlqlhmjgnkgfjnjkmjg o o o n lqj o o n V V |
  1
/061+ {rn hqkfmgigmjifklokoh rjqgkhkjjmmliigknf o |
  1
/+36,+r:&:r>++-6= {rn {rn {rn {fng |
  1
):-+:' {rn {fml {flj |
  1
:336/,:r<*-): {rn fqfihhknffnofjfmom lqlhmjgnkgfjnjkmjg o o o n lqj o o n V V |
  1
/061+ {rn hqkfmgigmjifklokoh jqgkhkjjmmliigknf o |
  1
/+36,+r:&:r>++-6= {rn {rn {rn {fml |
  1
,+->687+r<*-): {rn iqkihhknffnofjfmom lqlhmjgnkgfjnjjfil o o rn o V V |
  1
/061+ {rn iqkihhknffnofjfmom rlqlhmjgnkgfjnjjfil o |
  1
/061+ {rn iqkihhknffnofjfmom lqlhmjgnkgfjnjjfil o |
  0
LINE
  5
171E
330
1A
100
AcDbEntity
  8
Center of gravity_Schwerpunkt
100
AcDbLine
 10
-23.99999999999999
 20
0.0
 30
0.0
 11
23.99999999999999
 21
0.0
 31
0.0
  0
LINE
  5
171F
330
1A
100
AcDbEntity
  8
Center of gravity_Schwerpunkt
100
AcDbLine
 10
0.0
 20
24.0
 30
0.0
 11
0.0
 21
-24.0
 31
0.0
  0
MTEXT
  5
1720
330
1A
100
AcDbEntity
  8
Center of gravity_Schwerpunkt
100
AcDbMText
 10
-2.655776887209185
 20
23.41773538977111
 30
0.0
 40
2.5
 41
5.083099999999999
 71
     1
 72
     5
  1
y
 73
     1
 44
1.0
  0
MTEXT
  5
1721
330
1A
100
AcDbEntity
  8
Center of gravity_Schwerpunkt
100
AcDbMText
 10
21.97238911668069
 20
-0.3432704277360017
 30
0.0
 40
2.5
 41
5.2979
 71
     1
 72
     5
  1
x
 73
     1
 44
1.0
  0
DIMENSION
  5
1722
330
1A
100
AcDbEntity
  8
Dimension1_Bemaßung1
100
AcDbDimension
  2
*D3
 10
19.04999999999995
 20
25.20696795866752
 30
0.0
 11
-0.0068174904656644
 21
25.20696795866752
 31
0.0
 70
   160
 71
     5
 42
38.10000000000002
  3
PALETTI
100
AcDbAlignedDimension
 13
-19.05000000000006
 23
15.55000000000001
 33
0.0
 14
19.04999999999995
 24
15.55000000000001
 34
0.0
100
AcDbRotatedDimension
  0
DIMENSION
  5
172F
330
1A
100
AcDbEntity
  8
Dimension1_Bemaßung1
100
AcDbDimension
  2
*D4
 10
28.48739710374411
 20
-19.05000000000001
 30
0.0
 11
28.48739710374411
 21
0.014575921565438
 31
0.0
 70
   160
 71
     5
 42
38.10000000000002
  3
PALETTI
100
AcDbAlignedDimension
 13
15.54999999999995
 23
19.05000000000001
 33
0.0
 14
15.54999999999995
 24
-19.05000000000001
 34
0.0
 50
90.0
100
AcDbRotatedDimension
  0
DIMENSION
  5
173C
330
1A
100
AcDbEntity
  8
Dimension1_Bemaßung1
100
AcDbDimension
  2
*D5
 10
3.349465599360559
 20
-0.584020717697766
 30
0.0
 11
-26.35322731227529
 21
4.595010837402127
 31
0.0
 70
   163
 71
     5
 42
6.8
  3
PALETTI
100
AcDbDiametricDimension
 15
-3.349465599360559
 25
0.584020717697766
 35
0.0
 40
0.0
  0
DIMENSION
  5
1748
330
1A
100
AcDbEntity
  8
Dimension2_Bemaßung2
100
AcDbDimension
  2
*D6
 10
4.099999999990074
 20
-28.47000335149891
 30
0.0
 11
-0.0068174904656644
 21
-28.47000335149891
 31
0.0
 70
   160
 71
     5
 42
8.199999999980263
  3
PALETTI
100
AcDbAlignedDimension
 13
-4.099999999990188
 23
-17.85931907991857
 33
0.0
 14
4.099999999990075
 24
-17.85931907991864
 34
0.0
100
AcDbRotatedDimension
  0
DIMENSION
  5
1757
330
1A
100
AcDbEntity
  8
Dimension2_Bemaßung2
100
AcDbDimension
  2
*D7
 10
-15.55000000000008
 20
-15.55
 30
0.0
 11
-24.22302487607643
 21
-23.58429195346576
 31
0.0
 70
    36
 71
     5
 42
3.499999999999996
  3
PALETTI
100
AcDbRadialDimension
 15
-18.11761425133998
 25
-17.92851992977066
 35
0.0
 40
0.0
  0
VIEWPORT
  5
22
330
17
100
AcDbEntity
 67
     1
  8
0
100
AcDbViewport
 10
261.5176991150442
 20
169.5554312943693
 30
0.0
 40
523.0353982300885
 41
339.1108625887386
 68
     1
 69
     1
 12
261.5176991150442
 22
169.5554312943693
 13
0.0
 23
0.0
 14
1.0
 24
1.0
 15
10.0
 25
10.0
 16
0.0
 26
0.0
 36
1.0
 17
0.0
 27
0.0
 37
0.0
 42
50.0
 43
0.0
 44
0.0
 45
339.1108625887386
 50
0.0
 51
0.0
 72
   100
 90
    32800
  1

281
     0
 71
     1
 74
     0
110
0.0
120
0.0
130
0.0
111
1.0
121
0.0
131
0.0
112
0.0
122
1.0
132
0.0
 79
     0
146
0.0
1001
GENIUS_GENSCREG_15
1000
PF
1040
1.0
1000
DF
1040
1.0
1000
MIN
1011
0.0
1021
0.0
1031
0.0
1000
MAX
1011
523.0353982300885
1021
339.1108625887386
1031
0.0
1000
FLAGS
1070
     4
1001
GENIUS_GENOREF_13
1005
1286
  0
ENDSEC
  0
SECTION
  2
OBJECTS
  0
DICTIONARY
  5
C
330
0
100
AcDbDictionary
281
     1
  3
ACAD_GROUP
350
D
  3
ACAD_LAYOUT
350
11EC
  3
ACAD_MLINESTYLE
350
E
  3
ACAD_PLOTSETTINGS
350
11ED
  3
ACAD_PLOTSTYLENAME
350
11EA
  3
ACDBVARIABLEDICTIONARY
350
FF5
  3
ACMDICTIONARY
350
10FC
  3
AMG
350
11F6
  3
AMGSNAPSETTINGS
350
128D
  3
GENIUS
350
FF8
  3
DWGPROPS
350
16FB
  0
DICTIONARY
  5
10AA
330
1A
100
AcDbDictionary
280
     1
281
     1
  3
ACAD_INDEX
360
176A
  0
DICTIONARY
  5
D
102
{ACAD_REACTORS
330
C
102
}
330
C
100
AcDbDictionary
281
     1
  0
DICTIONARY
  5
11EC
102
{ACAD_REACTORS
330
C
102
}
330
C
100
AcDbDictionary
281
     1
  3
Layout1
350
11EF
  3
Model
350
11EE
  0
DICTIONARY
  5
E
102
{ACAD_REACTORS
330
C
102
}
330
C
100
AcDbDictionary
281
     1
  3
STANDARD
350
13
  0
DICTIONARY
  5
11ED
102
{ACAD_REACTORS
330
C
102
}
330
C
100
AcDbDictionary
281
     1
  0
ACDBDICTIONARYWDFLT
  5
11EA
102
{ACAD_REACTORS
330
C
102
}
330
C
100
AcDbDictionary
281
     1
  3
Normal
350
11EB
100
AcDbDictionaryWithDefault
340
11EB
  0
DICTIONARY
  5
FF5
102
{ACAD_REACTORS
330
C
102
}
330
C
100
AcDbDictionary
281
     1
  3
INDEXCTL
350
FF6
  0
DICTIONARY
  5
10FC
102
{ACAD_REACTORS
330
C
102
}
330
C
100
AcDbDictionary
281
     1
  3
AcmBOMDATA
350
122B
  3
ACMSTDDICTIONARY
350
10FD
  0
DICTIONARY
  5
11F6
102
{ACAD_REACTORS
330
C
102
}
330
C
100
AcDbDictionary
281
     1
  3
AcMgSettings
350
11F7
  3
AMGLAYCFG
350
11F9
  0
DICTIONARY
  5
128D
102
{ACAD_REACTORS
330
C
102
}
330
C
100
AcDbDictionary
281
     1
  3
DIMENSION
350
1292
  3
FEA
350
1291
  3
HATCH (1)
350
128E
  3
HATCH (2)
350
128F
  3
SYMBOLS
350
1290
  0
DICTIONARY
  5
FF8
102
{ACAD_REACTORS
330
C
102
}
330
C
100
AcDbDictionary
281
     1
  3
COMPDEFATTR_CUSTOM
350
FF9
  0
XRECORD
  5
16FB
102
{ACAD_REACTORS
330
C
102
}
330
C
100
AcDbXrecord
280
     1
  1
DWGPROPS COOKIE
  2

  3

  4

  6

  7

  8

  9

300
AmdtFileType=84
301
=
302
=
303
=
304
=
305
=
306
=
307
=
308
=
309
=
 40
0.0000020833333333
 41
2452167.328958889
 42
2452167.328958889
  1

 90
        1
  0
DICTIONARY
  5
176A
102
{ACAD_REACTORS
330
10AA
102
}
330
10AA
100
AcDbDictionary
281
     1
  3
*A1
350
176B
  0
LAYOUT
  5
11EF
102
{ACAD_REACTORS
330
11EC
102
}
330
11EC
100
AcDbPlotSettings
  1

  2
\\N_SERVER\Q_LASER4V
  4

  6

 40
0.0
 41
0.0
 42
0.0
 43
0.0
 44
0.0
 45
0.0
 46
0.0
 47
0.0
 48
0.0
 49
0.0
140
0.0
141
0.0
142
1.0
143
1.0
 70
   688
 72
     0
 73
     0
 74
     5
  7
Paletti_4V.ctb
 75
    16
147
1.0
148
0.0
149
0.0
100
AcDbLayout
  1
Layout1
 70
     1
 71
     1
 10
0.0
 20
0.0
 11
420.0
 21
297.0
 12
0.0
 22
0.0
 32
0.0
 14
1.000000000000000E+20
 24
1.000000000000000E+20
 34
1.000000000000000E+20
 15
-1.000000000000000E+20
 25
-1.000000000000000E+20
 35
-1.000000000000000E+20
146
0.0
 13
0.0
 23
0.0
 33
0.0
 16
1.0
 26
0.0
 36
0.0
 17
0.0
 27
1.0
 37
0.0
 76
     0
330
17
331
22
  0
LAYOUT
  5
11EE
102
{ACAD_REACTORS
330
11EC
102
}
330
11EC
100
AcDbPlotSettings
  1

  2
DWF ePlot.pc3
  4
ANSI_A_(8.50_x_11.00_Inches)
  6
DR_PROFIL
 40
5.793749809265136
 41
17.79375076293945
 42
5.793746948242187
 43
17.79376220703125
 44
215.8999938964843
 45
279.3999938964843
 46
24.63799999999999
 47
0.0
 48
0.0
 49
0.0
140
0.0
141
0.0
142
1.0
143
15.84074275792704
 70
 11956
 72
     0
 73
     1
 74
     0
  7
Paletti_4V.ctb
 75
     0
147
0.0631283529618318
148
2114.730190792133
149
1427.825604210377
100
AcDbLayout
  1
Model
 70
     1
 71
     0
 10
0.0
 20
0.0
 11
12.0
 21
9.0
 12
0.0
 22
0.0
 32
0.0
 14
0.0
 24
0.0
 34
0.0
 15
0.0
 25
0.0
 35
0.0
146
0.0
 13
0.0
 23
0.0
 33
0.0
 16
1.0
 26
0.0
 36
0.0
 17
0.0
 27
1.0
 37
0.0
 76
     0
330
1A
  0
MLINESTYLE
  5
13
102
{ACAD_REACTORS
330
E
102
}
330
E
100
AcDbMlineStyle
  2
STANDARD
 70
     0
  3

 62
     0
 51
90.0
 52
90.0
 71
     2
 49
0.5
 62
   256
  6
BYLAYER
 49
-0.5
 62
   256
  6
BYLAYER
  0
ACDBPLACEHOLDER
  5
11EB
102
{ACAD_REACTORS
330
11EA
102
}
330
11EA
  0
DICTIONARYVAR
  5
FF6
102
{ACAD_REACTORS
330
FF5
102
}
330
FF5
100
DictionaryVariables
280
     0
  1
1
  0
DICTIONARY
  5
10FD
102
{ACAD_REACTORS
330
10FC
102
}
330
10FC
100
AcDbDictionary
281
     1
  3
ANSI
350
1119
  3
BSI
350
111A
  3
DIN
350
111B
  3
ISO
350
111C
  3
JIS
350
1118
  0
DICTIONARY
  5
11F7
102
{ACAD_REACTORS
330
11F6
102
}
330
11F6
100
AcDbDictionary
281
     1
  3
Dimension
350
1277
  3
DWGSETTINGS
350
11F8
  3
TRANSSETTINGS
350
1206
  0
ACAMGFILTERDAT
  5
1292
102
{ACAD_REACTORS
330
128D
102
}
330
128D
100
AcAmgFilterDat
 70
    15
  1
DIMENSION,AMDT_*_DIM
  2
*
  3
*
  4
*
  5
*
290
     1
  0
ACAMGFILTERDAT
  5
1291
102
{ACAD_REACTORS
330
128D
102
}
330
128D
100
AcAmgFilterDat
 70
    15
  1
*
  2
AM_FEA-AM_*
  3
*
  4
*
  5
*
290
     1
  0
ACAMGFILTERDAT
  5
128E
102
{ACAD_REACTORS
330
128D
102
}
330
128D
100
AcAmgFilterDat
 70
    15
  1
HATCH
  2
*
  3
*
  4
*
  5
*
290
     1
  0
ACAMGFILTERDAT
  5
128F
102
{ACAD_REACTORS
330
128D
102
}
330
128D
100
AcAmgFilterDat
 70
    15
  1
LINE
  2
8,8N,*-8,*-8N,AM_8,AM_8N,*-AM_8,*-AM_8N
  3
*
  4
*
  5
INSERT,STDPART2D
290
     1
  0
ACAMGFILTERDAT
  5
1290
102
{ACAD_REACTORS
330
128D
102
}
330
128D
100
AcAmgFilterDat
 70
    15
  1
ACMFCFRAME,ACMDATUMTARGET,ACMDATUMID,ACMWELDSYM,ACMSURFSYM,ACMFEATID,ACMPARTREF,ACMBALLOON,AMDTEDGESYM
  2
*
  3
*
  4
*
  5
*
290
     1
  0
DICTIONARY
  5
FF9
102
{ACAD_REACTORS
330
FF8
102
}
330
FF8
100
AcDbDictionary
281
     1
  3
COMPDEFATTR_XRECORD
350
11E7
  0
LAYER_INDEX
  5
176B
102
{ACAD_REACTORS
330
176A
102
}
330
176A
100
AcDbIndex
 40
2452167.332246366
100
AcDbLayerIndex
  8
0
360
176C
 90
        1
  8
Dimension2_Bemaßung2
360
176D
 90
        2
  8
2D_Profile
360
176E
 90
        1
  8
Center of gravity_Schwerpunkt
360
176F
 90
        4
  8
Defpoints
360
1770
 90
        0
  8
Dimension1_Bemaßung1
360
1771
 90
        3
  8
AM_0
360
1772
 90
        0
  0
XRECORD
  5
11E7
102
{ACAD_REACTORS
330
FF9
102
}
330
FF9
100
AcDbXrecord
280
     1
  1
2_0
 90
        0
  0
IDBUFFER
  5
176C
330
0
100
AcDbIdBuffer
330
1286
  0
IDBUFFER
  5
176D
330
0
100
AcDbIdBuffer
330
1748
330
1757
  0
IDBUFFER
  5
176E
330
0
100
AcDbIdBuffer
330
171C
  0
IDBUFFER
  5
176F
330
0
100
AcDbIdBuffer
330
171E
330
171F
330
1720
330
1721
  0
IDBUFFER
  5
1770
330
0
100
AcDbIdBuffer
  0
IDBUFFER
  5
1771
330
0
100
AcDbIdBuffer
330
1722
330
172F
330
173C
  0
IDBUFFER
  5
1772
330
0
100
AcDbIdBuffer
  0
ENDSEC
  0
EOF
