  0
SECTION
  2
HEADER
  9
$ACADVER
  1
AC1015
  9
$ACADMAINTVER
 70
    20
  9
$DWGCODEPAGE
  3
ANSI_1252
  9
$INSBASE
 10
0.0
 20
0.0
 30
0.0
  9
$EXTMIN
 10
-116.2690843980062
 20
-158.1239627563581
 30
0.0
  9
$EXTMAX
 10
96.05277026244932
 20
128.9132885343135
 30
0.0
  9
$LIMMIN
 10
0.0
 20
0.0
  9
$LIMMAX
 10
210.0
 20
297.0
  9
$ORTHOMODE
 70
     1
  9
$REGENMODE
 70
     1
  9
$FILLMODE
 70
     1
  9
$QTEXTMODE
 70
     0
  9
$MIRRTEXT
 70
     1
  9
$LTSCALE
 40
5.0
  9
$ATTMODE
 70
     1
  9
$TEXTSIZE
 40
2.5
  9
$TRACEWID
 40
1.0
  9
$TEXTSTYLE
  7
STANDARD
  9
$CLAYER
  8
Dimension1_Bemaßung1
  9
$CELTYPE
  6
BYLAYER
  9
$CECOLOR
 62
   256
  9
$CELTSCALE
 40
1.0
  9
$DISPSILH
 70
     1
  9
$DIMSCALE
 40
1.0
  9
$DIMASZ
 40
2.0
  9
$DIMEXO
 40
0.0
  9
$DIMDLI
 40
0.0
  9
$DIMRND
 40
0.0
  9
$DIMDLE
 40
0.0
  9
$DIMEXE
 40
1.5
  9
$DIMTP
 40
0.2
  9
$DIMTM
 40
0.2
  9
$DIMTXT
 40
3.5
  9
$DIMCEN
 40
-2.5
  9
$DIMTSZ
 40
0.0
  9
$DIMTOL
 70
     0
  9
$DIMLIM
 70
     0
  9
$DIMTIH
 70
     0
  9
$DIMTOH
 70
     0
  9
$DIMSE1
 70
     0
  9
$DIMSE2
 70
     0
  9
$DIMTAD
 70
     1
  9
$DIMZIN
 70
     8
  9
$DIMBLK
  1

  9
$DIMASO
 70
     1
  9
$DIMSHO
 70
     1
  9
$DIMPOST
  1

  9
$DIMAPOST
  1

  9
$DIMALT
 70
     0
  9
$DIMALTD
 70
     2
  9
$DIMALTF
 40
25.4
  9
$DIMLFAC
 40
1.0
  9
$DIMTOFL
 70
     1
  9
$DIMTVP
 40
0.0
  9
$DIMTIX
 70
     0
  9
$DIMSOXD
 70
     0
  9
$DIMSAH
 70
     0
  9
$DIMBLK1
  1

  9
$DIMBLK2
  1

  9
$DIMSTYLE
  2
PALETTI
  9
$DIMCLRD
 70
   256
  9
$DIMCLRE
 70
   256
  9
$DIMCLRT
 70
   256
  9
$DIMTFAC
 40
0.5
  9
$DIMGAP
 40
0.4
  9
$DIMJUST
 70
     0
  9
$DIMSD1
 70
     0
  9
$DIMSD2
 70
     0
  9
$DIMTOLJ
 70
     2
  9
$DIMTZIN
 70
     8
  9
$DIMALTZ
 70
     0
  9
$DIMALTTZ
 70
     0
  9
$DIMUPT
 70
     1
  9
$DIMDEC
 70
     1
  9
$DIMTDEC
 70
     1
  9
$DIMALTU
 70
     2
  9
$DIMALTTD
 70
     2
  9
$DIMTXSTY
  7
STANDARD
  9
$DIMAUNIT
 70
     0
  9
$DIMADEC
 70
     0
  9
$DIMALTRND
 40
0.0
  9
$DIMAZIN
 70
     0
  9
$DIMDSEP
 70
    46
  9
$DIMATFIT
 70
     3
  9
$DIMFRAC
 70
     0
  9
$DIMLDRBLK
  1

  9
$DIMLUNIT
 70
     2
  9
$DIMLWD
 70
    -2
  9
$DIMLWE
 70
    -2
  9
$DIMTMOVE
 70
     0
  9
$LUNITS
 70
     2
  9
$LUPREC
 70
     4
  9
$SKETCHINC
 40
1.0
  9
$FILLETRAD
 40
10.5
  9
$AUNITS
 70
     0
  9
$AUPREC
 70
     0
  9
$MENU
  1
acad
  9
$ELEVATION
 40
0.0
  9
$PELEVATION
 40
0.0
  9
$THICKNESS
 40
0.0
  9
$LIMCHECK
 70
     0
  9
$CHAMFERA
 40
0.5
  9
$CHAMFERB
 40
0.5
  9
$CHAMFERC
 40
0.0
  9
$CHAMFERD
 40
0.0
  9
$SKPOLY
 70
     0
  9
$TDCREATE
 40
2453111.493776100
  9
$TDUCREATE
 40
2453111.410442766
  9
$TDUPDATE
 40
2453298.345565833
  9
$TDUUPDATE
 40
2453298.262232500
  9
$TDINDWG
 40
0.1919109028
  9
$TDUSRTIMER
 40
0.1919109028
  9
$USRTIMER
 70
     1
  9
$ANGBASE
 50
0.0
  9
$ANGDIR
 70
     0
  9
$PDMODE
 70
     0
  9
$PDSIZE
 40
0.0
  9
$PLINEWID
 40
0.0
  9
$SPLFRAME
 70
     0
  9
$SPLINETYPE
 70
     6
  9
$SPLINESEGS
 70
     8
  9
$HANDSEED
  5
2306
  9
$SURFTAB1
 70
     6
  9
$SURFTAB2
 70
     6
  9
$SURFTYPE
 70
     6
  9
$SURFU
 70
     6
  9
$SURFV
 70
     6
  9
$UCSBASE
  2

  9
$UCSNAME
  2

  9
$UCSORG
 10
0.0
 20
0.0
 30
0.0
  9
$UCSXDIR
 10
1.0
 20
0.0
 30
0.0
  9
$UCSYDIR
 10
0.0
 20
1.0
 30
0.0
  9
$UCSORTHOREF
  2

  9
$UCSORTHOVIEW
 70
     0
  9
$UCSORGTOP
 10
0.0
 20
0.0
 30
0.0
  9
$UCSORGBOTTOM
 10
0.0
 20
0.0
 30
0.0
  9
$UCSORGLEFT
 10
0.0
 20
0.0
 30
0.0
  9
$UCSORGRIGHT
 10
0.0
 20
0.0
 30
0.0
  9
$UCSORGFRONT
 10
0.0
 20
0.0
 30
0.0
  9
$UCSORGBACK
 10
0.0
 20
0.0
 30
0.0
  9
$PUCSBASE
  2

  9
$PUCSNAME
  2

  9
$PUCSORG
 10
0.0
 20
0.0
 30
0.0
  9
$PUCSXDIR
 10
1.0
 20
0.0
 30
0.0
  9
$PUCSYDIR
 10
0.0
 20
1.0
 30
0.0
  9
$PUCSORTHOREF
  2

  9
$PUCSORTHOVIEW
 70
     0
  9
$PUCSORGTOP
 10
0.0
 20
0.0
 30
0.0
  9
$PUCSORGBOTTOM
 10
0.0
 20
0.0
 30
0.0
  9
$PUCSORGLEFT
 10
0.0
 20
0.0
 30
0.0
  9
$PUCSORGRIGHT
 10
0.0
 20
0.0
 30
0.0
  9
$PUCSORGFRONT
 10
0.0
 20
0.0
 30
0.0
  9
$PUCSORGBACK
 10
0.0
 20
0.0
 30
0.0
  9
$USERI1
 70
     0
  9
$USERI2
 70
     0
  9
$USERI3
 70
     0
  9
$USERI4
 70
     0
  9
$USERI5
 70
     0
  9
$USERR1
 40
0.0
  9
$USERR2
 40
0.0
  9
$USERR3
 40
0.0
  9
$USERR4
 40
0.0
  9
$USERR5
 40
0.0
  9
$WORLDVIEW
 70
     1
  9
$SHADEDGE
 70
     3
  9
$SHADEDIF
 70
    70
  9
$TILEMODE
 70
     1
  9
$MAXACTVP
 70
    16
  9
$PINSBASE
 10
0.0
 20
0.0
 30
0.0
  9
$PLIMCHECK
 70
     0
  9
$PEXTMIN
 10
1.000000000000000E+20
 20
1.000000000000000E+20
 30
1.000000000000000E+20
  9
$PEXTMAX
 10
-1.000000000000000E+20
 20
-1.000000000000000E+20
 30
-1.000000000000000E+20
  9
$PLIMMIN
 10
0.0
 20
0.0
  9
$PLIMMAX
 10
420.0
 20
297.0
  9
$UNITMODE
 70
     0
  9
$VISRETAIN
 70
     0
  9
$PLINEGEN
 70
     0
  9
$PSLTSCALE
 70
     1
  9
$TREEDEPTH
 70
  3020
  9
$CMLSTYLE
  2
STANDARD
  9
$CMLJUST
 70
     0
  9
$CMLSCALE
 40
1.0
  9
$PROXYGRAPHICS
 70
     1
  9
$MEASUREMENT
 70
     1
  9
$CELWEIGHT
370
    -1
  9
$ENDCAPS
280
     0
  9
$JOINSTYLE
280
     0
  9
$LWDISPLAY
290
     0
  9
$INSUNITS
 70
     0
  9
$HYPERLINKBASE
  1

  9
$STYLESHEET
  1
Paletti_HP750.ctb
  9
$XEDIT
290
     1
  9
$CEPSNTYPE
380
     0
  9
$PSTYLEMODE
290
     1
  9
$FINGERPRINTGUID
  2
{052BE433-8EBC-11D4-B0AB-0050BAC184D1}
  9
$VERSIONGUID
  2
{783D70D0-E5E0-4F42-A537-1B7FB32E9592}
  9
$EXTNAMES
290
     1
  9
$PSVPSCALE
 40
0.0
  9
$OLESTARTUP
290
     0
  0
ENDSEC
  0
SECTION
  2
CLASSES
  0
CLASS
  1
ACMESTATEMGR
  2
AcMeStateMgr
  3
AcMeServices
 90
        0
280
     0
281
     0
  0
CLASS
  1
ACMESCOPE
  2
AcMeScope
  3
AcMeServices
 90
        0
280
     0
281
     0
  0
CLASS
  1
ACMECOMMANDHISTORY
  2
AcMeCommandHistory
  3
AcMeServices
 90
        0
280
     0
281
     0
  0
CLASS
  1
ACRFINSADJUSTERMGR
  2
AcRfInsAdjusterMgr
  3
AcMeServices
 90
        0
280
     0
281
     0
  0
CLASS
  1
ACMEDRAWINGMAN
  2
AcMeDrawingMan
  3
AcMeServices
 90
        0
280
     0
281
     0
  0
CLASS
  1
AMATTR
  2
AcMeAttribute
  3
AcMeServices
 90
    32768
280
     0
281
     0
  0
CLASS
  1
ACMEBOMCOLUMN
  2
AcMeBOMColumn
  3
AcMeServices
 90
    32768
280
     0
281
     0
  0
CLASS
  1
ACMEBOMCONF
  2
AcMeBOMConf
  3
AcMeServices
 90
    32768
280
     0
281
     0
  0
CLASS
  1
ACMEBOMTABLE
  2
AcMeBOMTable
  3
AcMeServices
 90
    32768
280
     0
281
     0
  0
CLASS
  1
ACMEBOMENTRY
  2
AcMeBOMEntry
  3
AcMeServices
 90
    32768
280
     0
281
     0
  0
CLASS
  1
ACMEVIEW
  2
AcMeView
  3
AcMeServices
 90
    32768
280
     0
281
     0
  0
CLASS
  1
ACGREFMASTER
  2
AcGrefMaster
  3
AcAttribServices
 90
        0
280
     0
281
     0
  0
CLASS
  1
AMIMASTER
  2
AmiMaster
  3
AmiServices
 90
        0
280
     0
281
     0
  0
CLASS
  1
ACASGREFMASTER
  2
AcAsGrefMaster
  3
AutoSurfResolverServices
 90
        0
280
     0
281
     0
  0
CLASS
  1
ADAPPL
  2
AcAdAppl
  3
DesignerServices
 90
        0
280
     0
281
     0
  0
CLASS
  1
DEPMGR
  2
AcAdDepMgr
  3
DesignerServices
 90
        0
280
     0
281
     0
  0
CLASS
  1
PARAMMGR
  2
AcAdParamMgr
  3
DesignerServices
 90
        0
280
     0
281
     0
  0
CLASS
  1
PARAMSCOPE
  2
AcAdParamScope
  3
DesignerServices
 90
        0
280
     0
281
     0
  0
CLASS
  1
ACIMSYSVARMAN
  2
AcImSysVarManager
  3
AcMeServices
 90
        0
280
     0
281
     0
  0
CLASS
  1
ACIMINTSYSVAR
  2
AcImIntSysVar
  3
AcMeServices
 90
        0
280
     0
281
     0
  0
CLASS
  1
ACIMREALSYSVAR
  2
AcImRealSysVar
  3
AcMeServices
 90
        0
280
     0
281
     0
  0
CLASS
  1
ACIMSTRSYSVAR
  2
AcImStrSysVar
  3
AcMeServices
 90
        0
280
     0
281
     0
  0
CLASS
  1
NAMEDAPPL
  2
AcAdNamedAppl
  3
DesignerServices
 90
        0
280
     0
281
     0
  0
CLASS
  1
ADHNTMPLT
  2
AdHoleNoteTemplateMgr
  3
DesignerServices
 90
    32768
280
     0
281
     0
  0
CLASS
  1
AM_HNTEMPLATE_MGR_NAME
  2
AdHoleNoteTemplateMgrName
  3
DesignerServices
 90
    32768
280
     0
281
     0
  0
CLASS
  1
ACADGREFMODULE
  2
AcAdGrefModule
  3
AdGrefServices
 90
        0
280
     0
281
     0
  0
CLASS
  1
AM_DRAWING_MGR
  2
AcDmDwgMgr
  3
AcMechDwgViewMgmt
 90
        0
280
     0
281
     0
  0
CLASS
  1
AM_DWG_DOCUMENT
  2
AcDmDwgDocument
  3
AcMechDwgViewMgmt
 90
        0
280
     0
281
     0
  0
CLASS
  1
AM_DWG_SHEET
  2
AcDmSheet
  3
AcMechDwgViewMgmt
 90
        0
280
     0
281
     0
  0
CLASS
  1
AM_VIEWDIMPARMAP
  2
AcDmViewDimParMap
  3
AcMechDwgViewMgmt
 90
        0
280
     0
281
     0
  0
CLASS
  1
AM_DWGMGR_NAME
  2
AcDmDwgMgrName
  3
AcMechDwgViewMgmt
 90
        0
280
     0
281
     0
  0
CLASS
  1
ACAMPROJECT
  2
AcAmProject
  3
DesignerAssemblies
 90
        0
280
     0
281
     0
  0
CLASS
  1
ACAMGRCOMPSET
  2
AcAmGrCompSet
  3
DesignerAssemblies
 90
    32768
280
     0
281
     0
  0
CLASS
  1
ACAMGRCOMPDEFSET
  2
AcAmGrCompDefSet
  3
DesignerAssemblies
 90
        0
280
     0
281
     0
  0
CLASS
  1
ACAMGRCOMPDEF
  2
AcAmGrCompDef
  3
DesignerAssemblies
 90
        0
280
     0
281
     0
  0
CLASS
  1
ACCMCONTEXT
  2
AcCmContext
  3
DesignerAssemblies
 90
        0
280
     0
281
     0
  0
CLASS
  1
ACAMCOMPDEF
  2
AcAmCompDef
  3
DesignerAssemblies
 90
        0
280
     0
281
     0
  0
CLASS
  1
ACAMCOMPDEFMGR
  2
AcAmCompDefMgr
  3
DesignerAssemblies
 90
        0
280
     0
281
     0
  0
CLASS
  1
AMCONTEXTMGR
  2
AcAmContextMgr
  3
DesignerAssemblies
 90
        0
280
     0
281
     0
  0
CLASS
  1
ACAMCONTEXTMODELER
  2
AcAmContextModeler
  3
DesignerAssemblies
 90
        0
280
     0
281
     0
  0
CLASS
  1
ACDMVIEWGEOM
  2
AcDmViewGeometry
  3
AcMechDwgViewMgmt
 90
        0
280
     0
281
     1
  0
CLASS
  1
CBROWSERAPPOBJECT
  2
CBrowserAppObject
  3
McadcomServices
 90
        0
280
     0
281
     0
  0
CLASS
  1
IM_STATIC_MAN
  2
AcImStaticVarManager
  3
AcMeServices
 90
        0
280
     0
281
     0
  0
CLASS
  1
ASAPP
  2
AcAsAppObject
  3
AutoSurfServices
 90
        0
280
     0
281
     0
  0
CLASS
  1
ACIMDBLSTATICVAR
  2
AcImDblStaticVar
  3
AcMeServices
 90
        0
280
     0
281
     0
  0
CLASS
  1
ACIMSTRSTATICVAR
  2
AcImStrStaticVar
  3
AcMeServices
 90
        0
280
     0
281
     0
  0
CLASS
  1
ACIMINTSTATICVAR
  2
AcImIntStaticVar
  3
AcMeServices
 90
        0
280
     0
281
     0
  0
CLASS
  1
CATALOGSTATE
  2
AcAmCatalogState
  3
DesignerAssemblies
 90
        0
280
     0
281
     0
  0
CLASS
  1
DM_PLACEHOLDER
  2
AcDmSelsetPlaceholder
  3
AcMechDwgViewMgmt
 90
        0
280
     0
281
     0
  0
CLASS
  1
DICTIONARYVAR
  2
AcDbDictionaryVar
  3
ObjectDBX Classes
 90
        0
280
     0
281
     0
  0
CLASS
  1
"COMPDEFATTRARRAY"
  2
CompDefAttr
  3
"GE314"
 90
    32769
280
     0
281
     0
  0
CLASS
  1
AGDICTIONARY
  2
AgDictionary
  3
"AccelView"
 90
    32769
280
     0
281
     0
  0
CLASS
  1
LAYER_INDEX
  2
AcDbLayerIndex
  3
ObjectDBX Classes
 90
        0
280
     0
281
     0
  0
CLASS
  1
IDBUFFER
  2
AcDbIdBuffer
  3
ObjectDBX Classes
 90
        0
280
     0
281
     0
  0
CLASS
  1
ACMSTANDARDJIS
  2
AcmStandardJIS
  3
"Amdt_StdImp|Product Description: AutoCAD Mechanical 2004 DX|Company: Autodesk"
 90
        0
280
     0
281
     0
  0
CLASS
  1
ACMSTANDARDANSI
  2
AcmStandardANSI
  3
"Amdt_StdImp|Product Description: AutoCAD Mechanical 2004 DX|Company: Autodesk"
 90
        0
280
     0
281
     0
  0
CLASS
  1
ACMSTANDARDBSI
  2
AcmStandardBSI
  3
"Amdt_StdImp|Product Description: AutoCAD Mechanical 2004 DX|Company: Autodesk"
 90
        0
280
     0
281
     0
  0
CLASS
  1
ACMSTANDARDDIN
  2
AcmStandardDIN
  3
"Amdt_StdImp|Product Description: AutoCAD Mechanical 2004 DX|Company: Autodesk"
 90
        0
280
     0
281
     0
  0
CLASS
  1
ACMSTANDARDISO
  2
AcmStandardISO
  3
"Amdt_StdImp|Product Description: AutoCAD Mechanical 2004 DX|Company: Autodesk"
 90
        0
280
     0
281
     0
  0
CLASS
  1
ACRFATTGENMGR
  2
AcRfAttGeneralMgr
  3
AcAttribServices
 90
    32768
280
     0
281
     0
  0
CLASS
  1
ACDBDICTIONARYWDFLT
  2
AcDbDictionaryWithDefault
  3
ObjectDBX Classes
 90
        0
280
     0
281
     0
  0
CLASS
  1
ACDBPLACEHOLDER
  2
AcDbPlaceHolder
  3
ObjectDBX Classes
 90
        0
280
     0
281
     0
  0
CLASS
  1
LAYOUT
  2
AcDbLayout
  3
ObjectDBX Classes
 90
        0
280
     0
281
     0
  0
CLASS
  1
ACME_DOCUMENT
  2
AcMeDbDoc
  3
AcMeServices
 90
        0
280
     0
281
     0
  0
CLASS
  1
AMGSETTINGSOBJ
  2
AmgSettingsObj
  3
"AcadM|Product Description: AutoCAD Mechanical 2000|Company: Autodesk"
 90
        0
280
     0
281
     0
  0
CLASS
  1
AMGOBJPROPCFG
  2
AmgObjPropCfg
  3
"AmgLay|Product Description: AutoCAD Mechanical 2000|Company: Autodesk"
 90
        1
280
     0
281
     0
  0
CLASS
  1
ACDBENTITYCACHE
  2
AcMeEntityCache
  3
AcMeServices
 90
        0
280
     0
281
     0
  0
CLASS
  1
GSMANAGER
  2
AcMeGSManager
  3
AcMeServices
 90
        0
280
     0
281
     0
  0
CLASS
  1
AMDTINTERNALREACTOR
  2
AmdtInternalReactor
  3
AcMeServices
 90
        0
280
     0
281
     0
  0
CLASS
  1
ACME_DATABASE
  2
AcMeDbDatabase
  3
AcMeServices
 90
        0
280
     0
281
     0
  0
CLASS
  1
ACGREFACADMASTER
  2
AcGrefacadMaster
  3
AcGrefServices
 90
        0
280
     0
281
     0
  0
CLASS
  1
AMDTMENUSTATEMGR
  2
AmdtMenuStateMgr
  3
McadcomServices
 90
        0
280
     0
281
     0
  0
CLASS
  1
AMDTMCOMMENUSTATE
  2
AmdtMcomMenuState
  3
McadcomServices
 90
        0
280
     0
281
     0
  0
CLASS
  1
MAPIAMMOUDLE
  2
MApiAmModule
  3
MApiAmServices
 90
        0
280
     0
281
     0
  0
CLASS
  1
AMDTDMMENUSTATE
  2
AmdtDmMenuState
  3
AcMechDwgViewMgmt
 90
        0
280
     0
281
     0
  0
CLASS
  1
AMDTADMENUSTATE
  2
AmdtAdMenuState
  3
DesignerServices
 90
        0
280
     0
281
     0
  0
CLASS
  1
AMDTAMMENUSTATE
  2
AmdtAmMenuState
  3
DesignerAssemblies
 90
        0
280
     0
281
     0
  0
CLASS
  1
MAPIADMODULE
  2
MApiAdModule
  3
MApiAdServices
 90
        0
280
     0
281
     0
  0
CLASS
  1
ACMDATADICTIONARY
  2
AcmDataDictionary
  3
"AcmSymBB|Product Description: AutoCAD Mechanical 2004 DX|Company: Autodesk"
 90
        0
280
     0
281
     0
  0
CLASS
  1
ACMDATAENTRYBLOCK
  2
AcmDataEntryBlock
  3
"AcmSymBB|Product Description: AutoCAD Mechanical 2004 DX|Company: Autodesk"
 90
        0
280
     0
281
     0
  0
CLASS
  1
ACMSURFSTANDARDJIS
  2
AcmSurfTextStdJIS
  3
"Amdt_StdImp|Product Description: AutoCAD Mechanical 2004 DX|Company: Autodesk"
 90
        0
280
     0
281
     0
  0
CLASS
  1
ACMFCFSTANDARDJIS
  2
AcmFCFStdJIS
  3
"Amdt_StdImp|Product Description: AutoCAD Mechanical 2004 DX|Company: Autodesk"
 90
        0
280
     0
281
     0
  0
CLASS
  1
ACMWELDSTANDARDJIS
  2
AcmWeldingStdJIS
  3
"Amdt_StdImp|Product Description: AutoCAD Mechanical 2004 DX|Company: Autodesk"
 90
        0
280
     0
281
     0
  0
CLASS
  1
ACMIDSTANDARDJIS
  2
AcmIdStdJIS
  3
"Amdt_StdImp|Product Description: AutoCAD Mechanical 2004 DX|Company: Autodesk"
 90
        0
280
     0
281
     0
  0
CLASS
  1
ACMDATUMSTANDARDJIS
  2
AcmDatumStdJIS
  3
"Amdt_StdImp|Product Description: AutoCAD Mechanical 2004 DX|Company: Autodesk"
 90
        0
280
     0
281
     0
  0
CLASS
  1
ACMBOMSTANDARDJIS
  2
AcmBOMStdJIS
  3
"Amdt_StdImp|Product Description: AutoCAD Mechanical 2004 DX|Company: Autodesk"
 90
        0
280
     0
281
     0
  0
CLASS
  1
ACMSURFSTANDARDANSI
  2
AcmSurfTextStdANSI
  3
"Amdt_StdImp|Product Description: AutoCAD Mechanical 2004 DX|Company: Autodesk"
 90
        0
280
     0
281
     0
  0
CLASS
  1
ACMFCFSTANDARDANSI
  2
AcmFCFStdANSI
  3
"Amdt_StdImp|Product Description: AutoCAD Mechanical 2004 DX|Company: Autodesk"
 90
        0
280
     0
281
     0
  0
CLASS
  1
ACMWELDSTANDARDANSI
  2
AcmWeldingStdANSI
  3
"Amdt_StdImp|Product Description: AutoCAD Mechanical 2004 DX|Company: Autodesk"
 90
        0
280
     0
281
     0
  0
CLASS
  1
ACMIDSTANDARDANSI
  2
AcmIdStdANSI
  3
"Amdt_StdImp|Product Description: AutoCAD Mechanical 2004 DX|Company: Autodesk"
 90
        0
280
     0
281
     0
  0
CLASS
  1
ACMDATUMSTANDARDANSI
  2
AcmDatumStdANSI
  3
"Amdt_StdImp|Product Description: AutoCAD Mechanical 2004 DX|Company: Autodesk"
 90
        0
280
     0
281
     0
  0
CLASS
  1
ACMBOMSTANDARDANSI
  2
AcmBOMStdANSI
  3
"Amdt_StdImp|Product Description: AutoCAD Mechanical 2004 DX|Company: Autodesk"
 90
        0
280
     0
281
     0
  0
CLASS
  1
ACMSURFSTANDARDBSI
  2
AcmSurfTextStdBSI
  3
"Amdt_StdImp|Product Description: AutoCAD Mechanical 2004 DX|Company: Autodesk"
 90
        0
280
     0
281
     0
  0
CLASS
  1
ACMFCFSTANDARDBSI
  2
AcmFCFStdBSI
  3
"Amdt_StdImp|Product Description: AutoCAD Mechanical 2004 DX|Company: Autodesk"
 90
        0
280
     0
281
     0
  0
CLASS
  1
ACMWELDSTANDARDBSI
  2
AcmWeldingStdBSI
  3
"Amdt_StdImp|Product Description: AutoCAD Mechanical 2004 DX|Company: Autodesk"
 90
        0
280
     0
281
     0
  0
CLASS
  1
ACMIDSTANDARDBSI
  2
AcmIdStdBSI
  3
"Amdt_StdImp|Product Description: AutoCAD Mechanical 2004 DX|Company: Autodesk"
 90
        0
280
     0
281
     0
  0
CLASS
  1
ACMDATUMSTANDARDBSI
  2
AcmDatumStdBSI
  3
"Amdt_StdImp|Product Description: AutoCAD Mechanical 2004 DX|Company: Autodesk"
 90
        0
280
     0
281
     0
  0
CLASS
  1
ACMBOMSTANDARDBSI
  2
AcmBOMStdBSI
  3
"Amdt_StdImp|Product Description: AutoCAD Mechanical 2004 DX|Company: Autodesk"
 90
        0
280
     0
281
     0
  0
CLASS
  1
AMDTEDGESTANDARDDIN
  2
AmdtEdgeStdDIN
  3
"Amdt_StdImp|Product Description: AutoCAD Mechanical 2004 DX|Company: Autodesk"
 90
        0
280
     0
281
     0
  0
CLASS
  1
ACMSURFSTANDARDDIN
  2
AcmSurfTextStdDIN
  3
"Amdt_StdImp|Product Description: AutoCAD Mechanical 2004 DX|Company: Autodesk"
 90
        0
280
     0
281
     0
  0
CLASS
  1
ACMFCFSTANDARDDIN
  2
AcmFCFStdDIN
  3
"Amdt_StdImp|Product Description: AutoCAD Mechanical 2004 DX|Company: Autodesk"
 90
        0
280
     0
281
     0
  0
CLASS
  1
ACMWELDSTANDARDDIN
  2
AcmWeldingStdDIN
  3
"Amdt_StdImp|Product Description: AutoCAD Mechanical 2004 DX|Company: Autodesk"
 90
        0
280
     0
281
     0
  0
CLASS
  1
ACMIDSTANDARDDIN
  2
AcmIdStdDIN
  3
"Amdt_StdImp|Product Description: AutoCAD Mechanical 2004 DX|Company: Autodesk"
 90
        0
280
     0
281
     0
  0
CLASS
  1
ACMDATUMSTANDARDDIN
  2
AcmDatumStdDIN
  3
"Amdt_StdImp|Product Description: AutoCAD Mechanical 2004 DX|Company: Autodesk"
 90
        0
280
     0
281
     0
  0
CLASS
  1
ACMBOMSTANDARDDIN
  2
AcmBOMStdDIN
  3
"Amdt_StdImp|Product Description: AutoCAD Mechanical 2004 DX|Company: Autodesk"
 90
        0
280
     0
281
     0
  0
CLASS
  1
AMDTEDGESTANDARDISO
  2
AmdtEdgeStdISO
  3
"Amdt_StdImp|Product Description: AutoCAD Mechanical 2004 DX|Company: Autodesk"
 90
        0
280
     0
281
     0
  0
CLASS
  1
ACMSURFSTANDARDISO
  2
AcmSurfTextStdISO
  3
"Amdt_StdImp|Product Description: AutoCAD Mechanical 2004 DX|Company: Autodesk"
 90
        0
280
     0
281
     0
  0
CLASS
  1
ACMFCFSTANDARDISO
  2
AcmFCFStdISO
  3
"Amdt_StdImp|Product Description: AutoCAD Mechanical 2004 DX|Company: Autodesk"
 90
        0
280
     0
281
     0
  0
CLASS
  1
ACMWELDSTANDARDISO
  2
AcmWeldingStdISO
  3
"Amdt_StdImp|Product Description: AutoCAD Mechanical 2004 DX|Company: Autodesk"
 90
        0
280
     0
281
     0
  0
CLASS
  1
ACMIDSTANDARDISO
  2
AcmIdStdISO
  3
"Amdt_StdImp|Product Description: AutoCAD Mechanical 2004 DX|Company: Autodesk"
 90
        0
280
     0
281
     0
  0
CLASS
  1
ACMDATUMSTANDARDISO
  2
AcmDatumStdISO
  3
"Amdt_StdImp|Product Description: AutoCAD Mechanical 2004 DX|Company: Autodesk"
 90
        0
280
     0
281
     0
  0
CLASS
  1
ACMBOMSTANDARDISO
  2
AcmBOMStdISO
  3
"Amdt_StdImp|Product Description: AutoCAD Mechanical 2004 DX|Company: Autodesk"
 90
        0
280
     0
281
     0
  0
CLASS
  1
AMDTBROWSERDBTAB
  2
AmdtBrowserDbTab
  3
McadcomServices
 90
        0
280
     0
281
     0
  0
CLASS
  1
ACAMGFILTERDAT
  2
AcAmgFilterDat
  3
"AcadM|Product Description: AutoCAD Mechanical 2000|Company: Autodesk"
 90
        0
280
     0
281
     0
  0
CLASS
  1
ACCMBODY
  2
AcCmBody
  3
DesignerAssemblies
 90
    32768
280
     0
281
     0
  0
CLASS
  1
ACAMCOMPENT
  2
AcAmCompEnt
  3
DesignerAssemblies
 90
    32768
280
     0
281
     1
  0
CLASS
  1
ACAMCOMPFEEDBACK
  2
AcAmCompFeedback
  3
DesignerAssemblies
 90
    32768
280
     0
281
     0
  0
CLASS
  1
ACAMCOMP
  2
AcAmComp
  3
DesignerAssemblies
 90
    32768
280
     0
281
     0
  0
CLASS
  1
ACAMCOMPENTCLONE
  2
AcAmCompEntClone
  3
DesignerAssemblies
 90
    32768
280
     0
281
     1
  0
CLASS
  1
ACAMCLONEREACTOR
  2
AcAmGrCompCloneReactor
  3
DesignerAssemblies
 90
    32768
280
     0
281
     0
  0
CLASS
  1
AMDTMAPISURFMOUDULE
  2
AmdtMApiSurfModule
  3
MApiSurfServices
 90
        0
280
     0
281
     0
  0
CLASS
  1
ACAMGTITLESTD
  2
AcAmgTitleStd
  3
"TITLEAPP"
 90
        0
280
     0
281
     0
  0
CLASS
  1
ACMDETAILSTANDARDJIS
  2
AmdtDetailSymStdJIS
  3
"Amdt_StdImp|Product Description: AutoCAD Mechanical 2004 DX|Company: Autodesk"
 90
        0
280
     0
281
     0
  0
CLASS
  1
ACMSECTIONSTANDARDJIS
  2
AmdtSectionSymStdJIS
  3
"Amdt_StdImp|Product Description: AutoCAD Mechanical 2004 DX|Company: Autodesk"
 90
        0
280
     0
281
     0
  0
CLASS
  1
ACMCENTERLINESTANDARDJIS
  2
AmdtCenterLineStdJIS
  3
"Amdt_StdImp|Product Description: AutoCAD Mechanical 2004 DX|Company: Autodesk"
 90
        0
280
     0
281
     0
  0
CLASS
  1
ACMTHREADLINESTANDARDJIS
  2
AmdtThreadLineStdJIS
  3
"Amdt_StdImp|Product Description: AutoCAD Mechanical 2004 DX|Company: Autodesk"
 90
        0
280
     0
281
     0
  0
CLASS
  1
ACMNOTESTANDARDJIS
  2
AmdtNoteStdJIS
  3
"Amdt_StdImp|Product Description: AutoCAD Mechanical 2004 DX|Company: Autodesk"
 90
        0
280
     0
281
     0
  0
CLASS
  1
AMDTNOTETEMPLATEDB
  2
AmdtNoteTemplateDB
  3
AMDT_STDIMP_MODULE_NAME
 90
        0
280
     0
281
     0
  0
CLASS
  1
ACMDETAILSTANDARDANSI
  2
AmdtDetailSymStdANSI
  3
"Amdt_StdImp|Product Description: AutoCAD Mechanical 2004 DX|Company: Autodesk"
 90
        0
280
     0
281
     0
  0
CLASS
  1
ACMSECTIONSTANDARDANSI
  2
AmdtSectionSymStdANSI
  3
"Amdt_StdImp|Product Description: AutoCAD Mechanical 2004 DX|Company: Autodesk"
 90
        0
280
     0
281
     0
  0
CLASS
  1
ACMCENTERLINESTANDARDANSI
  2
AmdtCenterLineStdANSI
  3
"Amdt_StdImp|Product Description: AutoCAD Mechanical 2004 DX|Company: Autodesk"
 90
        0
280
     0
281
     0
  0
CLASS
  1
ACMTHREADLINESTANDARDANSI
  2
AmdtThreadLineStdANSI
  3
"Amdt_StdImp|Product Description: AutoCAD Mechanical 2004 DX|Company: Autodesk"
 90
        0
280
     0
281
     0
  0
CLASS
  1
ACMNOTESTANDARDANSI
  2
AmdtNoteStdANSI
  3
"Amdt_StdImp|Product Description: AutoCAD Mechanical 2004 DX|Company: Autodesk"
 90
        0
280
     0
281
     0
  0
CLASS
  1
ACMDETAILSTANDARDBSI
  2
AmdtDetailSymStdBSI
  3
"Amdt_StdImp|Product Description: AutoCAD Mechanical 2004 DX|Company: Autodesk"
 90
        0
280
     0
281
     0
  0
CLASS
  1
ACMSECTIONSTANDARDBSI
  2
AmdtSectionSymStdBSI
  3
"Amdt_StdImp|Product Description: AutoCAD Mechanical 2004 DX|Company: Autodesk"
 90
        0
280
     0
281
     0
  0
CLASS
  1
ACMCENTERLINESTANDARDBSI
  2
AmdtCenterLineStdBSI
  3
"Amdt_StdImp|Product Description: AutoCAD Mechanical 2004 DX|Company: Autodesk"
 90
        0
280
     0
281
     0
  0
CLASS
  1
ACMTHREADLINESTANDARDBSI
  2
AmdtThreadLineStdBSI
  3
"Amdt_StdImp|Product Description: AutoCAD Mechanical 2004 DX|Company: Autodesk"
 90
        0
280
     0
281
     0
  0
CLASS
  1
ACMNOTESTANDARDBSI
  2
AmdtNoteStdBSI
  3
"Amdt_StdImp|Product Description: AutoCAD Mechanical 2004 DX|Company: Autodesk"
 90
        0
280
     0
281
     0
  0
CLASS
  1
ACMDETAILSTANDARDDIN
  2
AmdtDetailSymStdDIN
  3
"Amdt_StdImp|Product Description: AutoCAD Mechanical 2004 DX|Company: Autodesk"
 90
        0
280
     0
281
     0
  0
CLASS
  1
ACMSECTIONSTANDARDDIN
  2
AmdtSectionSymStdDIN
  3
"Amdt_StdImp|Product Description: AutoCAD Mechanical 2004 DX|Company: Autodesk"
 90
        0
280
     0
281
     0
  0
CLASS
  1
ACMCENTERLINESTANDARDDIN
  2
AmdtCenterLineStdDIN
  3
"Amdt_StdImp|Product Description: AutoCAD Mechanical 2004 DX|Company: Autodesk"
 90
        0
280
     0
281
     0
  0
CLASS
  1
ACMTHREADLINESTANDARDDIN
  2
AmdtThreadLineStdDIN
  3
"Amdt_StdImp|Product Description: AutoCAD Mechanical 2004 DX|Company: Autodesk"
 90
        0
280
     0
281
     0
  0
CLASS
  1
ACMNOTESTANDARDDIN
  2
AmdtNoteStdDIN
  3
"Amdt_StdImp|Product Description: AutoCAD Mechanical 2004 DX|Company: Autodesk"
 90
        0
280
     0
281
     0
  0
CLASS
  1
ACMDETAILSTANDARDISO
  2
AmdtDetailSymStdISO
  3
"Amdt_StdImp|Product Description: AutoCAD Mechanical 2004 DX|Company: Autodesk"
 90
        0
280
     0
281
     0
  0
CLASS
  1
ACMSECTIONSTANDARDISO
  2
AmdtSectionSymStdISO
  3
"Amdt_StdImp|Product Description: AutoCAD Mechanical 2004 DX|Company: Autodesk"
 90
        0
280
     0
281
     0
  0
CLASS
  1
ACMCENTERLINESTANDARDISO
  2
AmdtCenterLineStdISO
  3
"Amdt_StdImp|Product Description: AutoCAD Mechanical 2004 DX|Company: Autodesk"
 90
        0
280
     0
281
     0
  0
CLASS
  1
ACMTHREADLINESTANDARDISO
  2
AmdtThreadLineStdISO
  3
"Amdt_StdImp|Product Description: AutoCAD Mechanical 2004 DX|Company: Autodesk"
 90
        0
280
     0
281
     0
  0
CLASS
  1
ACMNOTESTANDARDISO
  2
AmdtNoteStdISO
  3
"Amdt_StdImp|Product Description: AutoCAD Mechanical 2004 DX|Company: Autodesk"
 90
        0
280
     0
281
     0
  0
CLASS
  1
ACAMGLAYSTD
  2
AcAmgLayStd
  3
"AcAmgLayStd|Product Description: AutoCAD Mechanical 2000|Company: Autodesk"
 90
        0
280
     0
281
     0
  0
CLASS
  1
ACAMGDIMSTD
  2
AcAmgDimStd
  3
"AcAmgDimStd|Product Description: AutoCAD Mechanical 2000|Company: Autodesk"
 90
        0
280
     0
281
     0
  0
CLASS
  1
ACAMGHOLECHARTSTDANSI
  2
AcAmgHoleChartStdANSI
  3
ACMSYMBB_MODULE_NAME
 90
        0
280
     0
281
     0
  0
CLASS
  1
ACAMGHOLECHARTSTDBSI
  2
AcAmgHoleChartStdBSI
  3
ACMSYMBB_MODULE_NAME
 90
        0
280
     0
281
     0
  0
CLASS
  1
ACAMGHOLECHARTSTDDIN
  2
AcAmgHoleChartStdDIN
  3
ACMSYMBB_MODULE_NAME
 90
        0
280
     0
281
     0
  0
CLASS
  1
ACAMGHOLECHARTSTDISO
  2
AcAmgHoleChartStdISO
  3
ACMSYMBB_MODULE_NAME
 90
        0
280
     0
281
     0
  0
CLASS
  1
ACAMGHOLECHARTSTDJIS
  2
AcAmgHoleChartStdJIS
  3
ACMSYMBB_MODULE_NAME
 90
        0
280
     0
281
     0
  0
CLASS
  1
AMDTFORMULAUPDATEDISPATCHER
  2
AmdtFormulaUpdateDispatcher
  3
AcMeServices
 90
        0
280
     0
281
     0
  0
ENDSEC
  0
SECTION
  2
TABLES
  0
TABLE
  2
VPORT
  5
8
330
0
100
AcDbSymbolTable
 70
     4
  0
VPORT
  5
22FA
330
8
100
AcDbSymbolTableRecord
100
AcDbViewportTableRecord
  2
*Active
 70
     0
 10
0.0
 20
0.0
 11
1.0
 21
1.0
 12
-6.622671235573875
 22
23.04286802809043
 13
0.0
 23
0.0
 14
5.0
 24
5.0
 15
5.0
 25
5.0
 16
0.0
 26
0.0
 36
1.0
 17
0.0
 27
0.0
 37
0.0
 40
256.6239048047318
 41
1.210013908205841
 42
50.0
 43
0.0
 44
0.0
 50
0.0
 51
0.0
 71
     0
 72
 20000
 73
     1
 74
     1
 75
     0
 76
     0
 77
     0
 78
     0
281
     0
 65
     1
110
0.0
120
0.0
130
0.0
111
1.0
121
0.0
131
0.0
112
0.0
122
1.0
132
0.0
 79
     0
146
0.0
  0
ENDTAB
  0
TABLE
  2
LTYPE
  5
5
330
0
100
AcDbSymbolTable
 70
    26
  0
LTYPE
  5
14
330
5
100
AcDbSymbolTableRecord
100
AcDbLinetypeTableRecord
  2
BYBLOCK
 70
     0
  3

 72
    65
 73
     0
 40
0.0
  0
LTYPE
  5
15
330
5
100
AcDbSymbolTableRecord
100
AcDbLinetypeTableRecord
  2
BYLAYER
 70
     0
  3

 72
    65
 73
     0
 40
0.0
  0
LTYPE
  5
16
330
5
100
AcDbSymbolTableRecord
100
AcDbLinetypeTableRecord
  2
CONTINUOUS
 70
     0
  3
Solid line
 72
    65
 73
     0
 40
0.0
  0
LTYPE
  5
F8C
330
5
100
AcDbSymbolTableRecord
100
AcDbLinetypeTableRecord
  2
PHANTOM2
 70
     0
  3
___ _ _ ___ _ _ ___ _ _ ___ _ _ ___ _ _ ___ _ _
 72
    65
 73
     6
 40
1.25
 49
0.625
 74
     0
 49
-0.125
 74
     0
 49
0.125
 74
     0
 49
-0.125
 74
     0
 49
0.125
 74
     0
 49
-0.125
 74
     0
  0
LTYPE
  5
FF7
330
5
100
AcDbSymbolTableRecord
100
AcDbLinetypeTableRecord
  2
GEN3
 70
     0
  3
-- -- -- -- -- -- -- -- -- -- -- -- -- -- --
 72
    65
 73
     2
 40
6.25
 49
4.75
 74
     0
 49
-1.5
 74
     0
  0
LTYPE
  5
FFC
330
5
100
AcDbSymbolTableRecord
100
AcDbLinetypeTableRecord
  2
GEN7
 70
     0
  3
____ . ____ . ____ . ____ . ____ . ____ . ____
 72
    65
 73
     4
 40
13.75
 49
9.75
 74
     0
 49
-1.5
 74
     0
 49
1.0
 74
     0
 49
-1.5
 74
     0
  0
LTYPE
  5
1103
330
5
100
AcDbSymbolTableRecord
100
AcDbLinetypeTableRecord
  2
ACJISTGB
 70
     0
  3
__ . . __ . .
 72
    65
 73
     6
 40
9.0
 49
4.0
 74
     0
 49
-1.0
 74
     0
 49
1.0
 74
     0
 49
-1.0
 74
     0
 49
1.0
 74
     0
 49
-1.0
 74
     0
  0
LTYPE
  5
1104
330
5
100
AcDbSymbolTableRecord
100
AcDbLinetypeTableRecord
  2
ACJISTGL
 70
     0
  3
_ _ _ _ _
 72
    65
 73
     2
 40
3.0
 49
2.0
 74
     0
 49
-1.0
 74
     0
  0
LTYPE
  5
1107
330
5
100
AcDbSymbolTableRecord
100
AcDbLinetypeTableRecord
  2
ACANSTGB
 70
     0
  3
__ . . __ . .
 72
    65
 73
     6
 40
0.35433070866
 49
0.15748031496
 74
     0
 49
-0.03937007874
 74
     0
 49
0.03937007874
 74
     0
 49
-0.03937007874
 74
     0
 49
0.03937007874
 74
     0
 49
-0.03937007874
 74
     0
  0
LTYPE
  5
1108
330
5
100
AcDbSymbolTableRecord
100
AcDbLinetypeTableRecord
  2
ACANSTGL
 70
     0
  3
_ _ _ _ _
 72
    65
 73
     2
 40
0.11811023622
 49
0.07874015748
 74
     0
 49
-0.03937007874
 74
     0
  0
LTYPE
  5
110B
330
5
100
AcDbSymbolTableRecord
100
AcDbLinetypeTableRecord
  2
ACBSIWELD
 70
     0
  3
_ _ _ _ _
 72
    65
 73
     2
 40
2.0
 49
2.0
 74
     0
 49
-1.0
 74
     0
  0
LTYPE
  5
110C
330
5
100
AcDbSymbolTableRecord
100
AcDbLinetypeTableRecord
  2
ACBSITGB
 70
     0
  3
__ . . __ . .
 72
    65
 73
     6
 40
9.0
 49
4.0
 74
     0
 49
-1.0
 74
     0
 49
1.0
 74
     0
 49
-1.0
 74
     0
 49
1.0
 74
     0
 49
-1.0
 74
     0
  0
LTYPE
  5
110D
330
5
100
AcDbSymbolTableRecord
100
AcDbLinetypeTableRecord
  2
ACBSITGL
 70
     0
  3
_ _ _ _ _
 72
    65
 73
     2
 40
3.0
 49
2.0
 74
     0
 49
-1.0
 74
     0
  0
LTYPE
  5
1110
330
5
100
AcDbSymbolTableRecord
100
AcDbLinetypeTableRecord
  2
ACDINWELD
 70
     0
  3
_ _ _ _ _
 72
    65
 73
     2
 40
2.0
 49
2.0
 74
     0
 49
-1.0
 74
     0
  0
LTYPE
  5
1111
330
5
100
AcDbSymbolTableRecord
100
AcDbLinetypeTableRecord
  2
ACDINTGB
 70
     0
  3
__ . . __ . .
 72
    65
 73
     6
 40
9.0
 49
4.0
 74
     0
 49
-1.0
 74
     0
 49
1.0
 74
     0
 49
-1.0
 74
     0
 49
1.0
 74
     0
 49
-1.0
 74
     0
  0
LTYPE
  5
1112
330
5
100
AcDbSymbolTableRecord
100
AcDbLinetypeTableRecord
  2
ACDINTGL
 70
     0
  3
_ _ _ _ _
 72
    65
 73
     2
 40
3.0
 49
2.0
 74
     0
 49
-1.0
 74
     0
  0
LTYPE
  5
1115
330
5
100
AcDbSymbolTableRecord
100
AcDbLinetypeTableRecord
  2
ACISOWELD
 70
     0
  3
_ _ _ _ _
 72
    65
 73
     2
 40
2.0
 49
2.0
 74
     0
 49
-1.0
 74
     0
  0
LTYPE
  5
1116
330
5
100
AcDbSymbolTableRecord
100
AcDbLinetypeTableRecord
  2
ACISOTGB
 70
     0
  3
__ . . __ . .
 72
    65
 73
     6
 40
9.0
 49
4.0
 74
     0
 49
-1.0
 74
     0
 49
1.0
 74
     0
 49
-1.0
 74
     0
 49
1.0
 74
     0
 49
-1.0
 74
     0
  0
LTYPE
  5
1117
330
5
100
AcDbSymbolTableRecord
100
AcDbLinetypeTableRecord
  2
ACISOTGL
 70
     0
  3
_ _ _ _ _
 72
    65
 73
     2
 40
3.0
 49
2.0
 74
     0
 49
-1.0
 74
     0
  0
LTYPE
  5
1271
330
5
100
AcDbSymbolTableRecord
100
AcDbLinetypeTableRecord
  2
HIDDEN
 70
     0
  3
Verdeckt
 72
    65
 73
     2
 40
9.525
 49
6.349999999999999
 74
     0
 49
-3.174999999999999
 74
     0
  0
LTYPE
  5
1272
330
5
100
AcDbSymbolTableRecord
100
AcDbLinetypeTableRecord
  2
CENTER
 70
     0
  3
Mitte ____ _ ____ _ ____ _ ____ _ ____ _ ____
 72
    65
 73
     4
 40
50.8
 49
31.75
 74
     0
 49
-6.349999999999999
 74
     0
 49
6.349999999999999
 74
     0
 49
-6.349999999999999
 74
     0
  0
LTYPE
  5
127F
330
5
100
AcDbSymbolTableRecord
100
AcDbLinetypeTableRecord
  2
gen3a
 70
     0
  3
 - - - - -
 72
    65
 73
     2
 40
3.125
 49
2.25
 74
     0
 49
-0.875
 74
     0
  0
LTYPE
  5
1280
330
5
100
AcDbSymbolTableRecord
100
AcDbLinetypeTableRecord
  2
gen7a
 70
     0
  3
__ . __ . __
 72
    65
 73
     4
 40
6.875
 49
4.75
 74
     0
 49
-0.875
 74
     0
 49
0.375
 74
     0
 49
-0.875
 74
     0
  0
LTYPE
  5
1281
330
5
100
AcDbSymbolTableRecord
100
AcDbLinetypeTableRecord
  2
gen4a
 70
     0
  3
_____ . . _____ . . _____ . . ____ .. ____
 72
    65
 73
     6
 40
16.25
 49
9.75
 74
     0
 49
-1.5
 74
     0
 49
1.0
 74
     0
 49
-1.5
 74
     0
 49
1.0
 74
     0
 49
-1.5
 74
     0
  0
LTYPE
  5
1284
330
5
100
AcDbSymbolTableRecord
100
AcDbLinetypeTableRecord
  2
genzigzag
 70
     0
  3
/\/-/\/-/\/-/\/-/\/-/\/
 72
    65
 73
     2
 40
12.0001
 49
0.0001
 74
     4
 75
   135
340
1283
 46
2.0
 50
0.0
 44
0.0
 45
0.0
 49
-12.0
 74
     0
  0
LTYPE
  5
13B1
330
5
100
AcDbSymbolTableRecord
100
AcDbLinetypeTableRecord
  2
AM_DIN_G_W050x2
 70
     0
  3
__ . __ . __ . __ . __ . __
 72
    65
 73
     4
 40
6.875
 49
4.75
 74
     0
 49
-0.875
 74
     0
 49
0.375
 74
     0
 49
-0.875
 74
     0
  0
LTYPE
  5
2056
330
5
100
AcDbSymbolTableRecord
100
AcDbLinetypeTableRecord
  2
ASULTYPE
 70
     0
  3
Ausgezogene Linie
 72
    65
 73
     2
 40
3.0
 49
2.5
 74
     0
 49
0.5
 74
     0
  0
LTYPE
  5
2057
330
5
100
AcDbSymbolTableRecord
100
AcDbLinetypeTableRecord
  2
ASVLTYPE
 70
     0
  3
__ __ __ __ __ __ __ __ __ __ __ __ __ __ __ __ __ __ __ __ __
 72
    65
 73
     2
 40
0.75
 49
0.5
 74
     0
 49
-0.25
 74
     0
  0
ENDTAB
  0
TABLE
  2
LAYER
  5
2
330
0
100
AcDbSymbolTable
 70
     6
  0
LAYER
  5
F
330
2
100
AcDbSymbolTableRecord
100
AcDbLayerTableRecord
  2
0
 70
     0
 62
     7
  6
CONTINUOUS
370
    -3
390
11EB
  0
LAYER
  5
35
330
2
100
AcDbSymbolTableRecord
100
AcDbLayerTableRecord
  2
Dimension2_Bemaßung2
 70
     0
 62
     1
  6
CONTINUOUS
370
    -3
390
11EB
  0
LAYER
  5
48
330
2
100
AcDbSymbolTableRecord
100
AcDbLayerTableRecord
  2
Center of gravity_Schwerpunkt
 70
     0
 62
     7
  6
AM_DIN_G_W050x2
370
    -3
390
11EB
  0
LAYER
  5
165
330
2
100
AcDbSymbolTableRecord
100
AcDbLayerTableRecord
  2
Defpoints
 70
     0
 62
     6
  6
CONTINUOUS
290
     0
370
    -3
390
11EB
  0
LAYER
  5
234
330
2
100
AcDbSymbolTableRecord
100
AcDbLayerTableRecord
  2
Dimension1_Bemaßung1
 70
     0
 62
     1
  6
CONTINUOUS
370
    -3
390
11EB
  0
LAYER
  5
1A7D
330
2
100
AcDbSymbolTableRecord
100
AcDbLayerTableRecord
  2
KLIN
 70
     0
 62
     1
  6
CONTINUOUS
370
     0
390
11EB
  0
ENDTAB
  0
TABLE
  2
STYLE
  5
3
330
0
100
AcDbSymbolTable
 70
    12
  0
STYLE
  5
10
330
3
100
AcDbSymbolTableRecord
100
AcDbTextStyleTableRecord
  2
STANDARD
 70
     0
 40
0.0
 41
1.0
 50
0.0
 71
     0
 42
2.5
  3
ISOCP
  4

  0
STYLE
  5
1101
330
3
100
AcDbSymbolTableRecord
100
AcDbTextStyleTableRecord
  2
ACJISTS
 70
     0
 40
1.0
 41
1.0
 50
0.0
 71
     0
 42
2.5
  3
isocp.shx
  4
bigfont.shx
  0
STYLE
  5
1102
330
3
100
AcDbSymbolTableRecord
100
AcDbTextStyleTableRecord
  2
ACJISGDT
 70
     0
 40
0.0
 41
1.0
 50
0.0
 71
     0
 42
2.5
  3
amgdt.shx
  4

  0
STYLE
  5
1105
330
3
100
AcDbSymbolTableRecord
100
AcDbTextStyleTableRecord
  2
ACANSTSB
 70
     0
 40
1.0
 41
1.0
 50
0.0
 71
     0
 42
2.5
  3
romans.shx
  4

  0
STYLE
  5
1106
330
3
100
AcDbSymbolTableRecord
100
AcDbTextStyleTableRecord
  2
ACANSGDT
 70
     0
 40
0.0
 41
1.0
 50
0.0
 71
     0
 42
2.5
  3
amgdt.shx
  4

  0
STYLE
  5
1109
330
3
100
AcDbSymbolTableRecord
100
AcDbTextStyleTableRecord
  2
ACBSITS
 70
     0
 40
1.0
 41
1.0
 50
0.0
 71
     0
 42
2.5
  3
isocp.shx
  4

  0
STYLE
  5
110A
330
3
100
AcDbSymbolTableRecord
100
AcDbTextStyleTableRecord
  2
ACBSIGDT
 70
     0
 40
0.0
 41
1.0
 50
0.0
 71
     0
 42
2.5
  3
amgdt.shx
  4

  0
STYLE
  5
110E
330
3
100
AcDbSymbolTableRecord
100
AcDbTextStyleTableRecord
  2
ACDINTS
 70
     0
 40
1.0
 41
1.0
 50
0.0
 71
     0
 42
2.5
  3
isocp.shx
  4

  0
STYLE
  5
110F
330
3
100
AcDbSymbolTableRecord
100
AcDbTextStyleTableRecord
  2
ACDINGDT
 70
     0
 40
0.0
 41
1.0
 50
0.0
 71
     0
 42
2.5
  3
amgdt.shx
  4

  0
STYLE
  5
1113
330
3
100
AcDbSymbolTableRecord
100
AcDbTextStyleTableRecord
  2
ACISOTS
 70
     0
 40
1.0
 41
1.0
 50
0.0
 71
     0
 42
2.5
  3
isocp.shx
  4

  0
STYLE
  5
1114
330
3
100
AcDbSymbolTableRecord
100
AcDbTextStyleTableRecord
  2
ACISOGDT
 70
     0
 40
0.0
 41
1.0
 50
0.0
 71
     0
 42
2.5
  3
amgdt.shx
  4

  0
STYLE
  5
1283
330
3
100
AcDbSymbolTableRecord
100
AcDbTextStyleTableRecord
  2

 70
     1
 40
0.0
 41
1.0
 50
0.0
 71
     0
 42
2.5
  3
genltshp.shx
  4

  0
ENDTAB
  0
TABLE
  2
VIEW
  5
6
330
0
100
AcDbSymbolTable
 70
     0
  0
ENDTAB
  0
TABLE
  2
UCS
  5
7
330
0
100
AcDbSymbolTable
 70
     0
  0
ENDTAB
  0
TABLE
  2
APPID
  5
9
330
0
100
AcDbSymbolTable
 70
    29
  0
APPID
  5
11
330
9
100
AcDbSymbolTableRecord
100
AcDbRegAppTableRecord
  2
ACAD
 70
     0
  0
APPID
  5
F4A
330
9
100
AcDbSymbolTableRecord
100
AcDbRegAppTableRecord
  2
MCAD_NO_VIS
 70
     0
  0
APPID
  5
F99
330
9
100
AcDbSymbolTableRecord
100
AcDbRegAppTableRecord
  2
AD_DRAW
 70
     0
  0
APPID
  5
FB3
330
9
100
AcDbSymbolTableRecord
100
AcDbRegAppTableRecord
  2
DESIGNERASSEMBLIES
 70
     0
  0
APPID
  5
FED
330
9
100
AcDbSymbolTableRecord
100
AcDbRegAppTableRecord
  2
ASURF_PCURVE_APPNAME
 70
     0
  0
APPID
  5
FFE
330
9
100
AcDbSymbolTableRecord
100
AcDbRegAppTableRecord
  2
GENIUS_GENCFG_13
 70
     0
1001
GENIUS_GE3CFG0_13
1000
GE3
1001
GENIUS_GENCFG0_13
1000
GEN@INFO_POS@XLATE
1001
GENIUS_GENCFG1_13
1000
GEN@INFO_POS
1001
GENIUS_GENCFG2_13
1000
GEN@LAYER@DEFS
1001
GENIUS_GENCFG3_13
1000
GEN@LAYER@ENTSORT
1001
GENIUS_GENCFG4_13
1000
GEN
1001
GENIUS_GEVCFG0_13
1000
GEV
  0
APPID
  5
FFF
330
9
100
AcDbSymbolTableRecord
100
AcDbRegAppTableRecord
  2
GENIUS_GE3CFG0_13
 70
     0
1001
GENIUS_GENCFG_13
1071
912092035
1000
FFF
1000
GE3
1070
     2
1000
GenCfgObject
1000
GenCfgShort
1000
Dimension
1070
     0
1002
{
1000
RefDimEnhance
1070
     1
1070
     1
1002
{
1002
}
1000
RefDim
1070
     0
1002
{
1000
DIMCLRD
1070
     1
1070
     4
1002
{
1002
}
1002
}
1002
}
1000
Drawing
1070
     0
1002
{
1000
MSpace3D
1070
     1
1070
     1
1002
{
1002
}
1000
UpdateList
1070
     1
1070
     1
1002
{
1002
}
1002
}
1000
Shaft
1070
     0
1002
{
1002
}
1000
View
1070
     0
1002
{
1002
}
  0
APPID
  5
1000
330
9
100
AcDbSymbolTableRecord
100
AcDbRegAppTableRecord
  2
GENIUS_GENCFG0_13
 70
     0
1001
GENIUS_GENCFG_13
1071
912092035
1000
1000
1000
GEN@INFO_POS@XLATE
1070
     7
1000
GenCfgObject
1000
GenCfgShort
1000
GenCfgReal
1000
GenCfgBool
1000
GenCfgString
1000
GenCfgDim
1000
GenCfgAttrInf
1000
INFOPOINTS
1070
     0
1002
{
1000
GENINF14
1070
     0
1002
{
1000
2GENINF
1070
     4
1000
2
1002
{
1002
}
1000
3GENINF
1070
     4
1000
3
1002
{
1002
}
1000
4GENINF
1070
     4
1000
4
1002
{
1002
}
1000
5GENINF
1070
     4
1000
5
1002
{
1002
}
1000
6GENINF
1070
     4
1000
6
1002
{
1002
}
1000
7GENINF
1070
     4
1000
7
1002
{
1002
}
1000
8GENINF
1070
     4
1000
8
1002
{
1002
}
1000
9GENINF
1070
     4
1000
9
1002
{
1002
}
1000
10GENINF
1070
     4
1000
10
1002
{
1002
}
1000
11GENINF
1070
     4
1000
11
1002
{
1002
}
1000
12GENINF
1070
     4
1000
12
1002
{
1002
}
1000
13GENINF
1070
     4
1000
13
1002
{
1002
}
1000
14GENINF
1070
     4
1000
14
1002
{
1002
}
1000
15GENINF
1070
     4
1000
15
1002
{
1002
}
1000
16GENINF
1070
     4
1000
16
1002
{
1002
}
1000
17GENINF
1070
     4
1000
17
1002
{
1002
}
1000
18GENINF
1070
     4
1000
18
1002
{
1002
}
1000
19GENINF
1070
     4
1000
19
1002
{
1002
}
1000
20GENINF
1070
     4
1000
20
1002
{
1002
}
1000
21GENINF
1070
     4
1000
21
1002
{
1002
}
1000
22GENINF
1070
     4
1000
22
1002
{
1002
}
1000
23GENINF
1070
     4
1000
23
1002
{
1002
}
1000
24GENINF
1070
     4
1000
24
1002
{
1002
}
1000
25GENINF
1070
     4
1000
25
1002
{
1002
}
1000
26GENINF
1070
     4
1000
26
1002
{
1002
}
1000
27GENINF
1070
     4
1000
27
1002
{
1002
}
1000
0GENINF
1070
     4
1000
0
1002
{
1002
}
1002
}
1000
GENINF13
1070
     0
1002
{
1000
2GENINF
1070
     4
1000
2
1002
{
1002
}
1000
3GENINF
1070
     4
1000
3
1002
{
1002
}
1000
4GENINF
1070
     4
1000
4
1002
{
1002
}
1000
5GENINF
1070
     4
1000
5
1002
{
1002
}
1000
6GENINF
1070
     4
1000
6
1002
{
1002
}
1000
7GENINF
1070
     4
1000
7
1002
{
1002
}
1000
8GENINF
1070
     4
1000
8
1002
{
1002
}
1000
9GENINF
1070
     4
1000
9
1002
{
1002
}
1000
10GENINF
1070
     4
1000
10
1002
{
1002
}
1000
11GENINF
1070
     4
1000
11
1002
{
1002
}
1000
12GENINF
1070
     4
1000
12
1002
{
1002
}
1000
13GENINF
1070
     4
1000
13
1002
{
1002
}
1000
14GENINF
1070
     4
1000
14
1002
{
1002
}
1000
15GENINF
1070
     4
1000
15
1002
{
1002
}
1000
16GENINF
1070
     4
1000
16
1002
{
1002
}
1000
17GENINF
1070
     4
1000
17
1002
{
1002
}
1000
18GENINF
1070
     4
1000
18
1002
{
1002
}
1000
19GENINF
1070
     4
1000
19
1002
{
1002
}
1000
20GENINF
1070
     4
1000
20
1002
{
1002
}
1000
21GENINF
1070
     4
1000
21
1002
{
1002
}
1000
22GENINF
1070
     4
1000
22
1002
{
1002
}
1000
23GENINF
1070
     4
1000
23
1002
{
1002
}
1000
24GENINF
1070
     4
1000
24
1002
{
1002
}
1000
0GENINF
1070
     4
1000
0
1002
{
1002
}
1002
}
1000
GENINFO
1070
     0
1002
{
1000
3GENINF
1070
     4
1000
3
1002
{
1002
}
1000
4GENINF
1070
     4
1000
4
1002
{
1002
}
1000
5GENINF
1070
     4
1000
5
1002
{
1002
}
1000
6GENINF
1070
     4
1000
6
1002
{
1002
}
1000
7GENINF
1070
     4
1000
7
1002
{
1002
}
1000
8GENINF
1070
     4
1000
8
1002
{
1002
}
1000
9GENINF
1070
     4
1000
9
1002
{
1002
}
1000
10GENINF
1070
     4
1000
10
1002
{
1002
}
1000
11GENINF
1070
     4
1000
11
1002
{
1002
}
1000
12GENINF
1070
     4
1000
12
1002
{
1002
}
1000
13GENINF
1070
     4
1000
13
1002
{
1002
}
1000
14GENINF
1070
     4
1000
14
1002
{
1002
}
1000
15GENINF
1070
     4
1000
15
1002
{
1002
}
1000
16GENINF
1070
     4
1000
16
1002
{
1002
}
1000
17GENINF
1070
     4
1000
17
1002
{
1002
}
1000
18GENINF
1070
     4
1000
18
1002
{
1002
}
1000
19GENINF
1070
     4
1000
19
1002
{
1002
}
1000
20GENINF
1070
     4
1000
20
1002
{
1002
}
1000
21GENINF
1070
     4
1000
21
1002
{
1002
}
1000
22GENINF
1070
     4
1000
22
1002
{
1002
}
1002
}
1000
DININFO
1070
     0
1002
{
1000
ST-NAME1
1070
     4
1000
5
1002
{
1002
}
1000
ST-NAME2
1070
     4
1000
6
1002
{
1002
}
1000
ST-NORM1
1070
     4
1000
7
1002
{
1002
}
1000
ST-NORM2
1070
     4
1000
8
1002
{
1002
}
1000
ST-MAT1
1070
     4
1000
9
1002
{
1002
}
1000
ST-MAT2
1070
     4
1000
10
1002
{
1002
}
1002
}
1002
}
1000
POS_NUMBERS
1070
     0
1002
{
1000
GENPOS14
1070
     0
1002
{
1000
1GENPOS
1070
     4
1000
1
1002
{
1002
}
1000
2GENPOS
1070
     4
1000
2
1002
{
1002
}
1000
3GENPOS
1070
     4
1000
3
1002
{
1002
}
1000
4GENPOS
1070
     4
1000
4
1002
{
1002
}
1000
5GENPOS
1070
     4
1000
5
1002
{
1002
}
1000
6GENPOS
1070
     4
1000
6
1002
{
1002
}
1000
7GENPOS
1070
     4
1000
7
1002
{
1002
}
1000
8GENPOS
1070
     4
1000
8
1002
{
1002
}
1000
9GENPOS
1070
     4
1000
9
1002
{
1002
}
1000
10GENPOS
1070
     4
1000
10
1002
{
1002
}
1000
11GENPOS
1070
     4
1000
11
1002
{
1002
}
1000
12GENPOS
1070
     4
1000
12
1002
{
1002
}
1000
13GENPOS
1070
     4
1000
13
1002
{
1002
}
1000
14GENPOS
1070
     4
1000
14
1002
{
1002
}
1000
15GENPOS
1070
     4
1000
15
1002
{
1002
}
1000
16GENPOS
1070
     4
1000
16
1002
{
1002
}
1000
17GENPOS
1070
     4
1000
17
1002
{
1002
}
1000
18GENPOS
1070
     4
1000
18
1002
{
1002
}
1000
19GENPOS
1070
     4
1000
19
1002
{
1002
}
1000
20GENPOS
1070
     4
1000
20
1002
{
1002
}
1000
21GENPOS
1070
     4
1000
21
1002
{
1002
}
1000
22GENPOS
1070
     4
1000
22
1002
{
1002
}
1000
23GENPOS
1070
     4
1000
23
1002
{
1002
}
1000
24GENPOS
1070
     4
1000
24
1002
{
1002
}
1000
25GENPOS
1070
     4
1000
25
1002
{
1002
}
1000
26GENPOS
1070
     4
1000
26
1002
{
1002
}
1000
27GENPOS
1070
     4
1000
27
1002
{
1002
}
1000
0GENPOS
1070
     4
1000
0
1002
{
1002
}
1002
}
1000
GENPOS13
1070
     0
1002
{
1000
1GENPOS
1070
     4
1000
1
1002
{
1002
}
1000
2GENPOS
1070
     4
1000
2
1002
{
1002
}
1000
3GENPOS
1070
     4
1000
3
1002
{
1002
}
1000
4GENPOS
1070
     4
1000
4
1002
{
1002
}
1000
5GENPOS
1070
     4
1000
5
1002
{
1002
}
1000
6GENPOS
1070
     4
1000
6
1002
{
1002
}
1000
7GENPOS
1070
     4
1000
7
1002
{
1002
}
1000
8GENPOS
1070
     4
1000
8
1002
{
1002
}
1000
9GENPOS
1070
     4
1000
9
1002
{
1002
}
1000
10GENPOS
1070
     4
1000
10
1002
{
1002
}
1000
11GENPOS
1070
     4
1000
11
1002
{
1002
}
1000
12GENPOS
1070
     4
1000
12
1002
{
1002
}
1000
13GENPOS
1070
     4
1000
13
1002
{
1002
}
1000
14GENPOS
1070
     4
1000
14
1002
{
1002
}
1000
15GENPOS
1070
     4
1000
15
1002
{
1002
}
1000
16GENPOS
1070
     4
1000
16
1002
{
1002
}
1000
17GENPOS
1070
     4
1000
17
1002
{
1002
}
1000
18GENPOS
1070
     4
1000
18
1002
{
1002
}
1000
19GENPOS
1070
     4
1000
19
1002
{
1002
}
1000
20GENPOS
1070
     4
1000
20
1002
{
1002
}
1000
21GENPOS
1070
     4
1000
21
1002
{
1002
}
1000
22GENPOS
1070
     4
1000
22
1002
{
1002
}
1000
23GENPOS
1070
     4
1000
23
1002
{
1002
}
1000
24GENPOS
1070
     4
1000
24
1002
{
1002
}
1000
0GENPOS
1070
     4
1000
0
1002
{
1002
}
1002
}
1000
GENPOS
1070
     0
1002
{
1000
1GENPOS
1070
     4
1000
1
1002
{
1002
}
1000
2GENPOS
1070
     4
1000
2
1002
{
1002
}
1000
3GENPOS
1070
     4
1000
3
1002
{
1002
}
1000
4GENPOS
1070
     4
1000
4
1002
{
1002
}
1000
5GENPOS
1070
     4
1000
5
1002
{
1002
}
1000
6GENPOS
1070
     4
1000
6
1002
{
1002
}
1000
7GENPOS
1070
     4
1000
7
1002
{
1002
}
1000
8GENPOS
1070
     4
1000
8
1002
{
1002
}
1000
9GENPOS
1070
     4
1000
9
1002
{
1002
}
1000
10GENPOS
1070
     4
1000
10
1002
{
1002
}
1000
11GENPOS
1070
     4
1000
11
1002
{
1002
}
1000
12GENPOS
1070
     4
1000
12
1002
{
1002
}
1000
13GENPOS
1070
     4
1000
13
1002
{
1002
}
1000
14GENPOS
1070
     4
1000
14
1002
{
1002
}
1000
15GENPOS
1070
     4
1000
15
1002
{
1002
}
1000
16GENPOS
1070
     4
1000
16
1002
{
1002
}
1000
17GENPOS
1070
     4
1000
17
1002
{
1002
}
1000
18GENPOS
1070
     4
1000
18
1002
{
1002
}
1000
19GENPOS
1070
     4
1000
19
1002
{
1002
}
1000
20GENPOS
1070
     4
1000
20
1002
{
1002
}
1000
21GENPOS
1070
     4
1000
21
1002
{
1002
}
1000
22GENPOS
1070
     4
1000
22
1002
{
1002
}
1000
23GENPOS
1070
     4
1000
23
1002
{
1002
}
1002
}
1000
DIN985
1070
     0
1002
{
1000
POSITION
1070
     4
1000
1
1002
{
1002
}
1000
MENGE
1070
     4
1000
2
1002
{
1002
}
1000
BLATT
1070
     4
1000
3
1002
{
1002
}
1000
BENENN
1070
     4
1000
5
1002
{
1002
}
1000
BENENN2
1070
     4
1000
6
1002
{
1002
}
1000
NORM
1070
     4
1000
7
1002
{
1002
}
1000
NORM2
1070
     4
1000
8
1002
{
1002
}
1000
WERKSTOFF
1070
     4
1000
9
1002
{
1002
}
1000
WERKSTOFF2
1070
     4
1000
10
1002
{
1002
}
1002
}
1000
DIN986
1070
     0
1002
{
1000
POSITION
1070
     4
1000
1
1002
{
1002
}
1000
MENGE
1070
     4
1000
2
1002
{
1002
}
1000
BLATT
1070
     4
1000
3
1002
{
1002
}
1000
BENENN
1070
     4
1000
5
1002
{
1002
}
1000
BENENN2
1070
     4
1000
6
1002
{
1002
}
1000
NORM
1070
     4
1000
7
1002
{
1002
}
1000
NORM2
1070
     4
1000
8
1002
{
1002
}
1000
WERKSTOFF
1070
     4
1000
9
1002
{
1002
}
1000
WERKSTOFF2
1070
     4
1000
10
1002
{
1002
}
1002
}
1000
DIN987
1070
     0
1002
{
1000
POSITION
1070
     4
1000
1
1002
{
1002
}
1000
MENGE
1070
     4
1000
2
1002
{
1002
}
1000
BLATT
1070
     4
1000
3
1002
{
1002
}
1000
BENENN
1070
     4
1000
5
1002
{
1002
}
1000
BENENN2
1070
     4
1000
6
1002
{
1002
}
1000
NORM
1070
     4
1000
7
1002
{
1002
}
1000
NORM2
1070
     4
1000
8
1002
{
1002
}
1000
WERKSTOFF
1070
     4
1000
9
1002
{
1002
}
1000
WERKSTOFF2
1070
     4
1000
10
1002
{
1002
}
1002
}
1002
}
  0
APPID
  5
1001
330
9
100
AcDbSymbolTableRecord
100
AcDbRegAppTableRecord
  2
GENIUS_GENCFG1_13
 70
     0
1001
GENIUS_GENCFG_13
1071
912092035
1000
1001
1000
GEN@INFO_POS
1070
     7
1000
GenCfgObject
1000
GenCfgShort
1000
GenCfgReal
1000
GenCfgBool
1000
GenCfgString
1000
GenCfgDim
1000
GenCfgAttrInf
1000
DescrText
1070
     4
1000
5, ,6, ,7, ,8
1002
{
1002
}
1000
DescrText2
1070
     4
1000
26
1002
{
1002
}
1000
VisibleAttr1
1070
     4
1000
1
1002
{
1002
}
1000
VisibleAttr2
1070
     4
1000
26
1002
{
1002
}
1000
UpdateBlock
1070
     3
1070
     1
1002
{
1002
}
1000
Attrib
1070
     0
1002
{
1000
0
1070
     6
1002
{
1000
Prompt
1070
     4
1000
(genmsg gendwg 103)
1002
{
1002
}
1000
Value
1070
     4
1000

1002
{
1002
}
1000
EditFlag
1070
     1
1070
     0
1002
{
1002
}
1000
PosInDDATTE
1070
     1
1070
    27
1002
{
1002
}
1000
FieldLen
1070
     1
1070
    -1
1002
{
1002
}
1002
}
1000
1
1070
     6
1002
{
1000
Prompt
1070
     4
1000
(genmsg gendwg 31)
1002
{
1002
}
1000
Value
1070
     4
1000
1
1002
{
1002
}
1000
EditFlag
1070
     1
1070
     1
1002
{
1002
}
1000
PosInDDATTE
1070
     1
1070
     1
1002
{
1002
}
1000
FieldLen
1070
     1
1070
    -1
1002
{
1002
}
1002
}
1000
2
1070
     6
1002
{
1000
Prompt
1070
     4
1000
(genmsg gendwg 32)
1002
{
1002
}
1000
Value
1070
     4
1000
1
1002
{
1002
}
1000
EditFlag
1070
     1
1070
     1
1002
{
1002
}
1000
PosInDDATTE
1070
     1
1070
     2
1002
{
1002
}
1000
FieldLen
1070
     1
1070
    -1
1002
{
1002
}
1002
}
1000
3
1070
     6
1002
{
1000
Prompt
1070
     4
1000
(genmsg gendwg 33)
1002
{
1002
}
1000
Value
1070
     4
1000

1002
{
1002
}
1000
EditFlag
1070
     1
1070
     1
1002
{
1002
}
1000
PosInDDATTE
1070
     1
1070
     3
1002
{
1002
}
1000
FieldLen
1070
     1
1070
    -1
1002
{
1002
}
1002
}
1000
4
1070
     6
1002
{
1000
Prompt
1070
     4
1000
(genmsg gendwg 34)
1002
{
1002
}
1000
Value
1070
     4
1000

1002
{
1002
}
1000
EditFlag
1070
     1
1070
     1
1002
{
1002
}
1000
PosInDDATTE
1070
     1
1070
     4
1002
{
1002
}
1000
FieldLen
1070
     1
1070
    -1
1002
{
1002
}
1002
}
1000
5
1070
     6
1002
{
1000
Prompt
1070
     4
1000
(genmsg gendwg 35)
1002
{
1002
}
1000
Value
1070
     4
1000

1002
{
1002
}
1000
EditFlag
1070
     1
1070
     1
1002
{
1002
}
1000
PosInDDATTE
1070
     1
1070
     5
1002
{
1002
}
1000
FieldLen
1070
     1
1070
    -1
1002
{
1002
}
1002
}
1000
6
1070
     6
1002
{
1000
Prompt
1070
     4
1000
(genmsg gendwg 36)
1002
{
1002
}
1000
Value
1070
     4
1000

1002
{
1002
}
1000
EditFlag
1070
     1
1070
     1
1002
{
1002
}
1000
PosInDDATTE
1070
     1
1070
     6
1002
{
1002
}
1000
FieldLen
1070
     1
1070
    -1
1002
{
1002
}
1002
}
1000
7
1070
     6
1002
{
1000
Prompt
1070
     4
1000
(genmsg gendwg 37)
1002
{
1002
}
1000
Value
1070
     4
1000

1002
{
1002
}
1000
EditFlag
1070
     1
1070
     1
1002
{
1002
}
1000
PosInDDATTE
1070
     1
1070
     7
1002
{
1002
}
1000
FieldLen
1070
     1
1070
    -1
1002
{
1002
}
1002
}
1000
8
1070
     6
1002
{
1000
Prompt
1070
     4
1000
(genmsg gendwg 38)
1002
{
1002
}
1000
Value
1070
     4
1000

1002
{
1002
}
1000
EditFlag
1070
     1
1070
     1
1002
{
1002
}
1000
PosInDDATTE
1070
     1
1070
     8
1002
{
1002
}
1000
FieldLen
1070
     1
1070
    -1
1002
{
1002
}
1002
}
1000
9
1070
     6
1002
{
1000
Prompt
1070
     4
1000
(genmsg gendwg 39)
1002
{
1002
}
1000
Value
1070
     4
1000

1002
{
1002
}
1000
EditFlag
1070
     1
1070
     1
1002
{
1002
}
1000
PosInDDATTE
1070
     1
1070
     9
1002
{
1002
}
1000
FieldLen
1070
     1
1070
    -1
1002
{
1002
}
1002
}
1000
10
1070
     6
1002
{
1000
Prompt
1070
     4
1000
(genmsg gendwg 40)
1002
{
1002
}
1000
Value
1070
     4
1000

1002
{
1002
}
1000
EditFlag
1070
     1
1070
     1
1002
{
1002
}
1000
PosInDDATTE
1070
     1
1070
    10
1002
{
1002
}
1000
FieldLen
1070
     1
1070
    -1
1002
{
1002
}
1002
}
1000
11
1070
     6
1002
{
1000
Prompt
1070
     4
1000
(genmsg gendwg 41)
1002
{
1002
}
1000
Value
1070
     4
1000

1002
{
1002
}
1000
EditFlag
1070
     1
1070
     1
1002
{
1002
}
1000
PosInDDATTE
1070
     1
1070
    11
1002
{
1002
}
1000
FieldLen
1070
     1
1070
    -1
1002
{
1002
}
1002
}
1000
12
1070
     6
1002
{
1000
Prompt
1070
     4
1000
(genmsg gendwg 42)
1002
{
1002
}
1000
Value
1070
     4
1000

1002
{
1002
}
1000
EditFlag
1070
     1
1070
     1
1002
{
1002
}
1000
PosInDDATTE
1070
     1
1070
    12
1002
{
1002
}
1000
FieldLen
1070
     1
1070
    -1
1002
{
1002
}
1002
}
1000
13
1070
     6
1002
{
1000
Prompt
1070
     4
1000
(genmsg gendwg 43)
1002
{
1002
}
1000
Value
1070
     4
1000

1002
{
1002
}
1000
EditFlag
1070
     1
1070
     1
1002
{
1002
}
1000
PosInDDATTE
1070
     1
1070
    13
1002
{
1002
}
1000
FieldLen
1070
     1
1070
    -1
1002
{
1002
}
1002
}
1000
14
1070
     6
1002
{
1000
Prompt
1070
     4
1000
(genmsg gendwg 44)
1002
{
1002
}
1000
Value
1070
     4
1000

1002
{
1002
}
1000
EditFlag
1070
     1
1070
     1
1002
{
1002
}
1000
PosInDDATTE
1070
     1
1070
    14
1002
{
1002
}
1000
FieldLen
1070
     1
1070
    -1
1002
{
1002
}
1002
}
1000
15
1070
     6
1002
{
1000
Prompt
1070
     4
1000
(genmsg gendwg 45)
1002
{
1002
}
1000
Value
1070
     4
1000

1002
{
1002
}
1000
EditFlag
1070
     1
1070
     1
1002
{
1002
}
1000
PosInDDATTE
1070
     1
1070
    15
1002
{
1002
}
1000
FieldLen
1070
     1
1070
    -1
1002
{
1002
}
1002
}
1000
16
1070
     6
1002
{
1000
Prompt
1070
     4
1000
(genmsg gendwg 46)
1002
{
1002
}
1000
Value
1070
     4
1000

1002
{
1002
}
1000
EditFlag
1070
     1
1070
     1
1002
{
1002
}
1000
PosInDDATTE
1070
     1
1070
    16
1002
{
1002
}
1000
FieldLen
1070
     1
1070
    -1
1002
{
1002
}
1002
}
1000
17
1070
     6
1002
{
1000
Prompt
1070
     4
1000
(genmsg gendwg 47)
1002
{
1002
}
1000
Value
1070
     4
1000

1002
{
1002
}
1000
EditFlag
1070
     1
1070
     1
1002
{
1002
}
1000
PosInDDATTE
1070
     1
1070
    17
1002
{
1002
}
1000
FieldLen
1070
     1
1070
    -1
1002
{
1002
}
1002
}
1000
18
1070
     6
1002
{
1000
Prompt
1070
     4
1000
(genmsg gendwg 48)
1002
{
1002
}
1000
Value
1070
     4
1000

1002
{
1002
}
1000
EditFlag
1070
     1
1070
     1
1002
{
1002
}
1000
PosInDDATTE
1070
     1
1070
    18
1002
{
1002
}
1000
FieldLen
1070
     1
1070
    -1
1002
{
1002
}
1002
}
1000
19
1070
     6
1002
{
1000
Prompt
1070
     4
1000
(genmsg gendwg 99)
1002
{
1002
}
1000
Value
1070
     4
1000

1002
{
1002
}
1000
EditFlag
1070
     1
1070
     1
1002
{
1002
}
1000
PosInDDATTE
1070
     1
1070
    19
1002
{
1002
}
1000
FieldLen
1070
     1
1070
    -1
1002
{
1002
}
1002
}
1000
20
1070
     6
1002
{
1000
Prompt
1070
     4
1000
(genmsg gendwg 100)
1002
{
1002
}
1000
Value
1070
     4
1000

1002
{
1002
}
1000
EditFlag
1070
     1
1070
     1
1002
{
1002
}
1000
PosInDDATTE
1070
     1
1070
    20
1002
{
1002
}
1000
FieldLen
1070
     1
1070
    -1
1002
{
1002
}
1002
}
1000
21
1070
     6
1002
{
1000
Prompt
1070
     4
1000
(genmsg gendwg 101)
1002
{
1002
}
1000
Value
1070
     4
1000

1002
{
1002
}
1000
EditFlag
1070
     1
1070
     1
1002
{
1002
}
1000
PosInDDATTE
1070
     1
1070
    21
1002
{
1002
}
1000
FieldLen
1070
     1
1070
    -1
1002
{
1002
}
1002
}
1000
22
1070
     6
1002
{
1000
Prompt
1070
     4
1000
(genmsg gendwg 102)
1002
{
1002
}
1000
Value
1070
     4
1000

1002
{
1002
}
1000
EditFlag
1070
     1
1070
     1
1002
{
1002
}
1000
PosInDDATTE
1070
     1
1070
    22
1002
{
1002
}
1000
FieldLen
1070
     1
1070
    -1
1002
{
1002
}
1002
}
1000
23
1070
     6
1002
{
1000
Prompt
1070
     4
1000
(genmsg gendwg 30)
1002
{
1002
}
1000
Value
1070
     4
1000

1002
{
1002
}
1000
EditFlag
1070
     1
1070
     1
1002
{
1002
}
1000
PosInDDATTE
1070
     1
1070
    23
1002
{
1002
}
1000
FieldLen
1070
     1
1070
    -1
1002
{
1002
}
1002
}
1000
24
1070
     6
1002
{
1000
Prompt
1070
     4
1000
(genmsg gendwg 104)
1002
{
1002
}
1000
Value
1070
     4
1000

1002
{
1002
}
1000
EditFlag
1070
     1
1070
     1
1002
{
1002
}
1000
PosInDDATTE
1070
     1
1070
    24
1002
{
1002
}
1000
FieldLen
1070
     1
1070
    -1
1002
{
1002
}
1002
}
1000
25
1070
     6
1002
{
1000
Prompt
1070
     4
1000
(genmsg gendwg 105)
1002
{
1002
}
1000
Value
1070
     4
1000

1002
{
1002
}
1000
EditFlag
1070
     1
1070
     1
1002
{
1002
}
1000
PosInDDATTE
1070
     1
1070
    25
1002
{
1002
}
1000
FieldLen
1070
     1
1070
    -1
1002
{
1002
}
1002
}
1000
26
1070
     6
1002
{
1000
Prompt
1070
     4
1000
(genmsg gendwg 106)
1002
{
1002
}
1000
Value
1070
     4
1000

1002
{
1002
}
1000
EditFlag
1070
     1
1070
     1
1002
{
1002
}
1000
PosInDDATTE
1070
     1
1070
    26
1002
{
1002
}
1000
FieldLen
1070
     1
1070
    -1
1002
{
1002
}
1002
}
1000
27
1070
     6
1002
{
1000
Prompt
1070
     4
1000
(genmsg gendwg 109)
1002
{
1002
}
1000
Value
1070
     4
1000

1002
{
1002
}
1000
EditFlag
1070
     1
1070
     2
1002
{
1002
}
1000
PosInDDATTE
1070
     1
1070
    27
1002
{
1002
}
1000
FieldLen
1070
     1
1070
    -1
1002
{
1002
}
1002
}
1002
}
1000
Xlate
1070
     0
1002
{
1000
>
1002
}
  0
APPID
  5
1002
330
9
100
AcDbSymbolTableRecord
100
AcDbRegAppTableRecord
  2
GENIUS_GENCFG2_13
 70
     0
1001
GENIUS_GENCFG_13
1071
912092035
1000
1002
1000
GEN@LAYER@DEFS
1070
     9
1000
GenCfgObject
1000
GenCfgShort
1000
GenCfgReal
1000
GenCfgBool
1000
GenCfgString
1000
GenCfgDim
1000
GenCfgAttrInf
1000
GenCfgLaySection
1000
GenCfgLayer
1000
Basic
1070
     0
1002
{
1000
0
1070
     8
1000
0
1002
{
1000
Color
1070
     1
1070
     7
1002
{
1002
}
1000
LType
1070
     4
1000
CONTINUOUS
1002
{
1002
}
1000
Base
1070
     3
1070
     0
1002
{
1002
}
1002
}
1000
1
1070
     8
1000
1
1002
{
1000
Color
1070
     1
1070
    14
1002
{
1002
}
1000
LType
1070
     4
1000
CONTINUOUS
1002
{
1002
}
1000
Base
1070
     3
1070
     0
1002
{
1002
}
1002
}
1000
2
1070
     8
1000
2
1002
{
1000
Color
1070
     1
1070
     5
1002
{
1002
}
1000
LType
1070
     4
1000
CONTINUOUS
1002
{
1002
}
1000
Base
1070
     3
1070
     0
1002
{
1002
}
1002
}
1000
3
1070
     8
1000
3
1002
{
1000
Color
1070
     1
1070
     6
1002
{
1002
}
1000
LType
1070
     4
1000
GEN3
1002
{
1002
}
1000
Base
1070
     3
1070
     0
1002
{
1002
}
1002
}
1000
4
1070
     8
1000
4
1002
{
1000
Color
1070
     1
1070
     3
1002
{
1002
}
1000
LType
1070
     4
1000
CONTINUOUS
1002
{
1002
}
1000
Base
1070
     3
1070
     0
1002
{
1002
}
1002
}
1000
5
1070
     8
1000
5
1002
{
1000
Color
1070
     1
1070
     3
1002
{
1002
}
1000
LType
1070
     4
1000
CONTINUOUS
1002
{
1002
}
1000
Base
1070
     3
1070
     0
1002
{
1002
}
1002
}
1000
6
1070
     8
1000
6
1002
{
1000
Color
1070
     1
1070
     2
1002
{
1002
}
1000
LType
1070
     4
1000
CONTINUOUS
1002
{
1002
}
1000
Base
1070
     3
1070
     0
1002
{
1002
}
1002
}
1000
7
1070
     8
1000
7
1002
{
1000
Color
1070
     1
1070
     4
1002
{
1002
}
1000
LType
1070
     4
1000
GEN7
1002
{
1002
}
1000
Base
1070
     3
1070
     0
1002
{
1002
}
1002
}
1000
8
1070
     8
1000
8
1002
{
1000
Color
1070
     1
1070
     1
1002
{
1002
}
1000
LType
1070
     4
1000
CONTINUOUS
1002
{
1002
}
1000
Base
1070
     3
1070
     0
1002
{
1002
}
1002
}
1000
3A
1070
     8
1000
3A
1002
{
1000
Color
1070
     1
1070
     6
1002
{
1002
}
1000
LType
1070
     4
1000
GEN3A
1002
{
1002
}
1000
Base
1070
     3
1070
     0
1002
{
1002
}
1002
}
1000
7A
1070
     8
1000
7A
1002
{
1000
Color
1070
     1
1070
     4
1002
{
1002
}
1000
LType
1070
     4
1000
GEN7A
1002
{
1002
}
1000
Base
1070
     3
1070
     0
1002
{
1002
}
1002
}
1000
2A
1070
     8
1000
2A
1002
{
1000
Color
1070
     1
1070
     7
1002
{
1002
}
1000
LType
1070
     4
1000
GEN7
1002
{
1002
}
1000
Base
1070
     3
1070
     0
1002
{
1002
}
1002
}
1000
4A
1070
     8
1000
4A
1002
{
1000
Color
1070
     1
1070
     3
1002
{
1002
}
1000
LType
1070
     4
1000
GEN4A
1002
{
1002
}
1000
Base
1070
     3
1070
     0
1002
{
1002
}
1002
}
1000
9
1070
     8
1000
9
1002
{
1000
Color
1070
     1
1070
   253
1002
{
1002
}
1000
LType
1070
     4
1000
CONTINUOUS
1002
{
1002
}
1000
Base
1070
     3
1070
     0
1002
{
1002
}
1002
}
1000
IP
1070
     8
1000
IP
1002
{
1000
Color
1070
     1
1070
     7
1002
{
1002
}
1000
LType
1070
     4
1000
CONTINUOUS
1002
{
1002
}
1000
Base
1070
     3
1070
     0
1002
{
1002
}
1002
}
1002
}
1000
Standard
1070
     0
1002
{
1000
0N
1070
     8
1000
0N
1002
{
1000
Color
1070
     1
1070
     7
1002
{
1002
}
1000
LType
1070
     4
1000
CONTINUOUS
1002
{
1002
}
1000
Base
1070
     3
1070
     0
1002
{
1002
}
1002
}
1000
1N
1070
     8
1000
1N
1002
{
1000
Color
1070
     1
1070
    14
1002
{
1002
}
1000
LType
1070
     4
1000
CONTINUOUS
1002
{
1002
}
1000
Base
1070
     3
1070
     0
1002
{
1002
}
1002
}
1000
2N
1070
     8
1000
2N
1002
{
1000
Color
1070
     1
1070
     5
1002
{
1002
}
1000
LType
1070
     4
1000
CONTINUOUS
1002
{
1002
}
1000
Base
1070
     3
1070
     0
1002
{
1002
}
1002
}
1000
3N
1070
     8
1000
3N
1002
{
1000
Color
1070
     1
1070
     6
1002
{
1002
}
1000
LType
1070
     4
1000
GEN3
1002
{
1002
}
1000
Base
1070
     3
1070
     0
1002
{
1002
}
1002
}
1000
4N
1070
     8
1000
4N
1002
{
1000
Color
1070
     1
1070
     3
1002
{
1002
}
1000
LType
1070
     4
1000
CONTINUOUS
1002
{
1002
}
1000
Base
1070
     3
1070
     0
1002
{
1002
}
1002
}
1000
5N
1070
     8
1000
5N
1002
{
1000
Color
1070
     1
1070
     3
1002
{
1002
}
1000
LType
1070
     4
1000
CONTINUOUS
1002
{
1002
}
1000
Base
1070
     3
1070
     0
1002
{
1002
}
1002
}
1000
6N
1070
     8
1000
6N
1002
{
1000
Color
1070
     1
1070
     2
1002
{
1002
}
1000
LType
1070
     4
1000
CONTINUOUS
1002
{
1002
}
1000
Base
1070
     3
1070
     0
1002
{
1002
}
1002
}
1000
7N
1070
     8
1000
7N
1002
{
1000
Color
1070
     1
1070
     4
1002
{
1002
}
1000
LType
1070
     4
1000
GEN7
1002
{
1002
}
1000
Base
1070
     3
1070
     0
1002
{
1002
}
1002
}
1000
8N
1070
     8
1000
8N
1002
{
1000
Color
1070
     1
1070
     1
1002
{
1002
}
1000
LType
1070
     4
1000
CONTINUOUS
1002
{
1002
}
1000
Base
1070
     3
1070
     0
1002
{
1002
}
1002
}
1000
3AN
1070
     8
1000
3AN
1002
{
1000
Color
1070
     1
1070
     6
1002
{
1002
}
1000
LType
1070
     4
1000
GEN3A
1002
{
1002
}
1000
Base
1070
     3
1070
     0
1002
{
1002
}
1002
}
1000
7AN
1070
     8
1000
7AN
1002
{
1000
Color
1070
     1
1070
     4
1002
{
1002
}
1000
LType
1070
     4
1000
GEN7A
1002
{
1002
}
1000
Base
1070
     3
1070
     0
1002
{
1002
}
1002
}
1000
2AN
1070
     8
1000
2AN
1002
{
1000
Color
1070
     1
1070
     7
1002
{
1002
}
1000
LType
1070
     4
1000
GEN7
1002
{
1002
}
1000
Base
1070
     3
1070
     0
1002
{
1002
}
1002
}
1000
4AN
1070
     8
1000
4AN
1002
{
1000
Color
1070
     1
1070
     3
1002
{
1002
}
1000
LType
1070
     4
1000
GEN4A
1002
{
1002
}
1000
Base
1070
     3
1070
     0
1002
{
1002
}
1002
}
1000
9N
1070
     8
1000
9N
1002
{
1000
Color
1070
     1
1070
   253
1002
{
1002
}
1000
LType
1070
     4
1000
CONTINUOUS
1002
{
1002
}
1000
Base
1070
     3
1070
     0
1002
{
1002
}
1002
}
1000
IPN
1070
     8
1000
IPN
1002
{
1000
Color
1070
     1
1070
     7
1002
{
1002
}
1000
LType
1070
     4
1000
CONTINUOUS
1002
{
1002
}
1000
Base
1070
     3
1070
     0
1002
{
1002
}
1002
}
1002
}
1000
Extra
1070
     0
1002
{
1000
Klin
1070
     8
1000
KLIN
1002
{
1000
Color
1070
     1
1070
     1
1002
{
1002
}
1000
LType
1070
     4
1000
CONTINUOUS
1002
{
1002
}
1000
Base
1070
     3
1070
     1
1002
{
1002
}
1002
}
1000
Info
1070
     8
1000
INFO
1002
{
1000
Color
1070
     1
1070
     4
1002
{
1002
}
1000
LType
1070
     4
1000
CONTINUOUS
1002
{
1002
}
1000
Base
1070
     3
1070
     1
1002
{
1002
}
1002
}
1000
Rahm2
1070
     8
1000
RAHM2
1002
{
1000
Color
1070
     1
1070
     1
1002
{
1002
}
1000
LType
1070
     4
1000
CONTINUOUS
1002
{
1002
}
1000
Base
1070
     3
1070
     1
1002
{
1002
}
1002
}
1000
Rahm3
1070
     8
1000
RAHM3
1002
{
1000
Color
1070
     1
1070
     2
1002
{
1002
}
1000
LType
1070
     4
1000
CONTINUOUS
1002
{
1002
}
1000
Base
1070
     3
1070
     1
1002
{
1002
}
1002
}
1000
Rahm5
1070
     8
1000
RAHM5
1002
{
1000
Color
1070
     1
1070
     7
1002
{
1002
}
1000
LType
1070
     4
1000
CONTINUOUS
1002
{
1002
}
1000
Base
1070
     3
1070
     1
1002
{
1002
}
1002
}
1000
View
1070
     8
1000
VIEW
1002
{
1000
Color
1070
     1
1070
     1
1002
{
1002
}
1000
LType
1070
     4
1000
CONTINUOUS
1002
{
1002
}
1000
Base
1070
     3
1070
     1
1002
{
1002
}
1002
}
1000
Behind
1070
     8
1000
BEHIND
1002
{
1000
Color
1070
     1
1070
   253
1002
{
1002
}
1000
LType
1070
     4
1000
CONTINUOUS
1002
{
1002
}
1000
Base
1070
     3
1070
     1
1002
{
1002
}
1002
}
1002
}
  0
APPID
  5
1003
330
9
100
AcDbSymbolTableRecord
100
AcDbRegAppTableRecord
  2
GENIUS_GENCFG3_13
 70
     0
1001
GENIUS_GENCFG_13
1071
912092035
1000
1003
1000
GEN@LAYER@ENTSORT
1070
    10
1000
GenCfgObject
1000
GenCfgShort
1000
GenCfgReal
1000
GenCfgBool
1000
GenCfgString
1000
GenCfgDim
1000
GenCfgAttrInf
1000
GenCfgLaySection
1000
GenCfgLayer
1000
GenCfgEntSort
1000
ADDL
1070
     9
1000
5
1002
{
1000
Class
1070
     4
1000
SYM
1002
{
1002
}
1000
Color
1070
     1
1070
     1
1002
{
1002
}
1000
LType
1070
     4
1000
BYLAYER
1002
{
1002
}
1002
}
1000
ALTR
1070
     9
1000
4
1002
{
1000
Class
1070
     4
1000

1002
{
1002
}
1000
Color
1070
     1
1070
     7
1002
{
1002
}
1000
LType
1070
     4
1000
GEN3A
1002
{
1002
}
1002
}
1000
BELI
1070
     9
1000
4
1002
{
1000
Class
1070
     4
1000

1002
{
1002
}
1000
Color
1070
     1
1070
   256
1002
{
1002
}
1000
LType
1070
     4
1000
BYLAYER
1002
{
1002
}
1002
}
1000
BHNV
1070
     9
1000
9
1002
{
1000
Class
1070
     4
1000
INV
1002
{
1002
}
1000
Color
1070
     1
1070
   256
1002
{
1002
}
1000
LType
1070
     4
1000
BYLAYER
1002
{
1002
}
1002
}
1000
BHNVS
1070
     9
1000
BEHIND
1002
{
1000
Class
1070
     4
1000
INV
1002
{
1002
}
1000
Color
1070
     1
1070
   256
1002
{
1002
}
1000
LType
1070
     4
1000
BYLAYER
1002
{
1002
}
1002
}
1000
BLID
1070
     9
1000
4A
1002
{
1000
Class
1070
     4
1000

1002
{
1002
}
1000
Color
1070
     1
1070
   256
1002
{
1002
}
1000
LType
1070
     4
1000
BYLAYER
1002
{
1002
}
1002
}
1000
BOAP
1070
     9
1000
4A
1002
{
1000
Class
1070
     4
1000

1002
{
1002
}
1000
Color
1070
     1
1070
   256
1002
{
1002
}
1000
LType
1070
     4
1000
BYLAYER
1002
{
1002
}
1002
}
1000
BOR2
1070
     9
1000
RAHM2
1002
{
1000
Class
1070
     4
1000
SPZ,SYM
1002
{
1002
}
1000
Color
1070
     1
1070
   256
1002
{
1002
}
1000
LType
1070
     4
1000
BYLAYER
1002
{
1002
}
1002
}
1000
BOR3
1070
     9
1000
RAHM3
1002
{
1000
Class
1070
     4
1000
SPZ,SYM
1002
{
1002
}
1000
Color
1070
     1
1070
   256
1002
{
1002
}
1000
LType
1070
     4
1000
BYLAYER
1002
{
1002
}
1002
}
1000
BOR5
1070
     9
1000
RAHM5
1002
{
1000
Class
1070
     4
1000
SPZ,SYM
1002
{
1002
}
1000
Color
1070
     1
1070
   256
1002
{
1002
}
1000
LType
1070
     4
1000
BYLAYER
1002
{
1002
}
1002
}
1000
BOR7
1070
     9
1000
RAHM5
1002
{
1000
Class
1070
     4
1000
SPZ,SYM
1002
{
1002
}
1000
Color
1070
     1
1070
     7
1002
{
1002
}
1000
LType
1070
     4
1000
CONTINUOUS
1002
{
1002
}
1002
}
1000
BPAP
1070
     9
1000
4A
1002
{
1000
Class
1070
     4
1000

1002
{
1002
}
1000
Color
1070
     1
1070
   256
1002
{
1002
}
1000
LType
1070
     4
1000
BYLAYER
1002
{
1002
}
1002
}
1000
BPEX
1070
     9
1000
4A
1002
{
1000
Class
1070
     4
1000

1002
{
1002
}
1000
Color
1070
     1
1070
   256
1002
{
1002
}
1000
LType
1070
     4
1000
BYLAYER
1002
{
1002
}
1002
}
1000
BTDI
1070
     9
1000
5
1002
{
1000
Class
1070
     4
1000
DIM,SYM
1002
{
1002
}
1000
Color
1070
     1
1070
   256
1002
{
1002
}
1000
LType
1070
     4
1000
BYLAYER
1002
{
1002
}
1002
}
1000
CAL2
1070
     9
1000
4
1002
{
1000
Class
1070
     4
1000
SYM
1002
{
1002
}
1000
Color
1070
     1
1070
   256
1002
{
1002
}
1000
LType
1070
     4
1000
BYLAYER
1002
{
1002
}
1002
}
1000
CAL3
1070
     9
1000
4
1002
{
1000
Class
1070
     4
1000
SYM
1002
{
1002
}
1000
Color
1070
     1
1070
     2
1002
{
1002
}
1000
LType
1070
     4
1000
BYLAYER
1002
{
1002
}
1002
}
1000
CAL5
1070
     9
1000
4
1002
{
1000
Class
1070
     4
1000
SYM
1002
{
1002
}
1000
Color
1070
     1
1070
     7
1002
{
1002
}
1000
LType
1070
     4
1000
BYLAYER
1002
{
1002
}
1002
}
1000
CAL7
1070
     9
1000
4
1002
{
1000
Class
1070
     4
1000
SYM
1002
{
1002
}
1000
Color
1070
     1
1070
     5
1002
{
1002
}
1000
LType
1070
     4
1000
BYLAYER
1002
{
1002
}
1002
}
1000
CENN
1070
     9
1000
7A
1002
{
1000
Class
1070
     4
1000
CEN
1002
{
1002
}
1000
Color
1070
     1
1070
   256
1002
{
1002
}
1000
LType
1070
     4
1000
BYLAYER
1002
{
1002
}
1002
}
1000
CENW
1070
     9
1000
7
1002
{
1000
Class
1070
     4
1000
CEN
1002
{
1002
}
1000
Color
1070
     1
1070
   256
1002
{
1002
}
1000
LType
1070
     4
1000
BYLAYER
1002
{
1002
}
1002
}
1000
CLIN
1070
     9
1000
KLIN
1002
{
1000
Class
1070
     4
1000
SPZ
1002
{
1002
}
1000
Color
1070
     1
1070
   256
1002
{
1002
}
1000
LType
1070
     4
1000
BYLAYER
1002
{
1002
}
1002
}
1000
CON1
1070
     9
1000
0
1002
{
1000
Class
1070
     4
1000
CON,BGD
1002
{
1002
}
1000
Color
1070
     1
1070
   256
1002
{
1002
}
1000
LType
1070
     4
1000
BYLAYER
1002
{
1002
}
1002
}
1000
CON2
1070
     9
1000
1
1002
{
1000
Class
1070
     4
1000
CON,BGD
1002
{
1002
}
1000
Color
1070
     1
1070
   256
1002
{
1002
}
1000
LType
1070
     4
1000
BYLAYER
1002
{
1002
}
1002
}
1000
CON3
1070
     9
1000
2
1002
{
1000
Class
1070
     4
1000
CON,BGD
1002
{
1002
}
1000
Color
1070
     1
1070
   256
1002
{
1002
}
1000
LType
1070
     4
1000
BYLAYER
1002
{
1002
}
1002
}
1000
CON4
1070
     9
1000
2
1002
{
1000
Class
1070
     4
1000
CON,BGD
1002
{
1002
}
1000
Color
1070
     1
1070
   256
1002
{
1002
}
1000
LType
1070
     4
1000
BYLAYER
1002
{
1002
}
1002
}
1000
DERP
1070
     9
1000
4
1002
{
1000
Class
1070
     4
1000

1002
{
1002
}
1000
Color
1070
     1
1070
   256
1002
{
1002
}
1000
LType
1070
     4
1000
BYLAYER
1002
{
1002
}
1002
}
1000
DETA
1070
     9
1000
4
1002
{
1000
Class
1070
     4
1000

1002
{
1002
}
1000
Color
1070
     1
1070
   256
1002
{
1002
}
1000
LType
1070
     4
1000
BYLAYER
1002
{
1002
}
1002
}
1000
DIAG
1070
     9
1000
5
1002
{
1000
Class
1070
     4
1000
SYM
1002
{
1002
}
1000
Color
1070
     1
1070
   256
1002
{
1002
}
1000
LType
1070
     4
1000
BYLAYER
1002
{
1002
}
1002
}
1000
DILI
1070
     9
1000
5
1002
{
1000
Class
1070
     4
1000
DIM,SYM
1002
{
1002
}
1000
Color
1070
     1
1070
   256
1002
{
1002
}
1000
LType
1070
     4
1000
BYLAYER
1002
{
1002
}
1002
}
1000
DITO2
1070
     9
1000
5
1002
{
1000
Class
1070
     4
1000
DIM,SYM
1002
{
1002
}
1000
Color
1070
     1
1070
     3
1002
{
1002
}
1000
LType
1070
     4
1000
BYLAYER
1002
{
1002
}
1002
}
1000
DITO3
1070
     9
1000
5
1002
{
1000
Class
1070
     4
1000
DIM,SYM
1002
{
1002
}
1000
Color
1070
     1
1070
     2
1002
{
1002
}
1000
LType
1070
     4
1000
BYLAYER
1002
{
1002
}
1002
}
1000
DITX
1070
     9
1000
5
1002
{
1000
Class
1070
     4
1000
DIM,SYM
1002
{
1002
}
1000
Color
1070
     1
1070
     2
1002
{
1002
}
1000
LType
1070
     4
1000
CONTINUOUS
1002
{
1002
}
1002
}
1000
DIXL
1070
     9
1000
5
1002
{
1000
Class
1070
     4
1000
DIM,SYM
1002
{
1002
}
1000
Color
1070
     1
1070
   256
1002
{
1002
}
1000
LType
1070
     4
1000
BYLAYER
1002
{
1002
}
1002
}
1000
EXMP
1070
     9
1000
4A
1002
{
1000
Class
1070
     4
1000

1002
{
1002
}
1000
Color
1070
     1
1070
   256
1002
{
1002
}
1000
LType
1070
     4
1000
BYLAYER
1002
{
1002
}
1002
}
1000
FEMN
1070
     9
1000
8
1002
{
1000
Class
1070
     4
1000

1002
{
1002
}
1000
Color
1070
     1
1070
   256
1002
{
1002
}
1000
LType
1070
     4
1000
BYLAYER
1002
{
1002
}
1002
}
1000
FEMPN
1070
     9
1000
8
1002
{
1000
Class
1070
     4
1000
SYM
1002
{
1002
}
1000
Color
1070
     1
1070
     3
1002
{
1002
}
1000
LType
1070
     4
1000
BYLAYER
1002
{
1002
}
1002
}
1000
FEMSP
1070
     9
1000
4A
1002
{
1000
Class
1070
     4
1000

1002
{
1002
}
1000
Color
1070
     1
1070
   256
1002
{
1002
}
1000
LType
1070
     4
1000
CONTINUOUS
1002
{
1002
}
1002
}
1000
FEMST
1070
     9
1000
4A
1002
{
1000
Class
1070
     4
1000
SYM
1002
{
1002
}
1000
Color
1070
     1
1070
     3
1002
{
1002
}
1000
LType
1070
     4
1000
BYLAYER
1002
{
1002
}
1002
}
1000
FEMVN
1070
     9
1000
2
1002
{
1000
Class
1070
     4
1000
CON
1002
{
1002
}
1000
Color
1070
     1
1070
   256
1002
{
1002
}
1000
LType
1070
     4
1000
BYLAYER
1002
{
1002
}
1002
}
1000
FEMVT
1070
     9
1000
2
1002
{
1000
Class
1070
     4
1000
SYM
1002
{
1002
}
1000
Color
1070
     1
1070
     3
1002
{
1002
}
1000
LType
1070
     4
1000
BYLAYER
1002
{
1002
}
1002
}
1000
FLAT
1070
     9
1000
0
1002
{
1000
Class
1070
     4
1000

1002
{
1002
}
1000
Color
1070
     1
1070
   256
1002
{
1002
}
1000
LType
1070
     4
1000
BYLAYER
1002
{
1002
}
1002
}
1000
FRAR
1070
     9
1000
4A
1002
{
1000
Class
1070
     4
1000

1002
{
1002
}
1000
Color
1070
     1
1070
   256
1002
{
1002
}
1000
LType
1070
     4
1000
BYLAYER
1002
{
1002
}
1002
}
1000
GRLI
1070
     9
1000
5
1002
{
1000
Class
1070
     4
1000
SYM
1002
{
1002
}
1000
Color
1070
     1
1070
   256
1002
{
1002
}
1000
LType
1070
     4
1000
BYLAYER
1002
{
1002
}
1002
}
1000
GVLI
1070
     9
1000
4A
1002
{
1000
Class
1070
     4
1000

1002
{
1002
}
1000
Color
1070
     1
1070
   256
1002
{
1002
}
1000
LType
1070
     4
1000
BYLAYER
1002
{
1002
}
1002
}
1000
HATC
1070
     9
1000
8
1002
{
1000
Class
1070
     4
1000
HTC,BGD
1002
{
1002
}
1000
Color
1070
     1
1070
   256
1002
{
1002
}
1000
LType
1070
     4
1000
BYLAYER
1002
{
1002
}
1002
}
1000
HIDN
1070
     9
1000
3A
1002
{
1000
Class
1070
     4
1000
HID,BGD
1002
{
1002
}
1000
Color
1070
     1
1070
   256
1002
{
1002
}
1000
LType
1070
     4
1000
BYLAYER
1002
{
1002
}
1002
}
1000
HIDW
1070
     9
1000
3
1002
{
1000
Class
1070
     4
1000
HID,BGD
1002
{
1002
}
1000
Color
1070
     1
1070
   256
1002
{
1002
}
1000
LType
1070
     4
1000
BYLAYER
1002
{
1002
}
1002
}
1000
HLIN
1070
     9
1000
4
1002
{
1000
Class
1070
     4
1000
BGD
1002
{
1002
}
1000
Color
1070
     1
1070
   256
1002
{
1002
}
1000
LType
1070
     4
1000
BYLAYER
1002
{
1002
}
1002
}
1000
HOCN
1070
     9
1000
7A
1002
{
1000
Class
1070
     4
1000
CEN
1002
{
1002
}
1000
Color
1070
     1
1070
   256
1002
{
1002
}
1000
LType
1070
     4
1000
BYLAYER
1002
{
1002
}
1002
}
1000
HOCW
1070
     9
1000
7
1002
{
1000
Class
1070
     4
1000
CEN
1002
{
1002
}
1000
Color
1070
     1
1070
   256
1002
{
1002
}
1000
LType
1070
     4
1000
BYLAYER
1002
{
1002
}
1002
}
1000
INFO
1070
     9
1000
INFO
1002
{
1000
Class
1070
     4
1000
SPZ,SYM
1002
{
1002
}
1000
Color
1070
     1
1070
   256
1002
{
1002
}
1000
LType
1070
     4
1000
BYLAYER
1002
{
1002
}
1002
}
1000
LADI
1070
     9
1000
4
1002
{
1000
Class
1070
     4
1000
BGD
1002
{
1002
}
1000
Color
1070
     1
1070
   256
1002
{
1002
}
1000
LType
1070
     4
1000
BYLAYER
1002
{
1002
}
1002
}
1000
LEAD
1070
     9
1000
5
1002
{
1000
Class
1070
     4
1000
SYM
1002
{
1002
}
1000
Color
1070
     1
1070
   256
1002
{
1002
}
1000
LType
1070
     4
1000
BYLAYER
1002
{
1002
}
1002
}
1000
N_ADDL
1070
     9
1000
5N
1002
{
1000
Class
1070
     4
1000
SYM
1002
{
1002
}
1000
Color
1070
     1
1070
     1
1002
{
1002
}
1000
LType
1070
     4
1000
BYLAYER
1002
{
1002
}
1002
}
1000
N_BHNV
1070
     9
1000
9N
1002
{
1000
Class
1070
     4
1000
INV
1002
{
1002
}
1000
Color
1070
     1
1070
   256
1002
{
1002
}
1000
LType
1070
     4
1000
BYLAYER
1002
{
1002
}
1002
}
1000
N_CON1
1070
     9
1000
0N
1002
{
1000
Class
1070
     4
1000
CON,BGD
1002
{
1002
}
1000
Color
1070
     1
1070
   256
1002
{
1002
}
1000
LType
1070
     4
1000
BYLAYER
1002
{
1002
}
1002
}
1000
N_CON2
1070
     9
1000
1N
1002
{
1000
Class
1070
     4
1000
CON,BGD
1002
{
1002
}
1000
Color
1070
     1
1070
   256
1002
{
1002
}
1000
LType
1070
     4
1000
BYLAYER
1002
{
1002
}
1002
}
1000
N_CON3
1070
     9
1000
2N
1002
{
1000
Class
1070
     4
1000
CON,BGD
1002
{
1002
}
1000
Color
1070
     1
1070
   256
1002
{
1002
}
1000
LType
1070
     4
1000
BYLAYER
1002
{
1002
}
1002
}
1000
N_CON4
1070
     9
1000
2N
1002
{
1000
Class
1070
     4
1000
CON,BGD
1002
{
1002
}
1000
Color
1070
     1
1070
   256
1002
{
1002
}
1000
LType
1070
     4
1000
BYLAYER
1002
{
1002
}
1002
}
1000
N_CENN
1070
     9
1000
7AN
1002
{
1000
Class
1070
     4
1000
CEN
1002
{
1002
}
1000
Color
1070
     1
1070
   256
1002
{
1002
}
1000
LType
1070
     4
1000
BYLAYER
1002
{
1002
}
1002
}
1000
N_CENW
1070
     9
1000
7N
1002
{
1000
Class
1070
     4
1000
CEN
1002
{
1002
}
1000
Color
1070
     1
1070
   256
1002
{
1002
}
1000
LType
1070
     4
1000
BYLAYER
1002
{
1002
}
1002
}
1000
N_DILI
1070
     9
1000
5N
1002
{
1000
Class
1070
     4
1000
DIM,SYM
1002
{
1002
}
1000
Color
1070
     1
1070
   256
1002
{
1002
}
1000
LType
1070
     4
1000
BYLAYER
1002
{
1002
}
1002
}
1000
N_DITX
1070
     9
1000
5N
1002
{
1000
Class
1070
     4
1000
DIM,SYM
1002
{
1002
}
1000
Color
1070
     1
1070
     2
1002
{
1002
}
1000
LType
1070
     4
1000
CONTINUOUS
1002
{
1002
}
1002
}
1000
N_DIXL
1070
     9
1000
5N
1002
{
1000
Class
1070
     4
1000
DIM,SYM
1002
{
1002
}
1000
Color
1070
     1
1070
   256
1002
{
1002
}
1000
LType
1070
     4
1000
BYLAYER
1002
{
1002
}
1002
}
1000
N_HATC
1070
     9
1000
8N
1002
{
1000
Class
1070
     4
1000
HTC,BGD
1002
{
1002
}
1000
Color
1070
     1
1070
   256
1002
{
1002
}
1000
LType
1070
     4
1000
BYLAYER
1002
{
1002
}
1002
}
1000
N_HIDN
1070
     9
1000
3AN
1002
{
1000
Class
1070
     4
1000
HID,BGD
1002
{
1002
}
1000
Color
1070
     1
1070
   256
1002
{
1002
}
1000
LType
1070
     4
1000
BYLAYER
1002
{
1002
}
1002
}
1000
N_HIDW
1070
     9
1000
3N
1002
{
1000
Class
1070
     4
1000
HID,BGD
1002
{
1002
}
1000
Color
1070
     1
1070
   256
1002
{
1002
}
1000
LType
1070
     4
1000
BYLAYER
1002
{
1002
}
1002
}
1000
N_NGIP
1070
     9
1000
IPN
1002
{
1000
Class
1070
     4
1000

1002
{
1002
}
1000
Color
1070
     1
1070
   256
1002
{
1002
}
1000
LType
1070
     4
1000
BYLAYER
1002
{
1002
}
1002
}
1000
N_PHAN
1070
     9
1000
4AN
1002
{
1000
Class
1070
     4
1000

1002
{
1002
}
1000
Color
1070
     1
1070
   256
1002
{
1002
}
1000
LType
1070
     4
1000
BYLAYER
1002
{
1002
}
1002
}
1000
N_POSL
1070
     9
1000
5N
1002
{
1000
Class
1070
     4
1000
SYM
1002
{
1002
}
1000
Color
1070
     1
1070
   256
1002
{
1002
}
1000
LType
1070
     4
1000
BYLAYER
1002
{
1002
}
1002
}
1000
N_TCON
1070
     9
1000
0N
1002
{
1000
Class
1070
     4
1000
CON,BGD
1002
{
1002
}
1000
Color
1070
     1
1070
   256
1002
{
1002
}
1000
LType
1070
     4
1000
BYLAYER
1002
{
1002
}
1002
}
1000
N_THLI
1070
     9
1000
4N
1002
{
1000
Class
1070
     4
1000
BGD
1002
{
1002
}
1000
Color
1070
     1
1070
   256
1002
{
1002
}
1000
LType
1070
     4
1000
BYLAYER
1002
{
1002
}
1002
}
1000
N_TLEN
1070
     9
1000
0N
1002
{
1000
Class
1070
     4
1000
CON,BGD
1002
{
1002
}
1000
Color
1070
     1
1070
   256
1002
{
1002
}
1000
LType
1070
     4
1000
BYLAYER
1002
{
1002
}
1002
}
1000
N_TXT3
1070
     9
1000
6N
1002
{
1000
Class
1070
     4
1000
SYM
1002
{
1002
}
1000
Color
1070
     1
1070
   256
1002
{
1002
}
1000
LType
1070
     4
1000
BYLAYER
1002
{
1002
}
1002
}
1000
N_VPLI
1070
     9
1000
2AN
1002
{
1000
Class
1070
     4
1000

1002
{
1002
}
1000
Color
1070
     1
1070
   256
1002
{
1002
}
1000
LType
1070
     4
1000
BYLAYER
1002
{
1002
}
1002
}
1000
NGIP
1070
     9
1000
IP
1002
{
1000
Class
1070
     4
1000

1002
{
1002
}
1000
Color
1070
     1
1070
   256
1002
{
1002
}
1000
LType
1070
     4
1000
BYLAYER
1002
{
1002
}
1002
}
1000
PAL2
1070
     9
1000
RAHM2
1002
{
1000
Class
1070
     4
1000
SPZ,SYM
1002
{
1002
}
1000
Color
1070
     1
1070
   256
1002
{
1002
}
1000
LType
1070
     4
1000
BYLAYER
1002
{
1002
}
1002
}
1000
PAL3
1070
     9
1000
RAHM3
1002
{
1000
Class
1070
     4
1000
SPZ,SYM
1002
{
1002
}
1000
Color
1070
     1
1070
   256
1002
{
1002
}
1000
LType
1070
     4
1000
BYLAYER
1002
{
1002
}
1002
}
1000
PAL5
1070
     9
1000
RAHM5
1002
{
1000
Class
1070
     4
1000
SPZ,SYM
1002
{
1002
}
1000
Color
1070
     1
1070
   256
1002
{
1002
}
1000
LType
1070
     4
1000
BYLAYER
1002
{
1002
}
1002
}
1000
PAL7
1070
     9
1000
RAHM5
1002
{
1000
Class
1070
     4
1000
SPZ,SYM
1002
{
1002
}
1000
Color
1070
     1
1070
     7
1002
{
1002
}
1000
LType
1070
     4
1000
CONTINUOUS
1002
{
1002
}
1002
}
1000
PHAN
1070
     9
1000
4A
1002
{
1000
Class
1070
     4
1000

1002
{
1002
}
1000
Color
1070
     1
1070
   256
1002
{
1002
}
1000
LType
1070
     4
1000
BYLAYER
1002
{
1002
}
1002
}
1000
POSL
1070
     9
1000
5
1002
{
1000
Class
1070
     4
1000
SYM
1002
{
1002
}
1000
Color
1070
     1
1070
   256
1002
{
1002
}
1000
LType
1070
     4
1000
BYLAYER
1002
{
1002
}
1002
}
1000
POSN
1070
     9
1000
6
1002
{
1000
Class
1070
     4
1000
SYM
1002
{
1002
}
1000
Color
1070
     1
1070
     7
1002
{
1002
}
1000
LType
1070
     4
1000
BYLAYER
1002
{
1002
}
1002
}
1000
POSREF
1070
     9
1000
6
1002
{
1000
Class
1070
     4
1000
SYM
1002
{
1002
}
1000
Color
1070
     1
1070
     5
1002
{
1002
}
1000
LType
1070
     4
1000
BYLAYER
1002
{
1002
}
1002
}
1000
POSX
1070
     9
1000
5
1002
{
1000
Class
1070
     4
1000
SYM
1002
{
1002
}
1000
Color
1070
     1
1070
     2
1002
{
1002
}
1000
LType
1070
     4
1000
CONTINUOUS
1002
{
1002
}
1002
}
1000
PSEC
1070
     9
1000
4A
1002
{
1000
Class
1070
     4
1000

1002
{
1002
}
1000
Color
1070
     1
1070
   256
1002
{
1002
}
1000
LType
1070
     4
1000
BYLAYER
1002
{
1002
}
1002
}
1000
RCGN
1070
     9
1000
7A
1002
{
1000
Class
1070
     4
1000
CEN
1002
{
1002
}
1000
Color
1070
     1
1070
   256
1002
{
1002
}
1000
LType
1070
     4
1000
BYLAYER
1002
{
1002
}
1002
}
1000
RCGW
1070
     9
1000
7
1002
{
1000
Class
1070
     4
1000
CEN
1002
{
1002
}
1000
Color
1070
     1
1070
   256
1002
{
1002
}
1000
LType
1070
     4
1000
BYLAYER
1002
{
1002
}
1002
}
1000
RFDI
1070
     9
1000
4
1002
{
1000
Class
1070
     4
1000
BGD
1002
{
1002
}
1000
Color
1070
     1
1070
   256
1002
{
1002
}
1000
LType
1070
     4
1000
BYLAYER
1002
{
1002
}
1002
}
1000
RQTR
1070
     9
1000
4
1002
{
1000
Class
1070
     4
1000

1002
{
1002
}
1000
Color
1070
     1
1070
     7
1002
{
1002
}
1000
LType
1070
     4
1000
GEN7A
1002
{
1002
}
1002
}
1000
RSBO
1070
     9
1000
4
1002
{
1000
Class
1070
     4
1000
BGD
1002
{
1002
}
1000
Color
1070
     1
1070
   256
1002
{
1002
}
1000
LType
1070
     4
1000
BYLAYER
1002
{
1002
}
1002
}
1000
SBRK
1070
     9
1000
4
1002
{
1000
Class
1070
     4
1000
BGD
1002
{
1002
}
1000
Color
1070
     1
1070
   256
1002
{
1002
}
1000
LType
1070
     4
1000
BYLAYER
1002
{
1002
}
1002
}
1000
SCEN
1070
     9
1000
7
1002
{
1000
Class
1070
     4
1000

1002
{
1002
}
1000
Color
1070
     1
1070
   256
1002
{
1002
}
1000
LType
1070
     4
1000
CONTINUOUS
1002
{
1002
}
1002
}
1000
SECT
1070
     9
1000
4
1002
{
1000
Class
1070
     4
1000
BGD
1002
{
1002
}
1000
Color
1070
     1
1070
   256
1002
{
1002
}
1000
LType
1070
     4
1000
BYLAYER
1002
{
1002
}
1002
}
1000
SELN
1070
     9
1000
7A
1002
{
1000
Class
1070
     4
1000

1002
{
1002
}
1000
Color
1070
     1
1070
   256
1002
{
1002
}
1000
LType
1070
     4
1000
BYLAYER
1002
{
1002
}
1002
}
1000
SELW
1070
     9
1000
7
1002
{
1000
Class
1070
     4
1000

1002
{
1002
}
1000
Color
1070
     1
1070
   256
1002
{
1002
}
1000
LType
1070
     4
1000
BYLAYER
1002
{
1002
}
1002
}
1000
SSYS
1070
     9
1000
0
1002
{
1000
Class
1070
     4
1000

1002
{
1002
}
1000
Color
1070
     1
1070
   256
1002
{
1002
}
1000
LType
1070
     4
1000
BYLAYER
1002
{
1002
}
1002
}
1000
STLI
1070
     9
1000
4
1002
{
1000
Class
1070
     4
1000

1002
{
1002
}
1000
Color
1070
     1
1070
     7
1002
{
1002
}
1000
LType
1070
     4
1000
GEN3A
1002
{
1002
}
1002
}
1000
SYB1
1070
     9
1000
5
1002
{
1000
Class
1070
     4
1000
SYM
1002
{
1002
}
1000
Color
1070
     1
1070
   256
1002
{
1002
}
1000
LType
1070
     4
1000
BYLAYER
1002
{
1002
}
1002
}
1000
SYB2
1070
     9
1000
5
1002
{
1000
Class
1070
     4
1000
SYM
1002
{
1002
}
1000
Color
1070
     1
1070
   256
1002
{
1002
}
1000
LType
1070
     4
1000
BYLAYER
1002
{
1002
}
1002
}
1000
SYB3
1070
     9
1000
6
1002
{
1000
Class
1070
     4
1000
SYM
1002
{
1002
}
1000
Color
1070
     1
1070
   256
1002
{
1002
}
1000
LType
1070
     4
1000
CONTINUOUS
1002
{
1002
}
1002
}
1000
SYB5
1070
     9
1000
5
1002
{
1000
Class
1070
     4
1000
SYM
1002
{
1002
}
1000
Color
1070
     1
1070
     7
1002
{
1002
}
1000
LType
1070
     4
1000
BYLAYER
1002
{
1002
}
1002
}
1000
SYMN
1070
     9
1000
7A
1002
{
1000
Class
1070
     4
1000
CEN
1002
{
1002
}
1000
Color
1070
     1
1070
   256
1002
{
1002
}
1000
LType
1070
     4
1000
BYLAYER
1002
{
1002
}
1002
}
1000
SYMW
1070
     9
1000
7
1002
{
1000
Class
1070
     4
1000
CEN
1002
{
1002
}
1000
Color
1070
     1
1070
   256
1002
{
1002
}
1000
LType
1070
     4
1000
BYLAYER
1002
{
1002
}
1002
}
1000
TCON
1070
     9
1000
0
1002
{
1000
Class
1070
     4
1000
CON,BGD
1002
{
1002
}
1000
Color
1070
     1
1070
   256
1002
{
1002
}
1000
LType
1070
     4
1000
BYLAYER
1002
{
1002
}
1002
}
1000
THLI
1070
     9
1000
4
1002
{
1000
Class
1070
     4
1000
BGD
1002
{
1002
}
1000
Color
1070
     1
1070
   256
1002
{
1002
}
1000
LType
1070
     4
1000
BYLAYER
1002
{
1002
}
1002
}
1000
TIT2
1070
     9
1000
RAHM2
1002
{
1000
Class
1070
     4
1000
SPZ,SYM
1002
{
1002
}
1000
Color
1070
     1
1070
   256
1002
{
1002
}
1000
LType
1070
     4
1000
BYLAYER
1002
{
1002
}
1002
}
1000
TIT3
1070
     9
1000
RAHM3
1002
{
1000
Class
1070
     4
1000
SPZ,SYM
1002
{
1002
}
1000
Color
1070
     1
1070
   256
1002
{
1002
}
1000
LType
1070
     4
1000
BYLAYER
1002
{
1002
}
1002
}
1000
TIT5
1070
     9
1000
RAHM5
1002
{
1000
Class
1070
     4
1000
SPZ,SYM
1002
{
1002
}
1000
Color
1070
     1
1070
   256
1002
{
1002
}
1000
LType
1070
     4
1000
BYLAYER
1002
{
1002
}
1002
}
1000
TIT7
1070
     9
1000
RAHM5
1002
{
1000
Class
1070
     4
1000
SPZ,SYM
1002
{
1002
}
1000
Color
1070
     1
1070
     7
1002
{
1002
}
1000
LType
1070
     4
1000
CONTINUOUS
1002
{
1002
}
1002
}
1000
TLEN
1070
     9
1000
0
1002
{
1000
Class
1070
     4
1000
CON,BGD
1002
{
1002
}
1000
Color
1070
     1
1070
   256
1002
{
1002
}
1000
LType
1070
     4
1000
BYLAYER
1002
{
1002
}
1002
}
1000
TRKN
1070
     9
1000
7A
1002
{
1000
Class
1070
     4
1000

1002
{
1002
}
1000
Color
1070
     1
1070
   256
1002
{
1002
}
1000
LType
1070
     4
1000
BYLAYER
1002
{
1002
}
1002
}
1000
TRKW
1070
     9
1000
7
1002
{
1000
Class
1070
     4
1000

1002
{
1002
}
1000
Color
1070
     1
1070
   256
1002
{
1002
}
1000
LType
1070
     4
1000
BYLAYER
1002
{
1002
}
1002
}
1000
TRLI
1070
     9
1000
4
1002
{
1000
Class
1070
     4
1000
BGD
1002
{
1002
}
1000
Color
1070
     1
1070
   256
1002
{
1002
}
1000
LType
1070
     4
1000
BYLAYER
1002
{
1002
}
1002
}
1000
TXT1
1070
     9
1000
6
1002
{
1000
Class
1070
     4
1000
SYM
1002
{
1002
}
1000
Color
1070
     1
1070
     2
1002
{
1002
}
1000
LType
1070
     4
1000
BYLAYER
1002
{
1002
}
1002
}
1000
TXT2
1070
     9
1000
6
1002
{
1000
Class
1070
     4
1000
SYM
1002
{
1002
}
1000
Color
1070
     1
1070
     2
1002
{
1002
}
1000
LType
1070
     4
1000
BYLAYER
1002
{
1002
}
1002
}
1000
TXT3
1070
     9
1000
6
1002
{
1000
Class
1070
     4
1000
SYM
1002
{
1002
}
1000
Color
1070
     1
1070
   256
1002
{
1002
}
1000
LType
1070
     4
1000
BYLAYER
1002
{
1002
}
1002
}
1000
TXT5
1070
     9
1000
6
1002
{
1000
Class
1070
     4
1000
SYM
1002
{
1002
}
1000
Color
1070
     1
1070
     7
1002
{
1002
}
1000
LType
1070
     4
1000
BYLAYER
1002
{
1002
}
1002
}
1000
TXT7
1070
     9
1000
6
1002
{
1000
Class
1070
     4
1000
SYM
1002
{
1002
}
1000
Color
1070
     1
1070
     7
1002
{
1002
}
1000
LType
1070
     4
1000
BYLAYER
1002
{
1002
}
1002
}
1000
VIEW
1070
     9
1000
VIEW
1002
{
1000
Class
1070
     4
1000
SPZ
1002
{
1002
}
1000
Color
1070
     1
1070
   256
1002
{
1002
}
1000
LType
1070
     4
1000
BYLAYER
1002
{
1002
}
1002
}
1000
VPLI
1070
     9
1000
2A
1002
{
1000
Class
1070
     4
1000

1002
{
1002
}
1000
Color
1070
     1
1070
   256
1002
{
1002
}
1000
LType
1070
     4
1000
BYLAYER
1002
{
1002
}
1002
}
1000
ZIZA
1070
     9
1000
4
1002
{
1000
Class
1070
     4
1000
BGD
1002
{
1002
}
1000
Color
1070
     1
1070
   256
1002
{
1002
}
1000
LType
1070
     4
1000
GENZIGZAG
1002
{
1002
}
1002
}
  0
APPID
  5
1004
330
9
100
AcDbSymbolTableRecord
100
AcDbRegAppTableRecord
  2
GENIUS_GENCFG4_13
 70
     0
1001
GENIUS_GENCFG_13
1071
912092039
1000
1004
1000
GEN
1070
     9
1000
GenCfgObject
1000
GenCfgShort
1000
GenCfgReal
1000
GenCfgBool
1000
GenCfgString
1000
GenCfgDim
1000
GenCfgLaySection
1000
GenCfgLType
1000
GenCfgFilter
1000
Balloon
1070
     0
1002
{
1000
GenIF
1070
     1
1070
     3
1002
{
1002
}
1000
GenPosInc
1070
     1
1070
     1
1002
{
1002
}
1000
GenPosBlk
1070
     1
1070
     8
1002
{
1002
}
1000
GenPosVar
1070
     1
1070
     0
1002
{
1002
}
1000
GenZiCir
1070
     2
1040
1.5
1002
{
1002
}
1000
MaxCharForCenteredText
1070
     1
1070
    30
1002
{
1002
}
1000
Snap
1070
     0
1002
{
1000
ActivationRadius
1070
     2
1040
1.0
1002
{
1002
}
1000
M
1070
     0
1002
{
1000
SnapStepX
1070
     2
1040
20.0
1002
{
1002
}
1000
SnapStepY
1070
     2
1040
10.0
1002
{
1002
}
1002
}
1000
I
1070
     0
1002
{
1000
SnapStepX
1070
     2
1040
1.0
1002
{
1002
}
1000
SnapStepY
1070
     2
1040
0.5
1002
{
1002
}
1002
}
1002
}
1002
}
1000
Centerline
1070
     0
1002
{
1000
ScaleNot
1070
     3
1070
     0
1002
{
1002
}
1000
M
1070
     0
1002
{
1000
GenCenAng
1070
     4
1000
45|90|135
1002
{
1002
}
1000
GenCenDia
1070
     2
1040
10.0
1002
{
1002
}
1000
GenCenDias
1070
     4
1000
10|20|30
1002
{
1002
}
1000
GenCenDist
1070
     2
1040
3.0
1002
{
1002
}
1000
GenCenLen
1070
     2
1040
10.0
1002
{
1002
}
1000
GenCenOff
1070
     2
1040
10.0
1002
{
1002
}
1002
}
1000
I
1070
     0
1002
{
1000
GenCenAng
1070
     4
1000
45|90|135
1002
{
1002
}
1000
GenCenDia
1070
     2
1040
0.5
1002
{
1002
}
1000
GenCenDias
1070
     4
1000
0.5|1.0|1.5
1002
{
1002
}
1000
GenCenDist
1070
     2
1040
0.125
1002
{
1002
}
1000
GenCenLen
1070
     2
1040
0.5
1002
{
1002
}
1000
GenCenOff
1070
     2
1040
0.5
1002
{
1002
}
1002
}
1002
}
1000
CLine
1070
     0
1002
{
1000
CAngArray
1070
     4
1000
30|45|60
1002
{
1002
}
1000
Typ
1070
     4
1000
XLINE
1002
{
1002
}
1000
M
1070
     0
1002
{
1000
CLinArray
1070
     4
1000
10|20|30
1002
{
1002
}
1002
}
1000
I
1070
     0
1002
{
1000
CLinArray
1070
     4
1000
0.125|0.25|0.5
1002
{
1002
}
1002
}
1002
}
1000
Detail
1070
     0
1002
{
1002
}
1000
Dimension
1070
     5
1002
{
1000
DIMALT
1070
     1
1070
     0
1002
{
1002
}
1000
DIMALTD
1070
     1
1070
     2
1002
{
1002
}
1000
DIMALTTD
1070
     1
1070
     4
1002
{
1002
}
1000
DIMALTTZ
1070
     1
1070
     0
1002
{
1002
}
1000
DIMALTU
1070
     1
1070
     2
1002
{
1002
}
1000
DIMALTZ
1070
     1
1070
     0
1002
{
1002
}
1000
DIMAUNIT
1070
     1
1070
     0
1002
{
1002
}
1000
DIMBLK
1070
     4
1000

1002
{
1002
}
1000
DIMBLK1
1070
     4
1000

1002
{
1002
}
1000
DIMBLK2
1070
     4
1000

1002
{
1002
}
1000
DIMCLRD
1070
     1
1070
   256
1002
{
1002
}
1000
DIMCLRE
1070
     1
1070
   256
1002
{
1002
}
1000
DIMCLRT
1070
     1
1070
     2
1002
{
1002
}
1000
DIMDLE
1070
     2
1040
0.0
1002
{
1002
}
1000
DIMFIT
1070
     1
1070
     3
1002
{
1002
}
1000
DIMJUST
1070
     1
1070
     0
1002
{
1002
}
1000
DIMLFAC
1070
     2
1040
1.0
1002
{
1002
}
1000
DIMLIM
1070
     1
1070
     0
1002
{
1002
}
1000
DIMPOST
1070
     4
1000

1002
{
1002
}
1000
DIMRND
1070
     2
1040
0.0
1002
{
1002
}
1000
DIMSAH
1070
     1
1070
     0
1002
{
1002
}
1000
DIMSCALE
1070
     2
1040
1.0
1002
{
1000
S1_5
1070
     4
1000
5
1002
{
1002
}
1000
S1_10
1070
     4
1000
10
1002
{
1002
}
1002
}
1000
DIMSD1
1070
     1
1070
     0
1002
{
1002
}
1000
DIMSD2
1070
     1
1070
     0
1002
{
1002
}
1000
DIMSE1
1070
     1
1070
     0
1002
{
1002
}
1000
DIMSE2
1070
     1
1070
     0
1002
{
1002
}
1000
DIMSOXD
1070
     1
1070
     0
1002
{
1002
}
1000
DIMTAD
1070
     1
1070
     0
1002
{
1002
}
1000
DIMTFAC
1070
     2
1040
0.71
1002
{
1002
}
1000
DIMTIH
1070
     1
1070
     0
1002
{
1002
}
1000
DIMTIX
1070
     1
1070
     0
1002
{
1002
}
1000
DIMTM
1070
     2
1040
0.1
1002
{
1002
}
1000
DIMTOFL
1070
     1
1070
     0
1002
{
1002
}
1000
DIMTOH
1070
     1
1070
     0
1002
{
1002
}
1000
DIMTOL
1070
     1
1070
     0
1002
{
1002
}
1000
DIMTOLJ
1070
     1
1070
     1
1002
{
1002
}
1000
DIMTP
1070
     2
1040
0.1
1002
{
1002
}
1000
DIMTSZ
1070
     2
1040
0.0
1002
{
1002
}
1000
DIMTVP
1070
     2
1040
0.0
1002
{
1002
}
1000
DIMTXSTY
1070
     4
1000
STANDARD
1002
{
1002
}
1000
DIMTZIN
1070
     1
1070
     0
1002
{
1002
}
1000
DIMUNIT
1070
     1
1070
     2
1002
{
1002
}
1000
DIMUPT
1070
     1
1070
     0
1002
{
1002
}
1000
M
1070
     0
1002
{
1000
DIMALTF
1070
     2
1040
0.0393701
1002
{
1002
}
1000
DIMAPOST
1070
     4
1000
"
1002
{
1002
}
1000
DIMASZ
1070
     2
1040
2.5
1002
{
1002
}
1000
DIMCEN
1070
     2
1040
0.0
1002
{
1002
}
1000
DIMDEC
1070
     1
1070
     2
1002
{
1002
}
1000
DIMDLI
1070
     2
1040
7.0
1002
{
1002
}
1000
DIMEXE
1070
     2
1040
1.0
1002
{
1002
}
1000
DIMEXO
1070
     2
1040
1.0
1002
{
1002
}
1000
DIMGAP
1070
     2
1040
0.6
1002
{
1002
}
1000
DIMTDEC
1070
     1
1070
     3
1002
{
1002
}
1000
DIMTXT
1070
     2
1040
3.5
1002
{
1002
}
1000
DIMZIN
1070
     1
1070
     8
1002
{
1002
}
1002
}
1000
I
1070
     0
1002
{
1000
DIMALTF
1070
     2
1040
25.4
1002
{
1002
}
1000
DIMAPOST
1070
     4
1000
mm
1002
{
1002
}
1000
DIMASZ
1070
     2
1040
0.1
1002
{
1002
}
1000
DIMCEN
1070
     2
1040
0.0
1002
{
1002
}
1000
DIMDEC
1070
     1
1070
     4
1002
{
1002
}
1000
DIMDLI
1070
     2
1040
0.5
1002
{
1002
}
1000
DIMEXE
1070
     2
1040
0.1
1002
{
1002
}
1000
DIMEXO
1070
     2
1040
0.05
1002
{
1002
}
1000
DIMGAP
1070
     2
1040
0.06
1002
{
1002
}
1000
DIMTDEC
1070
     1
1070
     4
1002
{
1002
}
1000
DIMTXT
1070
     2
1040
0.12
1002
{
1002
}
1000
DIMZIN
1070
     1
1070
     7
1002
{
1002
}
1002
}
1000
GEN-ISO
1070
     5
1002
{
1000
NAME
1070
     4
1000
GEN-ISO
1002
{
1002
}
1000
DIMTAD
1070
     1
1070
     1
1002
{
1002
}
1000
DIMTOLJ
1070
     1
1070
     0
1002
{
1002
}
1000
DIMTOFL
1070
     1
1070
     1
1002
{
1002
}
1000
M
1070
     0
1002
{
1000
DIMEXE
1070
     2
1040
0.0
1002
{
1002
}
1000
DIMEXO
1070
     2
1040
0.0
1002
{
1002
}
1002
}
1000
I
1070
     0
1002
{
1002
}
1002
}
1000
GEN-ISO-POS
1070
     5
1002
{
1000
NAME
1070
     4
1000
GEN-ISO-POS
1002
{
1002
}
1000
DIMTOLJ
1070
     1
1070
     0
1002
{
1002
}
1000
DIMTXSTY
1070
     4
1000
STANDARD
1002
{
1002
}
1000
M
1070
     0
1002
{
1000
DIMASZ
1070
     2
1040
2.5
1002
{
1002
}
1000
DIMGAP
1070
     2
1040
1.5
1002
{
1002
}
1000
DIMTXT
1070
     2
1040
5.0
1002
{
1002
}
1002
}
1000
I
1070
     0
1002
{
1000
DIMASZ
1070
     2
1040
0.1
1002
{
1002
}
1000
DIMGAP
1070
     2
1040
0.06
1002
{
1002
}
1000
DIMTXT
1070
     2
1040
0.2
1002
{
1002
}
1002
}
1002
}
1000
GEN-ISO-CIR
1070
     5
1002
{
1000
NAME
1070
     4
1000
GEN-ISO$3
1002
{
1002
}
1000
DIMFIT
1070
     1
1070
     0
1002
{
1002
}
1000
DIMTAD
1070
     1
1070
     1
1002
{
1002
}
1000
DIMTOH
1070
     1
1070
     1
1002
{
1002
}
1000
DIMTOLJ
1070
     1
1070
     0
1002
{
1002
}
1000
DIMUPT
1070
     1
1070
     1
1002
{
1002
}
1000
M
1070
     0
1002
{
1002
}
1000
I
1070
     0
1002
{
1002
}
1000
DIMTIH
1070
     1
1070
     0
1002
{
1002
}
1000
DIMTIX
1070
     1
1070
     0
1002
{
1002
}
1000
DIMTOFL
1070
     1
1070
     0
1002
{
1002
}
1002
}
1000
GEN-ISO-RAD
1070
     5
1002
{
1000
NAME
1070
     4
1000
GEN-ISO$4
1002
{
1002
}
1000
DIMFIT
1070
     1
1070
     0
1002
{
1002
}
1000
DIMTAD
1070
     1
1070
     1
1002
{
1002
}
1000
DIMTOH
1070
     1
1070
     1
1002
{
1002
}
1000
DIMTOLJ
1070
     1
1070
     0
1002
{
1002
}
1000
DIMUPT
1070
     1
1070
     1
1002
{
1002
}
1000
M
1070
     0
1002
{
1000
DIMASZ
1070
     2
1040
1.5
1002
{
1002
}
1000
DIMEXE
1070
     2
1040
0.0
1002
{
1002
}
1000
DIMEXO
1070
     2
1040
0.0
1002
{
1002
}
1002
}
1000
I
1070
     0
1002
{
1002
}
1000
DIMTIH
1070
     1
1070
     0
1002
{
1002
}
1000
DIMTIX
1070
     1
1070
     0
1002
{
1002
}
1000
DIMTOFL
1070
     1
1070
     0
1002
{
1002
}
1002
}
1000
GEN-ISO-ORD
1070
     5
1002
{
1000
NAME
1070
     4
1000
GEN-ISO$6
1002
{
1002
}
1000
DIMTOLJ
1070
     1
1070
     0
1002
{
1002
}
1000
M
1070
     0
1002
{
1002
}
1000
I
1070
     0
1002
{
1002
}
1002
}
1000
GEN-ISO-AXE-F
1070
     5
1002
{
1000
NAME
1070
     4
1000
GEN-ISO-AXE-F
1002
{
1002
}
1000
DIMSE1
1070
     1
1070
     1
1002
{
1002
}
1000
DIMSE2
1070
     1
1070
     1
1002
{
1002
}
1000
DIMTAD
1070
     1
1070
     1
1002
{
1002
}
1000
DIMTOLJ
1070
     1
1070
     0
1002
{
1002
}
1000
DIMTOFL
1070
     1
1070
     1
1002
{
1002
}
1000
M
1070
     0
1002
{
1002
}
1000
I
1070
     0
1002
{
1002
}
1002
}
1000
GEN-ISO-AXE-H
1070
     5
1002
{
1000
NAME
1070
     4
1000
GEN-ISO-AXE-H
1002
{
1002
}
1000
DIMBLK1
1070
     4
1000
GENAXEH
1002
{
1002
}
1000
DIMLFAC
1070
     2
1040
2.0
1002
{
1002
}
1000
DIMSAH
1070
     1
1070
     1
1002
{
1002
}
1000
DIMSE1
1070
     1
1070
     1
1002
{
1002
}
1000
DIMSE2
1070
     1
1070
     1
1002
{
1002
}
1000
DIMTAD
1070
     1
1070
     1
1002
{
1002
}
1000
DIMTOLJ
1070
     1
1070
     0
1002
{
1002
}
1000
DIMTOFL
1070
     1
1070
     1
1002
{
1002
}
1000
M
1070
     0
1002
{
1002
}
1000
I
1070
     0
1002
{
1002
}
1002
}
1000
GEN-ANSI
1070
     5
1002
{
1000
NAME
1070
     4
1000
GEN-ANSI
1002
{
1002
}
1000
DIMTIH
1070
     1
1070
     1
1002
{
1002
}
1000
DIMTOH
1070
     1
1070
     1
1002
{
1002
}
1000
DIMTAD
1070
     1
1070
     0
1002
{
1002
}
1000
DIMTOLJ
1070
     1
1070
     1
1002
{
1002
}
1000
M
1070
     0
1002
{
1002
}
1000
I
1070
     0
1002
{
1002
}
1002
}
1000
GEN-ANSI-POS
1070
     5
1002
{
1000
NAME
1070
     4
1000
GEN-ANSI-POS
1002
{
1002
}
1000
DIMTOLJ
1070
     1
1070
     1
1002
{
1002
}
1000
DIMTXSTY
1070
     4
1000
STANDARD
1002
{
1002
}
1000
M
1070
     0
1002
{
1000
DIMASZ
1070
     2
1040
2.5
1002
{
1002
}
1000
DIMGAP
1070
     2
1040
1.5
1002
{
1002
}
1000
DIMTXT
1070
     2
1040
5.0
1002
{
1002
}
1002
}
1000
I
1070
     0
1002
{
1000
DIMASZ
1070
     2
1040
0.1
1002
{
1002
}
1000
DIMGAP
1070
     2
1040
0.06
1002
{
1002
}
1000
DIMTXT
1070
     2
1040
0.2
1002
{
1002
}
1002
}
1002
}
1000
GEN-ANSI-CIR
1070
     5
1002
{
1000
NAME
1070
     4
1000
GEN-ANSI$3
1002
{
1002
}
1000
DIMFIT
1070
     1
1070
     0
1002
{
1002
}
1000
DIMTAD
1070
     1
1070
     0
1002
{
1002
}
1000
DIMTIH
1070
     1
1070
     1
1002
{
1002
}
1000
DIMTIX
1070
     1
1070
     0
1002
{
1002
}
1000
DIMTOFL
1070
     1
1070
     0
1002
{
1002
}
1000
DIMTOH
1070
     1
1070
     1
1002
{
1002
}
1000
DIMTOLJ
1070
     1
1070
     1
1002
{
1002
}
1000
DIMUPT
1070
     1
1070
     1
1002
{
1002
}
1000
M
1070
     0
1002
{
1002
}
1000
I
1070
     0
1002
{
1002
}
1002
}
1000
GEN-ANSI-RAD
1070
     5
1002
{
1000
NAME
1070
     4
1000
GEN-ANSI$4
1002
{
1002
}
1000
DIMFIT
1070
     1
1070
     0
1002
{
1002
}
1000
DIMTAD
1070
     1
1070
     0
1002
{
1002
}
1000
DIMTIH
1070
     1
1070
     1
1002
{
1002
}
1000
DIMTIX
1070
     1
1070
     0
1002
{
1002
}
1000
DIMTOFL
1070
     1
1070
     0
1002
{
1002
}
1000
DIMTOH
1070
     1
1070
     1
1002
{
1002
}
1000
DIMTOLJ
1070
     1
1070
     1
1002
{
1002
}
1000
DIMUPT
1070
     1
1070
     1
1002
{
1002
}
1000
M
1070
     0
1002
{
1002
}
1000
I
1070
     0
1002
{
1002
}
1002
}
1000
GEN-ANSI-ORD
1070
     5
1002
{
1000
NAME
1070
     4
1000
GEN-ANSI$6
1002
{
1002
}
1000
DIMTAD
1070
     1
1070
     0
1002
{
1002
}
1000
DIMTIH
1070
     1
1070
     1
1002
{
1002
}
1000
DIMTOH
1070
     1
1070
     1
1002
{
1002
}
1000
DIMTOLJ
1070
     1
1070
     1
1002
{
1002
}
1000
M
1070
     0
1002
{
1002
}
1000
I
1070
     0
1002
{
1002
}
1002
}
1000
GEN-ANSI-AXE-F
1070
     5
1002
{
1000
NAME
1070
     4
1000
GEN-ANSI-AXE-F
1002
{
1002
}
1000
DIMBLK1
1070
     4
1000
GENAXEH
1002
{
1002
}
1000
DIMSAH
1070
     1
1070
     1
1002
{
1002
}
1000
DIMSE1
1070
     1
1070
     1
1002
{
1002
}
1000
DIMSE2
1070
     1
1070
     1
1002
{
1002
}
1000
DIMTAD
1070
     1
1070
     0
1002
{
1002
}
1000
DIMTIH
1070
     1
1070
     1
1002
{
1002
}
1000
DIMTOH
1070
     1
1070
     1
1002
{
1002
}
1000
DIMTOLJ
1070
     1
1070
     1
1002
{
1002
}
1000
M
1070
     0
1002
{
1002
}
1000
I
1070
     0
1002
{
1002
}
1002
}
1000
GEN-ANSI-AXE-H
1070
     5
1002
{
1000
NAME
1070
     4
1000
GEN-ANSI-AXE-H
1002
{
1002
}
1000
DIMBLK1
1070
     4
1000
GENAXEH
1002
{
1002
}
1000
DIMLFAC
1070
     2
1040
2.0
1002
{
1002
}
1000
DIMSAH
1070
     1
1070
     1
1002
{
1002
}
1000
DIMSE1
1070
     1
1070
     1
1002
{
1002
}
1000
DIMSE2
1070
     1
1070
     1
1002
{
1002
}
1000
DIMTAD
1070
     1
1070
     0
1002
{
1002
}
1000
DIMTOFL
1070
     1
1070
     1
1002
{
1002
}
1000
DIMTOLJ
1070
     1
1070
     1
1002
{
1002
}
1000
M
1070
     0
1002
{
1002
}
1000
I
1070
     0
1002
{
1002
}
1002
}
1002
}
1000
DimSet
1070
     0
1002
{
1000
ChainSum
1070
     3
1070
     0
1002
{
1002
}
1000
DimDclTyp0
1070
     4
1000
dim23
1002
{
1002
}
1000
HorBra
1070
     3
1070
     0
1002
{
1002
}
1000
StrDia
1070
     4
1000
%%c<>
1002
{
1002
}
1000
StrRad
1070
     4
1000
R<>
1002
{
1002
}
1000
TextMinus
1070
     4
1000
<>
1002
{
1002
}
1000
TextPlus
1070
     4
1000
<>
1002
{
1002
}
1000
M
1070
     0
1002
{
1000
DimdliFirst
1070
     2
1040
10.0
1002
{
1002
}
1000
PointMakeDist
1070
     2
1040
10.0
1002
{
1002
}
1002
}
1000
I
1070
     0
1002
{
1000
DimdliFirst
1070
     2
1040
0.5
1002
{
1002
}
1000
PointMakeDist
1070
     2
1040
0.5
1002
{
1002
}
1002
}
1000
FitGrade
1070
     4
1000
h7
1002
{
1002
}
1002
}
1000
Drawing
1070
     0
1002
{
1000
ChamferDimMode
1070
     1
1070
     2
1002
{
1002
}
1000
Gen_Fiso
1070
    -3
1040
1.0
1002
{
1002
}
1000
GenDimStil
1070
     4
1000
ISO
1002
{
1002
}
1000
GenDwgUScale
1070
     2
1040
1.0
1002
{
1002
}
1000
GenInch
1070
     4
1000
M
1002
{
1002
}
1000
GenPlotScale
1070
     4
1000
1:1
1002
{
1002
}
1000
Revisi
1070
     4
1000
0
1002
{
1002
}
1000
Version
1070
    -5
1000
14.01/May 26 1998
1002
{
1002
}
1000
Platform
1070
    -5
1000
WINNT
1002
{
1002
}
1002
}
1000
DwgVar
1070
     0
1002
{
1000
M
1070
     0
1002
{
1002
}
1000
I
1070
     0
1002
{
1002
}
1002
}
1000
Hatch
1070
     0
1002
{
1000
GenHtcFlag
1070
     3
1070
     0
1002
{
1002
}
1002
}
1000
Info_Pos
1070
     0
1002
{
1000
>
1002
}
1000
Layer
1070
     6
1002
{
1000
Defs
1070
     0
1002
{
1000
>
1002
}
1000
EntSort
1070
     0
1002
{
1000
>
1002
}
1000
Match
1070
     0
1002
{
1002
}
1000
Settings
1070
     0
1002
{
1000
FocGrNC
1070
     3
1070
     0
1002
{
1002
}
1000
FocGrLo
1070
     3
1070
     0
1002
{
1002
}
1000
FocLoNC
1070
     3
1070
     0
1002
{
1002
}
1000
FocusCol
1070
     1
1070
   253
1002
{
1002
}
1000
GenStdLG
1070
     4
1000

1002
{
1002
}
1000
LayMatch
1070
     3
1070
     0
1002
{
1002
}
1000
LgOff
1070
     3
1070
     0
1002
{
1002
}
1000
CurLG
1070
    -5
1000

1002
{
1002
}
1002
}
1002
}
1000
LType
1070
     0
1002
{
1000
GEN3
1070
     7
1000
genius.lin
1002
{
1002
}
1000
GEN7
1070
     7
1000
genius.lin
1002
{
1002
}
1000
GEN4A
1070
     7
1000
genius.lin
1002
{
1002
}
1000
GEN3A
1070
     7
1000
genius.lin
1002
{
1002
}
1000
GEN7A
1070
     7
1000
genius.lin
1002
{
1002
}
1000
GENZIGZAG
1070
     7
1000
genius.lin
1002
{
1002
}
1002
}
1000
Objecter
1070
     0
1002
{
1000
CreateGroups
1070
     3
1070
     0
1002
{
1002
}
1000
LaySwitch
1070
     3
1070
     1
1002
{
1002
}
1000
LastObj
1070
    -5
1000
0
1002
{
1002
}
1000
TimeStamp
1070
    -5
1000
19981126.15535021
1002
{
1002
}
1002
}
1000
OSWiz
1070
     0
1002
{
1000
Filter
1070
     0
1002
{
1000
HATCH
1070
     8
1002
{
1000
EntityType
1070
     4
1000
LINE
1002
{
1002
}
1000
Layer
1070
     4
1000
8,8N,*-8,*-8N
1002
{
1002
}
1000
Linetype
1070
     4
1000
*
1002
{
1002
}
1000
Color
1070
     4
1000
*
1002
{
1002
}
1000
ApplyInDims
1070
     3
1070
     1
1002
{
1002
}
1002
}
1000
SYMBOLS
1070
     8
1002
{
1000
EntityType
1070
     4
1000
*
1002
{
1002
}
1000
Layer
1070
     4
1000
[5-6],[5-6]N,*-[5-6],*-[5-6]N
1002
{
1002
}
1000
Linetype
1070
     4
1000
*
1002
{
1002
}
1000
Color
1070
     4
1000
*
1002
{
1002
}
1000
ApplyInDims
1070
     3
1070
     1
1002
{
1002
}
1002
}
1000
FEM
1070
     8
1002
{
1000
EntityType
1070
     4
1000
*
1002
{
1002
}
1000
Layer
1070
     4
1000
4A,4AN,*-4A,*-4AN
1002
{
1002
}
1000
Linetype
1070
     4
1000
*
1002
{
1002
}
1000
Color
1070
     4
1000
*
1002
{
1002
}
1000
ApplyInDims
1070
     3
1070
     1
1002
{
1002
}
1002
}
1002
}
1002
}
1000
PaList
1070
     0
1002
{
1000
AutoUpdatePartList
1070
     1
1070
     0
1002
{
1002
}
1000
ReadInfoPoint
1070
     3
1070
     0
1002
{
1002
}
1000
ReadPosNr
1070
     3
1070
     1
1002
{
1002
}
1000
RevStr
1070
     4
1000
0
1002
{
1002
}
1002
}
1000
Paper
1070
     0
1002
{
1000
Layer
1070
    -5
1000
5
1002
{
1002
}
1002
}
1000
PartDB
1070
     0
1002
{
1000
GenDbOwner
1070
     4
1000

1002
{
1002
}
1002
}
1000
System
1070
     0
1002
{
1000
Menu
1070
     4
1000
GEV
1002
{
1002
}
1002
}
1000
Title
1070
     0
1002
{
1000
MakeView
1070
     1
1070
     2
1002
{
1002
}
1002
}
1000
Tools
1070
     0
1002
{
1000
Trans
1070
     0
1002
{
1000
Drawingtranslation
1070
    -4
1070
     1
1002
{
1002
}
1000
upreserve
1070
     3
1070
     1
1002
{
1002
}
1000
originally_on
1070
    -4
1070
     0
1002
{
1002
}
1000
sourcelang
1070
    -5
1000
D
1002
{
1002
}
1002
}
1002
}
  0
APPID
  5
1005
330
9
100
AcDbSymbolTableRecord
100
AcDbRegAppTableRecord
  2
GENIUS_GEVCFG0_13
 70
     0
1001
GENIUS_GENCFG_13
1071
912092035
1000
1005
1000
GEV
1070
     1
1000
GenCfgObject
1000
VED
1070
     0
1002
{
1002
}
  0
APPID
  5
112B
330
9
100
AcDbSymbolTableRecord
100
AcDbRegAppTableRecord
  2
GEV_VCCNULL_SWITCH_OFF
 70
     0
  0
APPID
  5
1138
330
9
100
AcDbSymbolTableRecord
100
AcDbRegAppTableRecord
  2
GENIUS_GENDTOL_13
 70
     0
  0
APPID
  5
1203
330
9
100
AcDbSymbolTableRecord
100
AcDbRegAppTableRecord
  2
GENIUS_GENDIM_13
 70
     0
  0
APPID
  5
1205
330
9
100
AcDbSymbolTableRecord
100
AcDbRegAppTableRecord
  2
GENIUS_GE3DTOL_13
 70
     0
  0
APPID
  5
1208
330
9
100
AcDbSymbolTableRecord
100
AcDbRegAppTableRecord
  2
ACAD_TEMP_GRAPHIC
 70
     0
  0
APPID
  5
1212
330
9
100
AcDbSymbolTableRecord
100
AcDbRegAppTableRecord
  2
ACATTRIBSERVICES
 70
     0
  0
APPID
  5
1273
330
9
100
AcDbSymbolTableRecord
100
AcDbRegAppTableRecord
  2
ACADM_DIM_EDIT
 70
     0
  0
APPID
  5
1285
330
9
100
AcDbSymbolTableRecord
100
AcDbRegAppTableRecord
  2
GENIUS_GENSCREG_15
 70
     0
  0
APPID
  5
1287
330
9
100
AcDbSymbolTableRecord
100
AcDbRegAppTableRecord
  2
GENIUS_GENODEF_13
 70
     0
  0
APPID
  5
1288
330
9
100
AcDbSymbolTableRecord
100
AcDbRegAppTableRecord
  2
GENIUS_GENOBJ-N-SDF_13
 70
     0
  0
APPID
  5
1289
330
9
100
AcDbSymbolTableRecord
100
AcDbRegAppTableRecord
  2
GENIUS_GENOENT_13
 70
     0
  0
APPID
  5
128A
330
9
100
AcDbSymbolTableRecord
100
AcDbRegAppTableRecord
  2
GENIUS_GENOREF_13
 70
     0
  0
APPID
  5
128B
330
9
100
AcDbSymbolTableRecord
100
AcDbRegAppTableRecord
  2
GENIUS_GENOLIS_13
 70
     0
  0
APPID
  5
14A0
330
9
100
AcDbSymbolTableRecord
100
AcDbRegAppTableRecord
  2
GENIUS_GEFCFG0_13
 70
     0
  0
APPID
  5
170E
330
9
100
AcDbSymbolTableRecord
100
AcDbRegAppTableRecord
  2
AMG_3D2D_5.0
 70
     0
  0
APPID
  5
178A
330
9
100
AcDbSymbolTableRecord
100
AcDbRegAppTableRecord
  2
AMDT_DM_ADJ
 70
     0
  0
ENDTAB
  0
TABLE
  2
DIMSTYLE
  5
A
330
0
100
AcDbSymbolTable
 70
    36
100
AcDbDimStyleTable
 71
     1
340
10B
  0
DIMSTYLE
105
10B
102
{ACAD_REACTORS
330
20F7
330
2106
330
2115
330
2122
330
212F
330
213C
330
2152
330
2292
330
229F
330
22AC
330
22B9
330
22C6
102
}
330
A
100
AcDbSymbolTableRecord
100
AcDbDimStyleTableRecord
  2
PALETTI
 70
     0
 41
2.0
 42
0.0
 43
0.0
 44
1.5
 47
0.2
 48
0.2
 73
     0
 74
     0
 77
     1
 78
     8
140
3.5
141
-2.5
146
0.5
147
0.4
172
     1
176
   256
177
   256
178
   256
271
     1
272
     1
283
     2
284
     8
288
     1
340
10
  0
DIMSTYLE
105
1278
330
A
100
AcDbSymbolTableRecord
100
AcDbDimStyleTableRecord
  2
GEN-ISO
 70
     0
  4
"
 41
2.5
 42
0.0
 43
7.0
 44
0.0
 47
0.1
 48
0.1
 73
     0
 74
     0
 77
     1
 78
     8
140
3.5
141
0.0
143
0.0393701
146
0.71
147
0.6
172
     1
176
   256
177
   256
178
     2
271
     2
272
     3
274
     4
283
     0
340
10
  0
DIMSTYLE
105
1279
330
A
100
AcDbSymbolTableRecord
100
AcDbDimStyleTableRecord
  2
GEN-ISO$3
 70
     0
  4
"
 41
2.5
 42
1.0
 43
7.0
 44
1.0
 47
0.1
 48
0.1
 73
     0
 77
     1
 78
     8
140
3.5
141
0.0
143
0.0393701
146
0.71
147
0.6
176
   256
177
   256
178
     2
271
     2
272
     3
274
     4
283
     0
288
     1
289
     0
340
10
  0
DIMSTYLE
105
127A
330
A
100
AcDbSymbolTableRecord
100
AcDbDimStyleTableRecord
  2
GEN-ISO$4
 70
     0
  4
"
 41
1.5
 42
0.0
 43
7.0
 44
0.0
 47
0.1
 48
0.1
 73
     0
 77
     1
 78
     8
140
3.5
141
0.0
143
0.0393701
146
0.71
147
0.6
176
   256
177
   256
178
     2
271
     2
272
     3
274
     4
283
     0
288
     1
289
     0
340
10
  0
DIMSTYLE
105
127B
330
A
100
AcDbSymbolTableRecord
100
AcDbDimStyleTableRecord
  2
GEN-ISO$6
 70
     0
  4
"
 41
2.5
 42
1.0
 43
7.0
 44
1.0
 47
0.1
 48
0.1
 73
     0
 74
     0
 78
     8
140
3.5
141
0.0
143
0.0393701
146
0.71
147
0.6
176
   256
177
   256
178
     2
271
     2
272
     3
274
     4
283
     0
340
10
  0
DIMSTYLE
105
127C
330
A
100
AcDbSymbolTableRecord
100
AcDbDimStyleTableRecord
  2
GEN-ISO-POS
 70
     0
  4
"
 41
2.5
 42
1.0
 43
7.0
 44
1.0
 47
0.1
 48
0.1
 73
     0
 74
     0
 78
     8
140
5.0
141
0.0
143
0.0393701
146
0.71
147
1.5
176
   256
177
   256
178
     2
271
     2
272
     3
274
     4
283
     0
340
10
  0
DIMSTYLE
105
127D
330
A
100
AcDbSymbolTableRecord
100
AcDbDimStyleTableRecord
  2
GEN-ISO-AXE-F
 70
     0
  4
"
 41
2.5
 42
1.0
 43
7.0
 44
1.0
 47
0.1
 48
0.1
 73
     0
 74
     0
 75
     1
 76
     1
 77
     1
 78
     8
140
3.5
141
0.0
143
0.0393701
146
0.71
147
0.6
172
     1
176
   256
177
   256
178
     2
271
     2
272
     3
274
     4
283
     0
340
10
  0
DIMSTYLE
105
127E
330
A
100
AcDbSymbolTableRecord
100
AcDbDimStyleTableRecord
  2
GEN-ISO-AXE-H
 70
     0
  4
"
 41
2.5
 42
1.0
 43
7.0
 44
1.0
 47
0.1
 48
0.1
 73
     0
 74
     0
 75
     1
 76
     1
 77
     1
 78
     8
140
3.5
141
0.0
143
0.0393701
144
2.0
146
0.71
147
0.6
172
     1
173
     1
176
   256
177
   256
178
     2
271
     2
272
     3
274
     4
283
     0
340
10
  0
DIMSTYLE
105
175B
330
A
100
AcDbSymbolTableRecord
100
AcDbDimStyleTableRecord
  2
AM_BSI
 70
     0
  4
"
 41
4.0
 42
1.0
 43
10.0
 44
1.0
 47
0.1
 48
0.1
 73
     0
 74
     0
 77
     1
 78
     8
 79
     2
140
3.5
141
0.0
143
0.0393701
146
0.71
147
1.5
172
     1
176
   256
177
   256
178
     2
271
     2
272
     3
274
     4
283
     0
284
     8
340
10
371
    -1
372
    -1
  0
DIMSTYLE
105
175C
330
A
100
AcDbSymbolTableRecord
100
AcDbDimStyleTableRecord
  2
AM_BSI$3
 70
     0
  4
"
 41
4.0
 42
1.0
 43
10.0
 44
1.0
 47
0.1
 48
0.1
 73
     0
 77
     1
 78
     8
 79
     2
140
3.5
141
0.0
143
0.0393701
146
0.71
147
1.5
176
   256
177
   256
178
     2
271
     2
272
     3
274
     4
283
     0
284
     8
288
     1
289
     0
340
10
371
    -1
372
    -1
  0
DIMSTYLE
105
175D
330
A
100
AcDbSymbolTableRecord
100
AcDbDimStyleTableRecord
  2
AM_BSI$4
 70
     0
  4
"
 41
4.0
 42
1.0
 43
10.0
 44
1.0
 47
0.1
 48
0.1
 73
     0
 77
     1
 78
     8
 79
     2
140
3.5
141
0.0
143
0.0393701
146
0.71
147
1.5
176
   256
177
   256
178
     2
271
     2
272
     3
274
     4
283
     0
284
     8
288
     1
289
     0
340
10
371
    -1
372
    -1
  0
DIMSTYLE
105
175E
330
A
100
AcDbSymbolTableRecord
100
AcDbDimStyleTableRecord
  2
AM_BSI$6
 70
     0
  4
"
 41
4.0
 42
1.0
 43
10.0
 44
1.0
 47
0.1
 48
0.1
 73
     0
 74
     0
 78
     8
 79
     2
140
3.5
141
0.0
143
0.0393701
146
0.71
147
1.5
172
     1
176
   256
177
   256
178
     2
271
     2
272
     3
274
     4
283
     0
284
     8
340
10
371
    -1
372
    -1
  0
DIMSTYLE
105
175F
330
A
100
AcDbSymbolTableRecord
100
AcDbDimStyleTableRecord
  2
AM_BSI$7
 70
     0
  4
"
 41
2.5
 42
1.0
 43
10.0
 44
1.0
 47
0.1
 48
0.1
 73
     0
 74
     0
 77
     1
 78
     8
 79
     2
140
5.0
141
0.0
143
0.0393701
146
0.71
147
1.5
172
     1
176
   256
177
   256
178
     2
271
     2
272
     3
274
     4
283
     0
284
     8
340
10
371
    -1
372
    -1
  0
DIMSTYLE
105
1760
330
A
100
AcDbSymbolTableRecord
100
AcDbDimStyleTableRecord
  2
AM_BSI$SF
 70
     0
  4
"
 41
4.0
 42
1.0
 43
10.0
 44
1.0
 47
0.1
 48
0.1
 73
     0
 74
     0
 75
     1
 76
     1
 77
     1
 78
     8
 79
     2
140
3.5
141
0.0
143
0.0393701
146
0.71
147
1.5
172
     1
176
   256
177
   256
178
     2
271
     2
272
     3
274
     4
283
     0
284
     8
340
10
371
    -1
372
    -1
  0
DIMSTYLE
105
1765
330
A
100
AcDbSymbolTableRecord
100
AcDbDimStyleTableRecord
  2
AM_BSI$SH
 70
     0
  4
"
 41
4.0
 42
1.0
 43
10.0
 44
1.0
 47
0.1
 48
0.1
 73
     0
 74
     0
 75
     1
 76
     1
 77
     1
 78
     8
 79
     2
140
3.5
141
0.0
143
0.0393701
144
2.0
146
0.71
147
1.5
172
     1
173
     1
176
   256
177
   256
178
     2
271
     2
272
     3
274
     4
283
     0
284
     8
340
10
343
1761
371
    -1
372
    -1
  0
DIMSTYLE
105
1768
330
A
100
AcDbSymbolTableRecord
100
AcDbDimStyleTableRecord
  2
AM_DIN
 70
     0
  4
"
 41
2.5
 42
1.0
 43
10.0
 44
1.0
 47
0.1
 48
0.1
 73
     0
 74
     0
 77
     1
 78
     8
 79
     2
140
3.5
141
0.0
143
0.0393701
146
0.71
147
1.5
172
     1
176
   256
177
   256
178
     2
271
     2
272
     3
274
     4
283
     0
284
     8
340
10
371
    -1
372
    -1
  0
DIMSTYLE
105
1769
330
A
100
AcDbSymbolTableRecord
100
AcDbDimStyleTableRecord
  2
AM_DIN$3
 70
     0
  4
"
 41
2.5
 42
1.0
 43
10.0
 44
1.0
 47
0.1
 48
0.1
 73
     0
 77
     1
 78
     8
 79
     2
140
3.5
141
0.0
143
0.0393701
146
0.71
147
1.5
176
   256
177
   256
178
     2
271
     2
272
     3
274
     4
283
     0
284
     8
288
     1
289
     0
340
10
371
    -1
372
    -1
  0
DIMSTYLE
105
176A
330
A
100
AcDbSymbolTableRecord
100
AcDbDimStyleTableRecord
  2
AM_DIN$4
 70
     0
  4
"
 41
2.5
 42
1.0
 43
10.0
 44
1.0
 47
0.1
 48
0.1
 73
     0
 77
     1
 78
     8
 79
     2
140
3.5
141
0.0
143
0.0393701
146
0.71
147
1.5
176
   256
177
   256
178
     2
271
     2
272
     3
274
     4
283
     0
284
     8
288
     1
289
     0
340
10
371
    -1
372
    -1
  0
DIMSTYLE
105
176B
330
A
100
AcDbSymbolTableRecord
100
AcDbDimStyleTableRecord
  2
AM_DIN$6
 70
     0
  4
"
 41
2.5
 42
1.0
 43
10.0
 44
1.0
 47
0.1
 48
0.1
 73
     0
 74
     0
 78
     8
 79
     2
140
3.5
141
0.0
143
0.0393701
146
0.71
147
1.5
172
     1
176
   256
177
   256
178
     2
271
     2
272
     3
274
     4
283
     0
284
     8
340
10
371
    -1
372
    -1
  0
DIMSTYLE
105
176C
330
A
100
AcDbSymbolTableRecord
100
AcDbDimStyleTableRecord
  2
AM_DIN$7
 70
     0
  4
"
 41
2.5
 42
1.0
 43
10.0
 44
1.0
 47
0.1
 48
0.1
 73
     0
 74
     0
 77
     1
 78
     8
 79
     2
140
5.0
141
0.0
143
0.0393701
146
0.71
147
1.5
172
     1
176
   256
177
   256
178
     2
271
     2
272
     3
274
     4
283
     0
284
     8
340
10
371
    -1
372
    -1
  0
DIMSTYLE
105
176D
330
A
100
AcDbSymbolTableRecord
100
AcDbDimStyleTableRecord
  2
AM_DIN$SF
 70
     0
  4
"
 41
2.5
 42
1.0
 43
10.0
 44
1.0
 47
0.1
 48
0.1
 73
     0
 74
     0
 75
     1
 76
     1
 77
     1
 78
     8
 79
     2
140
3.5
141
0.0
143
0.0393701
146
0.71
147
1.5
172
     1
176
   256
177
   256
178
     2
271
     2
272
     3
274
     4
283
     0
284
     8
340
10
371
    -1
372
    -1
  0
DIMSTYLE
105
176E
330
A
100
AcDbSymbolTableRecord
100
AcDbDimStyleTableRecord
  2
AM_DIN$SH
 70
     0
  4
"
 41
2.5
 42
1.0
 43
10.0
 44
1.0
 47
0.1
 48
0.1
 73
     0
 74
     0
 75
     1
 76
     1
 77
     1
 78
     8
 79
     2
140
3.5
141
0.0
143
0.0393701
144
2.0
146
0.71
147
1.5
172
     1
173
     1
176
   256
177
   256
178
     2
271
     2
272
     3
274
     4
283
     0
284
     8
340
10
343
1761
371
    -1
372
    -1
  0
DIMSTYLE
105
1771
330
A
100
AcDbSymbolTableRecord
100
AcDbDimStyleTableRecord
  2
AM_ISO
 70
     0
  4
"
 41
2.5
 42
1.0
 43
10.0
 44
1.0
 47
0.1
 48
0.1
 73
     0
 74
     0
 77
     1
 78
     8
 79
     2
140
3.5
141
0.0
143
0.0393701
146
0.71
147
1.5
172
     1
176
   256
177
   256
178
     2
271
     2
272
     3
274
     4
283
     0
284
     8
340
10
371
    -1
372
    -1
  0
DIMSTYLE
105
1772
330
A
100
AcDbSymbolTableRecord
100
AcDbDimStyleTableRecord
  2
AM_ISO$3
 70
     0
  4
"
 41
2.5
 42
1.0
 43
10.0
 44
1.0
 47
0.1
 48
0.1
 73
     0
 77
     1
 78
     8
 79
     2
140
3.5
141
0.0
143
0.0393701
146
0.71
147
1.5
176
   256
177
   256
178
     2
271
     2
272
     3
274
     4
283
     0
284
     8
288
     1
289
     0
340
10
371
    -1
372
    -1
  0
DIMSTYLE
105
1773
330
A
100
AcDbSymbolTableRecord
100
AcDbDimStyleTableRecord
  2
AM_ISO$4
 70
     0
  4
"
 41
2.5
 42
1.0
 43
10.0
 44
1.0
 47
0.1
 48
0.1
 73
     0
 77
     1
 78
     8
 79
     2
140
3.5
141
0.0
143
0.0393701
146
0.71
147
1.5
176
   256
177
   256
178
     2
271
     2
272
     3
274
     4
283
     0
284
     8
288
     1
289
     0
340
10
371
    -1
372
    -1
  0
DIMSTYLE
105
1774
330
A
100
AcDbSymbolTableRecord
100
AcDbDimStyleTableRecord
  2
AM_ISO$6
 70
     0
  4
"
 41
2.5
 42
1.0
 43
10.0
 44
1.0
 47
0.1
 48
0.1
 73
     0
 74
     0
 78
     8
 79
     2
140
3.5
141
0.0
143
0.0393701
146
0.71
147
1.5
172
     1
176
   256
177
   256
178
     2
271
     2
272
     3
274
     4
283
     0
284
     8
340
10
371
    -1
372
    -1
  0
DIMSTYLE
105
1775
330
A
100
AcDbSymbolTableRecord
100
AcDbDimStyleTableRecord
  2
AM_ISO$7
 70
     0
  4
"
 41
2.5
 42
1.0
 43
10.0
 44
1.0
 47
0.1
 48
0.1
 73
     0
 74
     0
 77
     1
 78
     8
 79
     2
140
5.0
141
0.0
143
0.0393701
146
0.71
147
1.5
172
     1
176
   256
177
   256
178
     2
271
     2
272
     3
274
     4
283
     0
284
     8
340
10
371
    -1
372
    -1
  0
DIMSTYLE
105
1776
330
A
100
AcDbSymbolTableRecord
100
AcDbDimStyleTableRecord
  2
AM_ISO$SF
 70
     0
  4
"
 41
2.5
 42
1.0
 43
10.0
 44
1.0
 47
0.1
 48
0.1
 73
     0
 74
     0
 75
     1
 76
     1
 77
     1
 78
     8
 79
     2
140
3.5
141
0.0
143
0.0393701
146
0.71
147
1.5
172
     1
176
   256
177
   256
178
     2
271
     2
272
     3
274
     4
283
     0
284
     8
340
10
371
    -1
372
    -1
  0
DIMSTYLE
105
1777
330
A
100
AcDbSymbolTableRecord
100
AcDbDimStyleTableRecord
  2
AM_ISO$SH
 70
     0
  4
"
 41
2.5
 42
1.0
 43
10.0
 44
1.0
 47
0.1
 48
0.1
 73
     0
 74
     0
 75
     1
 76
     1
 77
     1
 78
     8
 79
     2
140
3.5
141
0.0
143
0.0393701
144
2.0
146
0.71
147
1.5
172
     1
173
     1
176
   256
177
   256
178
     2
271
     2
272
     3
274
     4
283
     0
284
     8
340
10
343
1761
371
    -1
372
    -1
  0
DIMSTYLE
105
177A
330
A
100
AcDbSymbolTableRecord
100
AcDbDimStyleTableRecord
  2
AM_JIS
 70
     0
  4
"
 41
2.5
 42
1.0
 43
10.0
 44
1.0
 47
0.1
 48
0.1
 73
     0
 74
     0
 77
     3
 78
     8
 79
     2
140
3.5
141
0.0
143
0.0393701
146
0.71
147
1.5
172
     1
176
   256
177
   256
178
     2
271
     2
272
     3
274
     4
283
     0
284
     8
340
10
341
177B
342
177B
343
177B
344
177B
371
    -1
372
    -1
  0
DIMSTYLE
105
1781
330
A
100
AcDbSymbolTableRecord
100
AcDbDimStyleTableRecord
  2
AM_JIS$3
 70
     0
  4
"
 41
2.5
 42
1.0
 43
10.0
 44
1.0
 47
0.1
 48
0.1
 73
     0
 77
     3
 78
     8
 79
     2
140
3.5
141
0.0
143
0.0393701
146
0.71
147
1.5
176
   256
177
   256
178
     2
271
     2
272
     3
274
     4
283
     0
284
     8
288
     1
289
     0
340
10
341
177B
342
177B
343
177B
344
177B
371
    -1
372
    -1
  0
DIMSTYLE
105
1782
330
A
100
AcDbSymbolTableRecord
100
AcDbDimStyleTableRecord
  2
AM_JIS$4
 70
     0
  4
"
 41
2.5
 42
1.0
 43
10.0
 44
1.0
 47
0.1
 48
0.1
 73
     0
 77
     3
 78
     8
 79
     2
140
3.5
141
0.0
143
0.0393701
146
0.71
147
1.5
176
   256
177
   256
178
     2
271
     2
272
     3
274
     4
283
     0
284
     8
288
     1
289
     0
340
10
341
177B
342
177B
343
177B
344
177B
371
    -1
372
    -1
  0
DIMSTYLE
105
1783
330
A
100
AcDbSymbolTableRecord
100
AcDbDimStyleTableRecord
  2
AM_JIS$6
 70
     0
  4
"
 41
2.5
 42
1.0
 43
10.0
 44
1.0
 47
0.1
 48
0.1
 73
     0
 74
     0
 78
     8
 79
     2
140
3.5
141
0.0
143
0.0393701
146
0.71
147
1.5
172
     1
176
   256
177
   256
178
     2
271
     2
272
     3
274
     4
283
     0
284
     8
340
10
341
177B
342
177B
343
177B
344
177B
371
    -1
372
    -1
  0
DIMSTYLE
105
1784
330
A
100
AcDbSymbolTableRecord
100
AcDbDimStyleTableRecord
  2
AM_JIS$7
 70
     0
  4
"
 41
2.5
 42
1.0
 43
10.0
 44
1.0
 47
0.1
 48
0.1
 73
     0
 74
     0
 77
     3
 78
     8
 79
     2
140
5.0
141
0.0
143
0.0393701
146
0.71
147
1.5
172
     1
176
   256
177
   256
178
     2
271
     2
272
     3
274
     4
283
     0
284
     8
340
10
341
177B
342
177B
343
177B
344
177B
371
    -1
372
    -1
  0
DIMSTYLE
105
1785
330
A
100
AcDbSymbolTableRecord
100
AcDbDimStyleTableRecord
  2
AM_JIS$SF
 70
     0
  4
"
 41
2.5
 42
1.0
 43
10.0
 44
1.0
 47
0.1
 48
0.1
 73
     0
 74
     0
 75
     1
 76
     1
 77
     3
 78
     8
 79
     2
140
3.5
141
0.0
143
0.0393701
146
0.71
147
1.5
172
     1
176
   256
177
   256
178
     2
271
     2
272
     3
274
     4
283
     0
284
     8
340
10
341
177B
342
177B
343
177B
344
177B
371
    -1
372
    -1
  0
DIMSTYLE
105
1786
330
A
100
AcDbSymbolTableRecord
100
AcDbDimStyleTableRecord
  2
AM_JIS$SH
 70
     0
  4
"
 41
2.5
 42
1.0
 43
10.0
 44
1.0
 47
0.1
 48
0.1
 73
     0
 74
     0
 75
     1
 76
     1
 77
     3
 78
     8
 79
     2
140
3.5
141
0.0
143
0.0393701
144
2.0
146
0.71
147
1.5
172
     1
173
     1
176
   256
177
   256
178
     2
271
     2
272
     3
274
     4
283
     0
284
     8
340
10
341
177B
342
177B
343
1761
344
177B
371
    -1
372
    -1
  0
ENDTAB
  0
TABLE
  2
BLOCK_RECORD
  5
1
330
0
100
AcDbSymbolTable
 70
    24
  0
BLOCK_RECORD
  5
1A
102
{ACAD_XDICTIONARY
360
10AA
102
}
330
1
100
AcDbSymbolTableRecord
100
AcDbBlockTableRecord
  2
*MODEL_SPACE
340
11EE
  0
BLOCK_RECORD
  5
17
330
1
100
AcDbSymbolTableRecord
100
AcDbBlockTableRecord
  2
*PAPER_SPACE
340
11EF
  0
BLOCK_RECORD
  5
1761
330
1
100
AcDbSymbolTableRecord
100
AcDbBlockTableRecord
  2
GENAXEH
340
0
  0
BLOCK_RECORD
  5
177B
330
1
100
AcDbSymbolTableRecord
100
AcDbBlockTableRecord
  2
_Open30
340
0
  0
BLOCK_RECORD
  5
20F8
330
1
100
AcDbSymbolTableRecord
100
AcDbBlockTableRecord
  2
*D9
340
0
  0
BLOCK_RECORD
  5
2107
330
1
100
AcDbSymbolTableRecord
100
AcDbBlockTableRecord
  2
*D10
340
0
  0
BLOCK_RECORD
  5
2116
330
1
100
AcDbSymbolTableRecord
100
AcDbBlockTableRecord
  2
*D11
340
0
  0
BLOCK_RECORD
  5
2123
330
1
100
AcDbSymbolTableRecord
100
AcDbBlockTableRecord
  2
*D12
340
0
  0
BLOCK_RECORD
  5
2130
330
1
100
AcDbSymbolTableRecord
100
AcDbBlockTableRecord
  2
*D13
340
0
  0
BLOCK_RECORD
  5
213D
330
1
100
AcDbSymbolTableRecord
100
AcDbBlockTableRecord
  2
*D14
340
0
  0
BLOCK_RECORD
  5
2153
330
1
100
AcDbSymbolTableRecord
100
AcDbBlockTableRecord
  2
*D16
340
0
  0
BLOCK_RECORD
  5
2293
330
1
100
AcDbSymbolTableRecord
100
AcDbBlockTableRecord
  2
*D19
340
0
  0
BLOCK_RECORD
  5
22A0
330
1
100
AcDbSymbolTableRecord
100
AcDbBlockTableRecord
  2
*D20
340
0
  0
BLOCK_RECORD
  5
22AD
330
1
100
AcDbSymbolTableRecord
100
AcDbBlockTableRecord
  2
*D21
340
0
  0
BLOCK_RECORD
  5
22BA
330
1
100
AcDbSymbolTableRecord
100
AcDbBlockTableRecord
  2
*D22
340
0
  0
BLOCK_RECORD
  5
22C7
330
1
100
AcDbSymbolTableRecord
100
AcDbBlockTableRecord
  2
*D23
340
0
  0
ENDTAB
  0
ENDSEC
  0
SECTION
  2
BLOCKS
  0
BLOCK
  5
1B
330
1A
100
AcDbEntity
  8
0
100
AcDbBlockBegin
  2
*MODEL_SPACE
 70
     0
 10
0.0
 20
0.0
 30
0.0
  3
*MODEL_SPACE
  1

  0
ENDBLK
  5
1C
330
1A
100
AcDbEntity
  8
0
100
AcDbBlockEnd
  0
BLOCK
  5
18
330
17
100
AcDbEntity
 67
     1
  8
0
100
AcDbBlockBegin
  2
*PAPER_SPACE
 70
     0
 10
0.0
 20
0.0
 30
0.0
  3
*PAPER_SPACE
  1

  0
ENDBLK
  5
19
330
17
100
AcDbEntity
 67
     1
  8
0
100
AcDbBlockEnd
  0
BLOCK
  5
1763
330
1761
100
AcDbEntity
  8
0
100
AcDbBlockBegin
  2
GENAXEH
 70
     0
 10
0.0
 20
0.0
 30
0.0
  3
GENAXEH
  1

  0
LINE
  5
1762
330
1761
100
AcDbEntity
  8
0
100
AcDbLine
 10
-1.0
 20
0.0
 30
0.0
 11
1.0
 21
0.0
 31
0.0
  0
ENDBLK
  5
1764
330
1761
100
AcDbEntity
  8
0
100
AcDbBlockEnd
  0
BLOCK
  5
177F
330
177B
100
AcDbEntity
  8
0
100
AcDbBlockBegin
  2
_Open30
 70
     0
 10
0.0
 20
0.0
 30
0.0
  3
_Open30
  1

  0
LINE
  5
177C
330
177B
100
AcDbEntity
  8
0
  6
ByBlock
 62
     0
370
    -2
100
AcDbLine
 10
-1.0
 20
0.26794919
 30
0.0
 11
0.0
 21
0.0
 31
0.0
  0
LINE
  5
177D
330
177B
100
AcDbEntity
  8
0
  6
ByBlock
 62
     0
370
    -2
100
AcDbLine
 10
0.0
 20
0.0
 30
0.0
 11
-1.0
 21
-0.26794919
 31
0.0
  0
LINE
  5
177E
330
177B
100
AcDbEntity
  8
0
  6
ByBlock
 62
     0
370
    -2
100
AcDbLine
 10
0.0
 20
0.0
 30
0.0
 11
-1.0
 21
0.0
 31
0.0
  0
ENDBLK
  5
1780
330
177B
100
AcDbEntity
  8
0
100
AcDbBlockEnd
  0
BLOCK
  5
2104
330
20F8
100
AcDbEntity
  8
0
100
AcDbBlockBegin
  2
*D9
 70
     1
 10
0.0
 20
0.0
 30
0.0
  3
*D9
  1

  0
LINE
  5
225A
330
20F8
100
AcDbEntity
  8
Dimension2_Bemaßung2
370
    -2
100
AcDbLine
 10
-75.00003161735242
 20
72.99997281005943
 30
0.0
 11
-75.00003161735242
 21
94.13909315958676
 31
0.0
  0
LINE
  5
225B
330
20F8
100
AcDbEntity
  8
Dimension2_Bemaßung2
370
    -2
100
AcDbLine
 10
-73.00003161735242
 20
74.99997281005943
 30
0.0
 11
-73.00003161735242
 21
94.13909315958676
 31
0.0
  0
LINE
  5
225C
330
20F8
100
AcDbEntity
  8
Dimension2_Bemaßung2
370
    -2
100
AcDbLine
 10
-71.00003161735242
 20
92.63909315958676
 30
0.0
 11
-69.00003161735241
 21
92.63909315958676
 31
0.0
  0
LINE
  5
225D
330
20F8
100
AcDbEntity
  8
Dimension2_Bemaßung2
370
    -2
100
AcDbLine
 10
-77.00003161735242
 20
92.63909315958676
 30
0.0
 11
-91.08890957010833
 21
92.63909315958676
 31
0.0
  0
LINE
  5
225E
330
20F8
100
AcDbEntity
  8
Dimension2_Bemaßung2
370
    -2
100
AcDbLine
 10
-73.00003161735242
 20
92.63909315958676
 30
0.0
 11
-75.00003161735242
 21
92.63909315958676
 31
0.0
  0
SOLID
  5
225F
330
20F8
100
AcDbEntity
  8
Dimension2_Bemaßung2
100
AcDbTrace
 10
-71.00003161735242
 20
92.97242649292009
 30
0.0
 11
-71.00003161735242
 21
92.30575982625344
 31
0.0
 12
-73.00003161735242
 22
92.63909315958676
 32
0.0
 13
-73.00003161735242
 23
92.63909315958676
 33
0.0
  0
SOLID
  5
2260
330
20F8
100
AcDbEntity
  8
Dimension2_Bemaßung2
100
AcDbTrace
 10
-77.00003161735242
 20
92.97242649292009
 30
0.0
 11
-77.00003161735242
 21
92.30575982625344
 31
0.0
 12
-75.00003161735242
 22
92.63909315958676
 32
0.0
 13
-75.00003161735242
 23
92.63909315958676
 33
0.0
  0
MTEXT
  5
2261
330
20F8
100
AcDbEntity
  8
Dimension2_Bemaßung2
100
AcDbMText
 10
-85.04447059373038
 20
94.78943764777573
 30
0.0
 40
3.5
 41
0.0
 71
     5
 72
     1
  1
\A2;2x45°
 73
     1
 44
1.0
1001
ACAD
1000
MTEXTBEGIN
1070
    73
1070
     1
1070
    44
1040
1.0
1070
    74
1070
     0
1000
MTEXTEND
  0
POINT
  5
2262
330
20F8
100
AcDbEntity
  8
Defpoints
 62
     0
100
AcDbPoint
 10
-75.00003161735242
 20
72.99997281005943
 30
0.0
  0
POINT
  5
2263
330
20F8
100
AcDbEntity
  8
Defpoints
 62
     0
100
AcDbPoint
 10
-73.00003161735242
 20
74.99997281005943
 30
0.0
  0
POINT
  5
2264
330
20F8
100
AcDbEntity
  8
Defpoints
 62
     0
100
AcDbPoint
 10
-73.00003161735242
 20
92.63909315958676
 30
0.0
  0
ENDBLK
  5
2105
330
20F8
100
AcDbEntity
  8
0
100
AcDbBlockEnd
  0
BLOCK
  5
2113
330
2107
100
AcDbEntity
  8
0
100
AcDbBlockBegin
  2
*D10
 70
     1
 10
0.0
 20
0.0
 30
0.0
  3
*D10
  1

  0
LINE
  5
224F
330
2107
100
AcDbEntity
  8
Dimension2_Bemaßung2
370
    -2
100
AcDbLine
 10
74.9999683826476
 20
49.49997281005942
 30
0.0
 11
87.58510657244414
 21
36.91483462026289
 31
0.0
  0
LINE
  5
2250
330
2107
100
AcDbEntity
  8
Dimension2_Bemaßung2
370
    -2
100
AcDbLine
 10
74.99996838264758
 20
50.49997281005943
 30
0.0
 11
87.58510657244423
 21
63.0851109998559
 31
0.0
  0
ARC
  5
2251
330
2107
100
AcDbEntity
  8
Dimension2_Bemaßung2
370
    -2
100
AcDbCircle
 10
74.49996838264758
 20
49.99997281005943
 30
0.0
 40
17.00517989353642
100
AcDbArc
 50
321.7425165493732
 51
38.2574834506266
  0
SOLID
  5
2252
330
2107
100
AcDbEntity
  8
Dimension2_Bemaßung2
100
AcDbTrace
 10
88.10220388834732
 20
39.24899093305429
 30
0.0
 11
87.60389392436071
 21
39.69185843495085
 31
0.0
 12
86.52444640066432
 22
37.97549479204272
 32
0.0
 13
86.52444640066432
 23
37.97549479204272
 33
0.0
  0
SOLID
  5
2253
330
2107
100
AcDbEntity
  8
Dimension2_Bemaßung2
100
AcDbTrace
 10
87.60389392436076
 20
60.30808718516794
 30
0.0
 11
88.10220388834737
 21
60.7509546870645
 31
0.0
 12
86.52444640066439
 22
62.02445082807609
 32
0.0
 13
86.52444640066439
 23
62.02445082807609
 33
0.0
  0
MTEXT
  5
2254
330
2107
100
AcDbEntity
  8
Dimension2_Bemaßung2
100
AcDbMText
 10
93.89929377193032
 20
50.8440503471245
 30
0.0
 40
3.5
 41
0.0
 71
     5
 72
     1
  1
\A2;0,5x90°
 11
0.0434695360976687
 21
-0.9990547529697526
 31
0.0
 73
     1
 44
1.0
1001
ACAD
1000
MTEXTBEGIN
1070
    73
1070
     1
1070
    44
1040
1.0
1070
    74
1070
     0
1000
MTEXTEND
  0
POINT
  5
2255
330
2107
100
AcDbEntity
  8
Defpoints
 62
     0
100
AcDbPoint
 10
90.92571082250598
 20
45.59870838821773
 30
0.0
  0
POINT
  5
2256
330
2107
100
AcDbEntity
  8
Defpoints
 62
     0
100
AcDbPoint
 10
74.49996838264758
 20
49.99997281005943
 30
0.0
  0
POINT
  5
2257
330
2107
100
AcDbEntity
  8
Defpoints
 62
     0
100
AcDbPoint
 10
74.49996838264758
 20
49.99997281005943
 30
0.0
  0
POINT
  5
2258
330
2107
100
AcDbEntity
  8
Defpoints
 62
     0
100
AcDbPoint
 10
74.9999683826476
 20
49.49997281005942
 30
0.0
  0
POINT
  5
2259
330
2107
100
AcDbEntity
  8
Defpoints
 62
     0
100
AcDbPoint
 10
74.99996838264758
 20
50.49997281005943
 30
0.0
  0
ENDBLK
  5
2114
330
2107
100
AcDbEntity
  8
0
100
AcDbBlockEnd
  0
BLOCK
  5
2120
330
2116
100
AcDbEntity
  8
0
100
AcDbBlockBegin
  2
*D11
 70
     1
 10
0.0
 20
0.0
 30
0.0
  3
*D11
  1

  0
LINE
  5
2265
330
2116
100
AcDbEntity
  8
Dimension2_Bemaßung2
370
    -2
100
AcDbLine
 10
-65.5000316173524
 20
20.09997281005943
 30
0.0
 11
-84.19540839403078
 21
20.09997281005944
 31
0.0
  0
LINE
  5
2266
330
2116
100
AcDbEntity
  8
Dimension2_Bemaßung2
370
    -2
100
AcDbLine
 10
-65.50003161735242
 20
-20.10002718994059
 30
0.0
 11
-84.19540839403078
 21
-20.10002718994058
 31
0.0
  0
LINE
  5
2267
330
2116
100
AcDbEntity
  8
Dimension2_Bemaßung2
370
    -2
100
AcDbLine
 10
-82.69540839403077
 20
18.09997281005943
 30
0.0
 11
-82.69540839403077
 21
-18.10002718994058
 31
0.0
  0
SOLID
  5
2268
330
2116
100
AcDbEntity
  8
Dimension2_Bemaßung2
100
AcDbTrace
 10
-83.02874172736411
 20
18.09997281005943
 30
0.0
 11
-82.36207506069744
 21
18.09997281005943
 31
0.0
 12
-82.69540839403077
 22
20.09997281005944
 32
0.0
 13
-82.69540839403077
 23
20.09997281005944
 33
0.0
  0
SOLID
  5
2269
330
2116
100
AcDbEntity
  8
Dimension2_Bemaßung2
100
AcDbTrace
 10
-83.02874172736411
 20
-18.10002718994058
 30
0.0
 11
-82.36207506069744
 21
-18.10002718994058
 31
0.0
 12
-82.69540839403077
 22
-20.10002718994058
 32
0.0
 13
-82.69540839403077
 23
-20.10002718994058
 33
0.0
  0
MTEXT
  5
226A
330
2116
100
AcDbEntity
  8
Dimension2_Bemaßung2
100
AcDbMText
 10
-84.84575288221975
 20
1.605318947199862
 30
0.0
 40
3.5
 41
0.0
 71
     5
 72
     1
  1
\A2;40.2
 11
0.0000000000000001
 21
1.0
 31
0.0
 73
     1
 44
1.0
1001
ACAD
1000
MTEXTBEGIN
1070
    73
1070
     1
1070
    44
1040
1.0
1070
    74
1070
     0
1000
MTEXTEND
  0
POINT
  5
226B
330
2116
100
AcDbEntity
  8
Defpoints
 62
     0
100
AcDbPoint
 10
-65.5000316173524
 20
20.09997281005943
 30
0.0
  0
POINT
  5
226C
330
2116
100
AcDbEntity
  8
Defpoints
 62
     0
100
AcDbPoint
 10
-65.50003161735242
 20
-20.10002718994059
 30
0.0
  0
POINT
  5
226D
330
2116
100
AcDbEntity
  8
Defpoints
 62
     0
100
AcDbPoint
 10
-82.69540839403077
 20
-20.10002718994058
 30
0.0
  0
ENDBLK
  5
2121
330
2116
100
AcDbEntity
  8
0
100
AcDbBlockEnd
  0
BLOCK
  5
212D
330
2123
100
AcDbEntity
  8
0
100
AcDbBlockBegin
  2
*D12
 70
     1
 10
0.0
 20
0.0
 30
0.0
  3
*D12
  1

  0
LINE
  5
226E
330
2123
100
AcDbEntity
  8
Dimension2_Bemaßung2
370
    -2
100
AcDbLine
 10
-65.50003161735242
 20
28.09997281005943
 30
0.0
 11
-93.12170243730042
 21
28.09997281005944
 31
0.0
  0
LINE
  5
226F
330
2123
100
AcDbEntity
  8
Dimension2_Bemaßung2
370
    -2
100
AcDbLine
 10
-65.50003161735242
 20
-28.10002718994058
 30
0.0
 11
-93.12170243730042
 21
-28.10002718994058
 31
0.0
  0
LINE
  5
2270
330
2123
100
AcDbEntity
  8
Dimension2_Bemaßung2
370
    -2
100
AcDbLine
 10
-91.62170243730043
 20
26.09997281005944
 30
0.0
 11
-91.62170243730043
 21
-26.10002718994058
 31
0.0
  0
SOLID
  5
2271
330
2123
100
AcDbEntity
  8
Dimension2_Bemaßung2
100
AcDbTrace
 10
-91.95503577063375
 20
26.09997281005944
 30
0.0
 11
-91.2883691039671
 21
26.09997281005944
 31
0.0
 12
-91.62170243730043
 22
28.09997281005944
 32
0.0
 13
-91.62170243730043
 23
28.09997281005944
 33
0.0
  0
SOLID
  5
2272
330
2123
100
AcDbEntity
  8
Dimension2_Bemaßung2
100
AcDbTrace
 10
-91.95503577063375
 20
-26.10002718994058
 30
0.0
 11
-91.2883691039671
 21
-26.10002718994058
 31
0.0
 12
-91.62170243730043
 22
-28.10002718994058
 32
0.0
 13
-91.62170243730043
 23
-28.10002718994058
 33
0.0
  0
MTEXT
  5
2273
330
2123
100
AcDbEntity
  8
Dimension2_Bemaßung2
100
AcDbMText
 10
-93.77204692548941
 20
2.441871677780909
 30
0.0
 40
3.5
 41
0.0
 71
     5
 72
     1
  1
\A2;56.2
 11
0.0000000000000001
 21
1.0
 31
0.0
 73
     1
 44
1.0
1001
ACAD
1000
MTEXTBEGIN
1070
    73
1070
     1
1070
    44
1040
1.0
1070
    74
1070
     0
1000
MTEXTEND
  0
POINT
  5
2274
330
2123
100
AcDbEntity
  8
Defpoints
 62
     0
100
AcDbPoint
 10
-65.50003161735242
 20
28.09997281005943
 30
0.0
  0
POINT
  5
2275
330
2123
100
AcDbEntity
  8
Defpoints
 62
     0
100
AcDbPoint
 10
-65.50003161735242
 20
-28.10002718994058
 30
0.0
  0
POINT
  5
2276
330
2123
100
AcDbEntity
  8
Defpoints
 62
     0
100
AcDbPoint
 10
-91.62170243730043
 20
-28.10002718994058
 30
0.0
  0
ENDBLK
  5
212E
330
2123
100
AcDbEntity
  8
0
100
AcDbBlockEnd
  0
BLOCK
  5
213A
330
2130
100
AcDbEntity
  8
0
100
AcDbBlockBegin
  2
*D13
 70
     1
 10
0.0
 20
0.0
 30
0.0
  3
*D13
  1

  0
LINE
  5
2277
330
2130
100
AcDbEntity
  8
Dimension2_Bemaßung2
370
    -2
100
AcDbLine
 10
-74.50003161735242
 20
49.99997281005942
 30
0.0
 11
-99.81642393636569
 21
49.99997281005943
 31
0.0
  0
LINE
  5
2278
330
2130
100
AcDbEntity
  8
Dimension2_Bemaßung2
370
    -2
100
AcDbLine
 10
-74.50003161735242
 20
-50.00002718994057
 30
0.0
 11
-99.81642393636573
 21
-50.00002718994057
 31
0.0
  0
LINE
  5
2279
330
2130
100
AcDbEntity
  8
Dimension2_Bemaßung2
370
    -2
100
AcDbLine
 10
-98.3164239363657
 20
47.99997281005943
 30
0.0
 11
-98.31642393636572
 21
-48.00002718994057
 31
0.0
  0
SOLID
  5
227A
330
2130
100
AcDbEntity
  8
Dimension2_Bemaßung2
100
AcDbTrace
 10
-98.64975726969902
 20
47.99997281005943
 30
0.0
 11
-97.98309060303237
 21
47.99997281005943
 31
0.0
 12
-98.3164239363657
 22
49.99997281005943
 32
0.0
 13
-98.3164239363657
 23
49.99997281005943
 33
0.0
  0
SOLID
  5
227B
330
2130
100
AcDbEntity
  8
Dimension2_Bemaßung2
100
AcDbTrace
 10
-98.64975726969905
 20
-48.00002718994057
 30
0.0
 11
-97.98309060303239
 21
-48.00002718994057
 31
0.0
 12
-98.31642393636572
 22
-50.00002718994057
 32
0.0
 13
-98.31642393636572
 23
-50.00002718994057
 33
0.0
  0
MTEXT
  5
227C
330
2130
100
AcDbEntity
  8
Dimension2_Bemaßung2
100
AcDbMText
 10
-100.4664239363657
 20
2.999573698173094
 30
0.0
 40
3.5
 41
0.0
 71
     5
 72
     1
  1
\A2;100
 11
0.0000000000000001
 21
1.0
 31
0.0
 73
     1
 44
1.0
1001
ACAD
1000
MTEXTBEGIN
1070
    73
1070
     1
1070
    44
1040
1.0
1070
    74
1070
     0
1000
MTEXTEND
  0
POINT
  5
227D
330
2130
100
AcDbEntity
  8
Defpoints
 62
     0
100
AcDbPoint
 10
-74.50003161735242
 20
49.99997281005942
 30
0.0
  0
POINT
  5
227E
330
2130
100
AcDbEntity
  8
Defpoints
 62
     0
100
AcDbPoint
 10
-74.50003161735242
 20
-50.00002718994057
 30
0.0
  0
POINT
  5
227F
330
2130
100
AcDbEntity
  8
Defpoints
 62
     0
100
AcDbPoint
 10
-98.31642393636572
 20
-50.00002718994057
 30
0.0
  0
ENDBLK
  5
213B
330
2130
100
AcDbEntity
  8
0
100
AcDbBlockEnd
  0
BLOCK
  5
2147
330
213D
100
AcDbEntity
  8
0
100
AcDbBlockBegin
  2
*D14
 70
     1
 10
0.0
 20
0.0
 30
0.0
  3
*D14
  1

  0
LINE
  5
2280
330
213D
100
AcDbEntity
  8
Dimension2_Bemaßung2
370
    -2
100
AcDbLine
 10
-65.50003161735242
 20
67.99997281005942
 30
0.0
 11
-107.0690381848369
 21
67.99997281005943
 31
0.0
  0
LINE
  5
2281
330
213D
100
AcDbEntity
  8
Dimension2_Bemaßung2
370
    -2
100
AcDbLine
 10
-65.50003161735242
 20
-68.00002718994057
 30
0.0
 11
-107.0690381848369
 21
-68.00002718994055
 31
0.0
  0
LINE
  5
2282
330
213D
100
AcDbEntity
  8
Dimension2_Bemaßung2
370
    -2
100
AcDbLine
 10
-105.5690381848369
 20
65.99997281005943
 30
0.0
 11
-105.5690381848369
 21
-66.00002718994055
 31
0.0
  0
SOLID
  5
2283
330
213D
100
AcDbEntity
  8
Dimension2_Bemaßung2
100
AcDbTrace
 10
-105.9023715181702
 20
65.99997281005943
 30
0.0
 11
-105.2357048515035
 21
65.99997281005943
 31
0.0
 12
-105.5690381848369
 22
67.99997281005943
 32
0.0
 13
-105.5690381848369
 23
67.99997281005943
 33
0.0
  0
SOLID
  5
2284
330
213D
100
AcDbEntity
  8
Dimension2_Bemaßung2
100
AcDbTrace
 10
-105.9023715181703
 20
-66.00002718994055
 30
0.0
 11
-105.2357048515036
 21
-66.00002718994055
 31
0.0
 12
-105.5690381848369
 22
-68.00002718994055
 32
0.0
 13
-105.5690381848369
 23
-68.00002718994055
 33
0.0
  0
MTEXT
  5
2285
330
213D
100
AcDbEntity
  8
Dimension2_Bemaßung2
100
AcDbMText
 10
-107.7190381848369
 20
2.999573698173094
 30
0.0
 40
3.5
 41
0.0
 71
     5
 72
     1
  1
\A2;136
 11
0.0000000000000001
 21
1.0
 31
0.0
 73
     1
 44
1.0
1001
ACAD
1000
MTEXTBEGIN
1070
    73
1070
     1
1070
    44
1040
1.0
1070
    74
1070
     0
1000
MTEXTEND
  0
POINT
  5
2286
330
213D
100
AcDbEntity
  8
Defpoints
 62
     0
100
AcDbPoint
 10
-65.50003161735242
 20
67.99997281005942
 30
0.0
  0
POINT
  5
2287
330
213D
100
AcDbEntity
  8
Defpoints
 62
     0
100
AcDbPoint
 10
-65.50003161735242
 20
-68.00002718994057
 30
0.0
  0
POINT
  5
2288
330
213D
100
AcDbEntity
  8
Defpoints
 62
     0
100
AcDbPoint
 10
-105.5690381848369
 20
-68.00002718994055
 30
0.0
  0
ENDBLK
  5
2148
330
213D
100
AcDbEntity
  8
0
100
AcDbBlockEnd
  0
BLOCK
  5
215D
330
2153
100
AcDbEntity
  8
0
100
AcDbBlockBegin
  2
*D16
 70
     1
 10
0.0
 20
0.0
 30
0.0
  3
*D16
  1

  0
LINE
  5
2289
330
2153
100
AcDbEntity
  8
Dimension1_Bemaßung1
370
    -2
100
AcDbLine
 10
-73.00003161735242
 20
74.99997281005943
 30
0.0
 11
-114.0427064452503
 21
74.99997281005945
 31
0.0
  0
LINE
  5
228A
330
2153
100
AcDbEntity
  8
Dimension1_Bemaßung1
370
    -2
100
AcDbLine
 10
-73.00003161735242
 20
-75.00002718994057
 30
0.0
 11
-114.0427064452504
 21
-75.00002718994055
 31
0.0
  0
LINE
  5
228B
330
2153
100
AcDbEntity
  8
Dimension1_Bemaßung1
370
    -2
100
AcDbLine
 10
-112.5427064452503
 20
72.99997281005945
 30
0.0
 11
-112.5427064452503
 21
-73.00002718994055
 31
0.0
  0
SOLID
  5
228C
330
2153
100
AcDbEntity
  8
Dimension1_Bemaßung1
100
AcDbTrace
 10
-112.8760397785836
 20
72.99997281005945
 30
0.0
 11
-112.209373111917
 21
72.99997281005945
 31
0.0
 12
-112.5427064452503
 22
74.99997281005945
 32
0.0
 13
-112.5427064452503
 23
74.99997281005945
 33
0.0
  0
SOLID
  5
228D
330
2153
100
AcDbEntity
  8
Dimension1_Bemaßung1
100
AcDbTrace
 10
-112.8760397785837
 20
-73.00002718994055
 30
0.0
 11
-112.209373111917
 21
-73.00002718994055
 31
0.0
 12
-112.5427064452503
 22
-75.00002718994055
 32
0.0
 13
-112.5427064452503
 23
-75.00002718994055
 33
0.0
  0
MTEXT
  5
228E
330
2153
100
AcDbEntity
  8
Dimension1_Bemaßung1
100
AcDbMText
 10
-114.6927064452503
 20
2.441871677780909
 30
0.0
 40
3.5
 41
0.0
 71
     5
 72
     1
  1
\A2;150
 11
0.0000000000000001
 21
1.0
 31
0.0
 73
     1
 44
1.0
1001
ACAD
1000
MTEXTBEGIN
1070
    73
1070
     1
1070
    44
1040
1.0
1070
    74
1070
     0
1000
MTEXTEND
  0
POINT
  5
228F
330
2153
100
AcDbEntity
  8
Defpoints
 62
     0
100
AcDbPoint
 10
-73.00003161735242
 20
74.99997281005943
 30
0.0
  0
POINT
  5
2290
330
2153
100
AcDbEntity
  8
Defpoints
 62
     0
100
AcDbPoint
 10
-73.00003161735242
 20
-75.00002718994057
 30
0.0
  0
POINT
  5
2291
330
2153
100
AcDbEntity
  8
Defpoints
 62
     0
100
AcDbPoint
 10
-112.5427064452503
 20
-75.00002718994055
 30
0.0
  0
ENDBLK
  5
215E
330
2153
100
AcDbEntity
  8
0
100
AcDbBlockEnd
  0
BLOCK
  5
229D
330
2293
100
AcDbEntity
  8
0
100
AcDbBlockBegin
  2
*D19
 70
     1
 10
0.0
 20
0.0
 30
0.0
  3
*D19
  1

  0
LINE
  5
2294
330
2293
100
AcDbEntity
  8
Dimension2_Bemaßung2
370
    -2
100
AcDbLine
 10
-20.10003161735242
 20
65.4999728100594
 30
0.0
 11
-20.10003161735242
 21
92.3755499221545
 31
0.0
  0
LINE
  5
2295
330
2293
100
AcDbEntity
  8
Dimension2_Bemaßung2
370
    -2
100
AcDbLine
 10
20.09996838264758
 20
65.4999728100594
 30
0.0
 11
20.09996838264758
 21
92.3755499221545
 31
0.0
  0
LINE
  5
2296
330
2293
100
AcDbEntity
  8
Dimension2_Bemaßung2
370
    -2
100
AcDbLine
 10
-18.10003161735242
 20
90.8755499221545
 30
0.0
 11
18.09996838264758
 21
90.8755499221545
 31
0.0
  0
SOLID
  5
2297
330
2293
100
AcDbEntity
  8
Dimension2_Bemaßung2
100
AcDbTrace
 10
-18.10003161735242
 20
91.20888325548783
 30
0.0
 11
-18.10003161735242
 21
90.54221658882118
 31
0.0
 12
-20.10003161735242
 22
90.8755499221545
 32
0.0
 13
-20.10003161735242
 23
90.8755499221545
 33
0.0
  0
SOLID
  5
2298
330
2293
100
AcDbEntity
  8
Dimension2_Bemaßung2
100
AcDbTrace
 10
18.09996838264758
 20
91.20888325548783
 30
0.0
 11
18.09996838264758
 21
90.54221658882118
 31
0.0
 12
20.09996838264758
 22
90.8755499221545
 32
0.0
 13
20.09996838264758
 23
90.8755499221545
 33
0.0
  0
MTEXT
  5
2299
330
2293
100
AcDbEntity
  8
Dimension2_Bemaßung2
100
AcDbMText
 10
-1.086179514001287
 20
93.02589441034347
 30
0.0
 40
3.5
 41
0.0
 71
     5
 72
     1
  1
\A2;40.2
 73
     1
 44
1.0
1001
ACAD
1000
MTEXTBEGIN
1070
    73
1070
     1
1070
    44
1040
1.0
1070
    74
1070
     0
1000
MTEXTEND
  0
POINT
  5
229A
330
2293
100
AcDbEntity
  8
Defpoints
 62
     0
100
AcDbPoint
 10
-20.10003161735242
 20
65.4999728100594
 30
0.0
  0
POINT
  5
229B
330
2293
100
AcDbEntity
  8
Defpoints
 62
     0
100
AcDbPoint
 10
20.09996838264758
 20
65.4999728100594
 30
0.0
  0
POINT
  5
229C
330
2293
100
AcDbEntity
  8
Defpoints
 62
     0
100
AcDbPoint
 10
20.09996838264758
 20
90.8755499221545
 30
0.0
  0
ENDBLK
  5
229E
330
2293
100
AcDbEntity
  8
0
100
AcDbBlockEnd
  0
BLOCK
  5
22AA
330
22A0
100
AcDbEntity
  8
0
100
AcDbBlockBegin
  2
*D20
 70
     1
 10
0.0
 20
0.0
 30
0.0
  3
*D20
  1

  0
LINE
  5
22A1
330
22A0
100
AcDbEntity
  8
Dimension2_Bemaßung2
370
    -2
100
AcDbLine
 10
-28.10003161735242
 20
65.49997281005942
 30
0.0
 11
-28.10003161735242
 21
100.3115106909912
 31
0.0
  0
LINE
  5
22A2
330
22A0
100
AcDbEntity
  8
Dimension2_Bemaßung2
370
    -2
100
AcDbLine
 10
28.09996838264758
 20
65.49997281005942
 30
0.0
 11
28.09996838264759
 21
100.3115106909912
 31
0.0
  0
LINE
  5
22A3
330
22A0
100
AcDbEntity
  8
Dimension2_Bemaßung2
370
    -2
100
AcDbLine
 10
-26.10003161735242
 20
98.81151069099121
 30
0.0
 11
26.09996838264759
 21
98.81151069099121
 31
0.0
  0
SOLID
  5
22A4
330
22A0
100
AcDbEntity
  8
Dimension2_Bemaßung2
100
AcDbTrace
 10
-26.10003161735242
 20
99.14484402432455
 30
0.0
 11
-26.10003161735242
 21
98.47817735765788
 31
0.0
 12
-28.10003161735242
 22
98.81151069099121
 32
0.0
 13
-28.10003161735242
 23
98.81151069099121
 33
0.0
  0
SOLID
  5
22A5
330
22A0
100
AcDbEntity
  8
Dimension2_Bemaßung2
100
AcDbTrace
 10
26.09996838264759
 20
99.14484402432455
 30
0.0
 11
26.09996838264759
 21
98.47817735765788
 31
0.0
 12
28.09996838264759
 22
98.81151069099121
 32
0.0
 13
28.09996838264759
 23
98.81151069099121
 33
0.0
  0
MTEXT
  5
22A6
330
22A0
100
AcDbEntity
  8
Dimension2_Bemaßung2
100
AcDbMText
 10
2.001088456451839
 20
100.9618551791802
 30
0.0
 40
3.5
 41
0.0
 71
     5
 72
     1
  1
\A2;56.2
 73
     1
 44
1.0
1001
ACAD
1000
MTEXTBEGIN
1070
    73
1070
     1
1070
    44
1040
1.0
1070
    74
1070
     0
1000
MTEXTEND
  0
POINT
  5
22A7
330
22A0
100
AcDbEntity
  8
Defpoints
 62
     0
100
AcDbPoint
 10
-28.10003161735242
 20
65.49997281005942
 30
0.0
  0
POINT
  5
22A8
330
22A0
100
AcDbEntity
  8
Defpoints
 62
     0
100
AcDbPoint
 10
28.09996838264758
 20
65.49997281005942
 30
0.0
  0
POINT
  5
22A9
330
22A0
100
AcDbEntity
  8
Defpoints
 62
     0
100
AcDbPoint
 10
28.09996838264759
 20
98.81151069099121
 30
0.0
  0
ENDBLK
  5
22AB
330
22A0
100
AcDbEntity
  8
0
100
AcDbBlockEnd
  0
BLOCK
  5
22B7
330
22AD
100
AcDbEntity
  8
0
100
AcDbBlockBegin
  2
*D21
 70
     1
 10
0.0
 20
0.0
 30
0.0
  3
*D21
  1

  0
LINE
  5
22AE
330
22AD
100
AcDbEntity
  8
Dimension2_Bemaßung2
370
    -2
100
AcDbLine
 10
-50.00003161735242
 20
74.49997281005943
 30
0.0
 11
-50.00003161735242
 21
107.7094853138733
 31
0.0
  0
LINE
  5
22AF
330
22AD
100
AcDbEntity
  8
Dimension2_Bemaßung2
370
    -2
100
AcDbLine
 10
49.99996838264758
 20
74.49997281005943
 30
0.0
 11
49.99996838264758
 21
107.7094853138733
 31
0.0
  0
LINE
  5
22B0
330
22AD
100
AcDbEntity
  8
Dimension2_Bemaßung2
370
    -2
100
AcDbLine
 10
-48.00003161735242
 20
106.2094853138733
 30
0.0
 11
47.99996838264758
 21
106.2094853138733
 31
0.0
  0
SOLID
  5
22B1
330
22AD
100
AcDbEntity
  8
Dimension2_Bemaßung2
100
AcDbTrace
 10
-48.00003161735242
 20
106.5428186472066
 30
0.0
 11
-48.00003161735242
 21
105.8761519805399
 31
0.0
 12
-50.00003161735242
 22
106.2094853138733
 32
0.0
 13
-50.00003161735242
 23
106.2094853138733
 33
0.0
  0
SOLID
  5
22B2
330
22AD
100
AcDbEntity
  8
Dimension2_Bemaßung2
100
AcDbTrace
 10
47.99996838264758
 20
106.5428186472066
 30
0.0
 11
47.99996838264758
 21
105.8761519805399
 31
0.0
 12
49.99996838264758
 22
106.2094853138733
 32
0.0
 13
49.99996838264758
 23
106.2094853138733
 33
0.0
  0
MTEXT
  5
22B3
330
22AD
100
AcDbEntity
  8
Dimension2_Bemaßung2
100
AcDbMText
 10
2.826985133373455
 20
108.3594853138733
 30
0.0
 40
3.5
 41
0.0
 71
     5
 72
     1
  1
\A2;100
 73
     1
 44
1.0
1001
ACAD
1000
MTEXTBEGIN
1070
    73
1070
     1
1070
    44
1040
1.0
1070
    74
1070
     0
1000
MTEXTEND
  0
POINT
  5
22B4
330
22AD
100
AcDbEntity
  8
Defpoints
 62
     0
100
AcDbPoint
 10
-50.00003161735242
 20
74.49997281005943
 30
0.0
  0
POINT
  5
22B5
330
22AD
100
AcDbEntity
  8
Defpoints
 62
     0
100
AcDbPoint
 10
49.99996838264758
 20
74.49997281005943
 30
0.0
  0
POINT
  5
22B6
330
22AD
100
AcDbEntity
  8
Defpoints
 62
     0
100
AcDbPoint
 10
49.99996838264758
 20
106.2094853138733
 30
0.0
  0
ENDBLK
  5
22B8
330
22AD
100
AcDbEntity
  8
0
100
AcDbBlockEnd
  0
BLOCK
  5
22C4
330
22BA
100
AcDbEntity
  8
0
100
AcDbBlockBegin
  2
*D22
 70
     1
 10
0.0
 20
0.0
 30
0.0
  3
*D22
  1

  0
LINE
  5
22BB
330
22BA
100
AcDbEntity
  8
Dimension2_Bemaßung2
370
    -2
100
AcDbLine
 10
-68.00003161735242
 20
65.49997281005942
 30
0.0
 11
-68.00003161735242
 21
117.3548086163527
 31
0.0
  0
LINE
  5
22BC
330
22BA
100
AcDbEntity
  8
Dimension2_Bemaßung2
370
    -2
100
AcDbLine
 10
67.99996838264758
 20
65.49997281005942
 30
0.0
 11
67.99996838264758
 21
117.3548086163527
 31
0.0
  0
LINE
  5
22BD
330
22BA
100
AcDbEntity
  8
Dimension2_Bemaßung2
370
    -2
100
AcDbLine
 10
-66.00003161735242
 20
115.8548086163526
 30
0.0
 11
65.99996838264758
 21
115.8548086163526
 31
0.0
  0
SOLID
  5
22BE
330
22BA
100
AcDbEntity
  8
Dimension2_Bemaßung2
100
AcDbTrace
 10
-66.00003161735242
 20
116.188141949686
 30
0.0
 11
-66.00003161735242
 21
115.5214752830193
 31
0.0
 12
-68.00003161735242
 22
115.8548086163526
 32
0.0
 13
-68.00003161735242
 23
115.8548086163526
 33
0.0
  0
SOLID
  5
22BF
330
22BA
100
AcDbEntity
  8
Dimension2_Bemaßung2
100
AcDbTrace
 10
65.99996838264758
 20
116.188141949686
 30
0.0
 11
65.99996838264758
 21
115.5214752830193
 31
0.0
 12
67.99996838264758
 22
115.8548086163526
 32
0.0
 13
67.99996838264758
 23
115.8548086163526
 33
0.0
  0
MTEXT
  5
22C0
330
22BA
100
AcDbEntity
  8
Dimension2_Bemaßung2
100
AcDbMText
 10
3.554116374643854
 20
118.0048086163526
 30
0.0
 40
3.5
 41
0.0
 71
     5
 72
     1
  1
\A2;136
 73
     1
 44
1.0
1001
ACAD
1000
MTEXTBEGIN
1070
    73
1070
     1
1070
    44
1040
1.0
1070
    74
1070
     0
1000
MTEXTEND
  0
POINT
  5
22C1
330
22BA
100
AcDbEntity
  8
Defpoints
 62
     0
100
AcDbPoint
 10
-68.00003161735242
 20
65.49997281005942
 30
0.0
  0
POINT
  5
22C2
330
22BA
100
AcDbEntity
  8
Defpoints
 62
     0
100
AcDbPoint
 10
67.99996838264758
 20
65.49997281005942
 30
0.0
  0
POINT
  5
22C3
330
22BA
100
AcDbEntity
  8
Defpoints
 62
     0
100
AcDbPoint
 10
67.99996838264758
 20
115.8548086163526
 30
0.0
  0
ENDBLK
  5
22C5
330
22BA
100
AcDbEntity
  8
0
100
AcDbBlockEnd
  0
BLOCK
  5
22D1
330
22C7
100
AcDbEntity
  8
0
100
AcDbBlockBegin
  2
*D23
 70
     1
 10
0.0
 20
0.0
 30
0.0
  3
*D23
  1

  0
LINE
  5
22C8
330
22C7
100
AcDbEntity
  8
Dimension1_Bemaßung1
370
    -2
100
AcDbLine
 10
-75.00003161735242
 20
72.99997281005943
 30
0.0
 11
-75.00003161735242
 21
126.6869105815576
 31
0.0
  0
LINE
  5
22C9
330
22C7
100
AcDbEntity
  8
Dimension1_Bemaßung1
370
    -2
100
AcDbLine
 10
74.99996838264758
 20
72.99997281005943
 30
0.0
 11
74.99996838264758
 21
126.6869105815576
 31
0.0
  0
LINE
  5
22CA
330
22C7
100
AcDbEntity
  8
Dimension1_Bemaßung1
370
    -2
100
AcDbLine
 10
-73.00003161735242
 20
125.1869105815576
 30
0.0
 11
72.99996838264758
 21
125.1869105815576
 31
0.0
  0
SOLID
  5
22CB
330
22C7
100
AcDbEntity
  8
Dimension1_Bemaßung1
100
AcDbTrace
 10
-73.00003161735242
 20
125.5202439148909
 30
0.0
 11
-73.00003161735242
 21
124.8535772482243
 31
0.0
 12
-75.00003161735242
 22
125.1869105815576
 32
0.0
 13
-75.00003161735242
 23
125.1869105815576
 33
0.0
  0
SOLID
  5
22CC
330
22C7
100
AcDbEntity
  8
Dimension1_Bemaßung1
100
AcDbTrace
 10
72.99996838264758
 20
125.5202439148909
 30
0.0
 11
72.99996838264758
 21
124.8535772482243
 31
0.0
 12
74.99996838264758
 22
125.1869105815576
 32
0.0
 13
74.99996838264758
 23
125.1869105815576
 33
0.0
  0
MTEXT
  5
22CD
330
22C7
100
AcDbEntity
  8
Dimension1_Bemaßung1
100
AcDbMText
 10
4.087563091547281
 20
127.3369105815576
 30
0.0
 40
3.5
 41
0.0
 71
     5
 72
     1
  1
\A2;150
 73
     1
 44
1.0
1001
ACAD
1000
MTEXTBEGIN
1070
    73
1070
     1
1070
    44
1040
1.0
1070
    74
1070
     0
1000
MTEXTEND
  0
POINT
  5
22CE
330
22C7
100
AcDbEntity
  8
Defpoints
 62
     0
100
AcDbPoint
 10
-75.00003161735242
 20
72.99997281005943
 30
0.0
  0
POINT
  5
22CF
330
22C7
100
AcDbEntity
  8
Defpoints
 62
     0
100
AcDbPoint
 10
74.99996838264758
 20
72.99997281005943
 30
0.0
  0
POINT
  5
22D0
330
22C7
100
AcDbEntity
  8
Defpoints
 62
     0
100
AcDbPoint
 10
74.99996838264758
 20
125.1869105815576
 30
0.0
  0
ENDBLK
  5
22D2
330
22C7
100
AcDbEntity
  8
0
100
AcDbBlockEnd
  0
ENDSEC
  0
SECTION
  2
ENTITIES
  0
POINT
  5
1286
330
1A
100
AcDbEntity
  8
0
 60
     1
100
AcDbPoint
 10
0.0
 20
0.0
 30
0.0
1001
GENIUS_GENODEF_13
1002
{
1000
HIER
1070
     1
1002
}
1002
{
1000
MANEDIT
1070
     0
1002
}
1002
{
1000
NOSEL
1070
     0
1002
}
1002
{
1000
BEHIND
1070
     0
1002
}
1002
{
1000
REACTOR
1002
}
1001
GENIUS_GENOBJ-N-SDF_13
1002
{
1000
OWNER
1000
GEN
1002
}
1001
GENIUS_GENOENT_13
1002
{
1000
MYREF
1005
1286
1002
}
1002
{
1000
GRP
1005
0
1002
}
1001
GENIUS_GENOLIS_13
1002
{
1000
ENT
1005
22
1002
}
  0
LINE
  5
17DD
330
1A
100
AcDbEntity
  8
Center of gravity_Schwerpunkt
100
AcDbLine
 10
-77.37056098804453
 20
0.0
 30
0.0
 11
76.99284372093632
 21
0.0
 31
0.0
  0
LINE
  5
17DE
330
1A
100
AcDbEntity
  8
Center of gravity_Schwerpunkt
100
AcDbLine
 10
0.0
 20
-78.41900093662366
 30
0.0
 11
0.0
 21
77.41877830200213
 31
0.0
  0
TEXT
  5
17E7
330
1A
100
AcDbEntity
  8
Center of gravity_Schwerpunkt
100
AcDbText
 10
-1.143852890849331
 20
81.88820208590657
 30
0.0
 40
5.0
  1
Y
100
AcDbText
  0
TEXT
  5
17E8
330
1A
100
AcDbEntity
  8
Center of gravity_Schwerpunkt
100
AcDbText
 10
77.2730228954365
 20
-6.887893374959503
 30
0.0
 40
5.0
  1
X
100
AcDbText
  0
DIMENSION
  5
20F7
330
1A
100
AcDbEntity
  8
Dimension2_Bemaßung2
100
AcDbDimension
  2
*D9
 10
-73.00003161735242
 20
92.63909315958676
 30
0.0
 11
-85.04447059373038
 21
92.63909315958676
 31
0.0
 70
   160
  1
<>x45°
 71
     5
 42
2.0
  3
PALETTI
100
AcDbAlignedDimension
 13
-75.00003161735242
 23
72.99997281005943
 33
0.0
 14
-73.00003161735242
 24
74.99997281005943
 34
0.0
100
AcDbRotatedDimension
  0
DIMENSION
  5
2106
330
1A
100
AcDbEntity
  8
Dimension2_Bemaßung2
100
AcDbDimension
  2
*D10
 10
74.99996838264758
 20
50.49997281005943
 30
0.0
 11
91.48907418039081
 21
50.73918009128886
 31
0.0
 70
   162
  1
0,5x<>
 71
     5
 42
1.570796326794888
  3
PALETTI
100
AcDb2LineAngularDimension
 13
74.49996838264758
 23
49.99997281005942
 33
0.0
 14
74.99996838264758
 24
49.49997281005942
 34
0.0
 15
74.49996838264758
 25
49.99997281005942
 35
0.0
 16
90.92571082250598
 26
45.59870838821773
 36
0.0
  0
DIMENSION
  5
2115
330
1A
100
AcDbEntity
  8
Dimension2_Bemaßung2
100
AcDbDimension
  2
*D11
 10
-82.69540839403077
 20
-20.10002718994058
 30
0.0
 11
-82.69540839403077
 21
1.605318947199862
 31
0.0
 70
   160
 71
     5
 42
40.20000000000002
  3
PALETTI
100
AcDbAlignedDimension
 13
-65.5000316173524
 23
20.09997281005943
 33
0.0
 14
-65.50003161735242
 24
-20.10002718994059
 34
0.0
 50
90.0
100
AcDbRotatedDimension
  0
DIMENSION
  5
2122
330
1A
100
AcDbEntity
  8
Dimension2_Bemaßung2
100
AcDbDimension
  2
*D12
 10
-91.62170243730043
 20
-28.10002718994058
 30
0.0
 11
-91.62170243730043
 21
2.441871677780909
 31
0.0
 70
   160
 71
     5
 42
56.20000000000001
  3
PALETTI
100
AcDbAlignedDimension
 13
-65.50003161735242
 23
28.09997281005943
 33
0.0
 14
-65.50003161735242
 24
-28.10002718994058
 34
0.0
 50
90.0
100
AcDbRotatedDimension
  0
DIMENSION
  5
212F
330
1A
100
AcDbEntity
  8
Dimension2_Bemaßung2
100
AcDbDimension
  2
*D13
 10
-98.31642393636572
 20
-50.00002718994057
 30
0.0
 11
-98.3164239363657
 21
2.999573698173094
 31
0.0
 70
   160
 71
     5
 42
100.0
  3
PALETTI
100
AcDbAlignedDimension
 13
-74.50003161735242
 23
49.99997281005942
 33
0.0
 14
-74.50003161735242
 24
-50.00002718994057
 34
0.0
 50
90.0
100
AcDbRotatedDimension
  0
DIMENSION
  5
213C
330
1A
100
AcDbEntity
  8
Dimension2_Bemaßung2
100
AcDbDimension
  2
*D14
 10
-105.5690381848369
 20
-68.00002718994055
 30
0.0
 11
-105.5690381848369
 21
2.999573698173094
 31
0.0
 70
   160
 71
     5
 42
136.0
  3
PALETTI
100
AcDbAlignedDimension
 13
-65.50003161735242
 23
67.99997281005942
 33
0.0
 14
-65.50003161735242
 24
-68.00002718994057
 34
0.0
 50
90.0
100
AcDbRotatedDimension
  0
DIMENSION
  5
2152
330
1A
100
AcDbEntity
  8
Dimension1_Bemaßung1
100
AcDbDimension
  2
*D16
 10
-112.5427064452503
 20
-75.00002718994055
 30
0.0
 11
-112.5427064452503
 21
2.441871677780909
 31
0.0
 70
   160
 71
     5
 42
150.0
  3
PALETTI
100
AcDbAlignedDimension
 13
-73.00003161735242
 23
74.99997281005943
 33
0.0
 14
-73.00003161735242
 24
-75.00002718994057
 34
0.0
 50
90.0
100
AcDbRotatedDimension
  0
REGION
  5
224C
330
1A
100
AcDbEntity
  8
0
100
AcDbModelerGeometry
 70
     1
  1
koo jki n o         
  1
lj ^ *+0;:,4 R:<7>16<>3 [:,4+0/ mook [G nh ^ LR iqoqkqhooh QK mk K*: P<+ nf ogenheli mook 
  1
n fqfffffffffffffffj:rooh n:rono 
  1
=0;& {n {m {rn {rn |
  1
-:9@)+r:&:r>++-6= {rn {rn {rn {o {l {k |
  1
3*2/ {j {rn {i {o |
  1
:&:@-:961:2:1+ {rn j 8-6;  n l +-6 n k ,*-9 o l >;5 o k 8->; o f /0,+<7:<4 o k ,+03 nqomgfmojhighglig k 1+03 lo k ;,63 o g 93>+1:,, o h /6'>-:> o k 72>' o i 8-6;>- o j 28-6; looo j *8-6; o j )8-6; o no :1;@96:3;, |
  1
):-+:'@+:2/3>+: {rn l o n g |
  1
-:9@)+r:&:r>++-6= {rn {rn {rn {m {l {k |
  1
,7:33 {h {rn {rn {g {rn {m |
  1
-:9@)+r:&:r>++-6= {rn {rn {rn {i {l {k |
  1
9><: {f {rn {no {i {rn {nn 90-(>-; ;0*=3: 0*+ |
  1
92:,7r:&:r>++-6= {rn {nm {rn {g |
  1
300/ {rn {nl {nk {g |
  1
/3>1:r,*-9><: {rn rlqninhljmkmoilmonh:rooj rmqhngffkojijmhjlj:rooj o o o n n o o 90-(>-;@) V V V V |
  1
-:9@)+r:&:r>++-6= {rn {rn {f {g {l {k |
  1
300/ {rn {nj {ni {g |
  1
<0:;8: {rn {nh {ng {rn {nf 90-(>-; {no {rn |
  1
300/ {rn {mo {mn {g |
  1
<0:;8: {rn {mm {ml {rn {mk 90-(>-; {nl {rn |
  1
<0:;8: {rn {mj {nk {rn {mi 90-(>-; {no {rn |
  1
<0:;8: {rn {nk {mh {rn {mg 90-(>-; {no {rn |
  1
:;8: {mf {lo {ln {nk {lm 90-(>-; |
  1
300/ {rn {ll {lk {g |
  1
<0:;8: {rn {lj {li {rn {lh 90-(>-; {nj {rn |
  1
<0:;8: {rn {lg {ni {rn {lf 90-(>-; {nl {rn |
  1
<0:;8: {rn {ni {ko {rn {kn 90-(>-; {nl {rn |
  1
:;8: {km {kl {kk {ni {kj 90-(>-; |
  1
<0:;8: {rn {ki {nh {rn {kh 90-(>-; {no {rn |
  1
:;8: {kg {ln {kf {nh {jo 90-(>-; |
  1
<0:;8: {rn {ng {jn {rn {jm 90-(>-; {no {rn |
  1
:;8: {jl {jk {lo {ng {jj 90-(>-; |
  1
/+36,+r:&:r>++-6= {rn {rn {rn {nf |
  1
):-+:' {rn {nf {ji |
  1
):-+:' {rn {nf {jh |
  1
:336/,:r<*-): {rn ijqkfffiglgmikhjg ijqkfffhmgnoojfkng o o o rn mqj o o n Y rnqjhohfilmihfkgfii Y o |
  1
300/ {rn {jg {jf {g |
  1
<0:;8: {rn {io {in {rn {im 90-(>-; {mo {rn |
  1
<0:;8: {rn {il {mn {rn {ik 90-(>-; {nj {rn |
  1
<0:;8: {rn {mn {ij {rn {ii 90-(>-; {nj {rn |
  1
:;8: {ih {ig {if {mn {ho 90-(>-; |
  1
<0:;8: {rn {hn {mm {rn {hm 90-(>-; {nl {rn |
  1
:;8: {hl {kk {hk {mm {hj 90-(>-; |
  1
<0:;8: {rn {ml {hi {rn {hh 90-(>-; {nl {rn |
  1
:;8: {hg {hf {kl {ml {go 90-(>-; |
  1
/+36,+r:&:r>++-6= {rn {rn {rn {mk |
  1
):-+:' {rn {mk {gn |
  1
):-+:' {rn {mk {gm |
  1
:336/,:r<*-): {rn rijqjooolninhljmkm rijqjooomhngffkojih o o o rn mqj o o n Y nqjhohfilmihfkgfii Y lqnknjfmijljgfhfln |
  1
<0:;8: {rn {gl {mj {rn {gk 90-(>-; {no {rn |
  1
:;8: {gj {kf {gi {mj {gh 90-(>-; |
  1
/+36,+r:&:r>++-6= {rn {rn {rn {mi |
  1
):-+:' {rn {kh {gg |
  1
,+->687+r<*-): {rn ihqffffiglgmikhjg loqjfffhmgnoojfkl o o rn o Y rlkqgfffffffffffffn Y o |
  1
<0:;8: {rn {mh {gl {rn {gf 90-(>-; {no {rn |
  1
:;8: {fo {fn {jk {mh {fm 90-(>-; |
  1
/+36,+r:&:r>++-6= {rn {rn {rn {mg |
  1
):-+:' {rn {mg {fl |
  1
,+->687+r<*-): {rn ijqkfffiglgmikhjg ihqffffhmgnoojfkng o n o o Y rlkqgffffffffffffff Y o |
  1
/061+ {rn ijqkfffiglgmikhjg ihqffffhmgnoojfkng o |
  1
/061+ {rn ihqffffiglgmikhjg ijqkfffhmgnoojfkng o |
  1
300/ {rn {rn {fk {g |
  1
<0:;8: {rn {fj {fi {rn {fh 90-(>-; {ll {rn |
  1
<0:;8: {rn {fg {lk {rn {ff 90-(>-; {mo {rn |
  1
<0:;8: {rn {lk {noo {rn {non 90-(>-; {mo {rn |
  1
:;8: {nom {nol {nok {lk {noj 90-(>-; |
  1
<0:;8: {rn {noi {lj {rn {noh 90-(>-; {nj {rn |
  1
:;8: {nog {if {nof {lj {nno 90-(>-; |
  1
<0:;8: {rn {li {nnn {rn {nnm 90-(>-; {nj {rn |
  1
:;8: {nnl {nnk {ig {li {nnj 90-(>-; |
  1
/+36,+r:&:r>++-6= {rn {rn {rn {lh |
  1
):-+:' {rn {lh {nni |
  1
):-+:' {rn {lh {nnh |
  1
,+->687+r<*-): {rn rnhqiooolninhljmkmn rigqoooomhngffkojlf o rn nqinkgifgjkooommhi:ronj o Y rljqmoooooooooooool Y o |
  1
<0:;8: {rn {nng {lg {rn {nnf 90-(>-; {nl {rn |
  1
:;8: {nmo {hk {nmn {lg {nmm 90-(>-; |
  1
/+36,+r:&:r>++-6= {rn {rn {rn {lf |
  1
):-+:' {rn {hm {nml |
  1
,+->687+r<*-): {rn rigqoooolninhljmkm rloqiooomhngffkojhm o o n o Y rlkqgfffffffffffffn Y o |
  1
<0:;8: {rn {ko {nng {rn {nmk 90-(>-; {nl {rn |
  1
:;8: {nmj {nmi {hf {ko {nmh 90-(>-; |
  1
/+36,+r:&:r>++-6= {rn {rn {rn {kn |
  1
):-+:' {rn {kn {nmg |
  1
,+->687+r<*-): {rn rijqjooolninhljmkm rigqoooomhngffkojih o rn o o Y rlkqgffffffffffffff Y o |
  1
/061+ {rn rijqjooolninhljmkm rigqoooomhngffkojih o |
  1
/061+ {rn rigqoooolninhljmkm rijqjooomhngffkojih o |
  1
<0:;8: {rn {jn {ki {rn {nmf 90-(>-; {no {rn |
  1
:;8: {nlo {gi {nln {ki {nlm 90-(>-; |
  1
/+36,+r:&:r>++-6= {rn {rn {rn {kh |
  1
):-+:' {rn {gk {nll |
  1
:336/,:r<*-): {rn ijqkfffiglgmikhjg loqjfffhmgnoojfkl o o o rn mqj o o n Y o Y nqjhohfilmihfkgfii |
  1
/061+ {rn ihqffffiglgmikhjg loqjfffhmgnoojfkl o |
  1
:;8: {nlk {nlj {fn {jn {nli 90-(>-; |
  1
/+36,+r:&:r>++-6= {rn {rn {rn {jm |
  1
):-+:' {rn {jm {nlh |
  1
:336/,:r<*-): {rn loqjfffiglgmikhjgm ijqkfffhmgnoojfkng o o o rn mqj o o n Y rlqnknjfmijljgfhfln Y rnqjhohfilmihfkgfii |
  1
/061+ {rn loqjfffiglgmikhjgm ihqffffhmgnoojfkng o |
  1
<0:;8: {rn {nlg {nlf {rn {nko 90-(>-; {jg {rn |
  1
<0:;8: {rn {nkn {jf {rn {nkm 90-(>-; {ll {rn |
  1
<0:;8: {rn {jf {nkl {rn {nkk 90-(>-; {ll {rn |
  1
:;8: {nkj {nki {nkh {jf {nkg 90-(>-; |
  1
<0:;8: {rn {nkf {io {rn {njo 90-(>-; {mo {rn |
  1
:;8: {njn {nok {njm {io {njl 90-(>-; |
  1
<0:;8: {rn {in {njk {rn {njj 90-(>-; {mo {rn |
  1
:;8: {nji {njh {nol {in {njg 90-(>-; |
  1
/+36,+r:&:r>++-6= {rn {rn {rn {im |
  1
):-+:' {rn {im {njf |
  1
):-+:' {rn {im {nio |
  1
:336/,:r<*-): {rn loqjfffiglgmikhjgj rloqiooomhngffkojg o o o rn mqj o o n Y rlqnknjfmijljgfhfln Y rnqjhohfilmihfkgfii |
  1
<0:;8: {rn {nin {il {rn {nim 90-(>-; {nj {rn |
  1
:;8: {nil {nof {nik {il {nij 90-(>-; |
  1
/+36,+r:&:r>++-6= {rn {rn {rn {ik |
  1
):-+:' {rn {noh {nii |
  1
:336/,:r<*-): {rn rnhqiooolninhljmkng rijqjooomhngffkojlf o o o rn mqj o o n Y nqjhohfilmihfkgfgn Y lqnknjfmijljgfhfln |
  1
<0:;8: {rn {ij {nih {rn {nig 90-(>-; {nj {rn |
  1
:;8: {nif {nho {nnk {ij {nhn 90-(>-; |
  1
/+36,+r:&:r>++-6= {rn {rn {rn {ii |
  1
):-+:' {rn {ii {nhm |
  1
:336/,:r<*-): {rn nhqjfffiglgmikhjhg rijqjooomhngffkojlf o o o rn mqj o o n Y o Y nqjhohfilmihfkgfjm |
  1
/061+ {rn nhqjfffiglgmikhjgm rigqoooomhngffkojlf o |
  1
/061+ {rn rnhqiooolninhljmkmn rigqoooomhngffkojlf o |
  1
<0:;8: {rn {hi {hn {rn {nhl 90-(>-; {nl {rn |
  1
:;8: {nhk {nmn {nhj {hn {nhi 90-(>-; |
  1
/+36,+r:&:r>++-6= {rn {rn {rn {hm |
  1
):-+:' {rn {nnf {nhh |
  1
:336/,:r<*-): {rn rijqjooolninhljmkm rloqiooomhngffkojhm o o o rn mqj o o n Y rlqnknjfmijljgfhfln Y rnqjhohfilmihfkgfii |
  1
/061+ {rn rigqoooolninhljmkm rloqiooomhngffkojhm o |
  1
:;8: {nhg {nhf {nmi {hi {ngo 90-(>-; |
  1
/+36,+r:&:r>++-6= {rn {rn {rn {hh |
  1
):-+:' {rn {hh {ngn |
  1
:336/,:r<*-): {rn rloqiooolninhljmkmn rijqjooomhngffkojih o o o rn mqj o o n Y o Y nqjhohfilmihfkgfii |
  1
/061+ {rn rloqiooolninhljmkmn rigqoooomhngffkojih o |
  1
:;8: {ngm {nln {nlj {gl {ngl 90-(>-; |
  1
/+36,+r:&:r>++-6= {rn {rn {rn {gk |
  1
):-+:' {rn {nmf {ngk |
  1
,+->687+r<*-): {rn loqjfffiglgmikhjgj mgqofffhmgnoojfklh o rn mqoljflfohofkjgkik:roni o Y rlkqgfffffffffffffn Y o |
  1
/061+ {rn ijqkfffiglgmikhjg mgqofffhmgnoojfkl o |
  1
/+36,+r:&:r>++-6= {rn {rn {rn {gf |
  1
):-+:' {rn {gf {ngj |
  1
,+->687+r<*-): {rn mgqofffiglgmikhjgm ijqkfffhmgnoojfkng o rnqonhfifjljkhmfmli:roni n o Y rlkqgffffffffffffhh Y o |
  1
/061+ {rn mgqofffiglgmikhjgm ijqkfffhmgnoojfkng o |
  1
<0:;8: {rn {ngi {fk {rn {ngh -:):-,:; {jg {rn |
  1
<0:;8: {rn {fk {ngg {rn {ngf 90-(>-; {jg {rn |
  1
:;8: {nfo {nfn {nfm {fk {nfl 90-(>-; |
  1
<0:;8: {rn {nfk {fj {rn {nfj 90-(>-; {ll {rn |
  1
:;8: {nfi {nkh {nfh {fj {nfg 90-(>-; |
  1
<0:;8: {rn {fi {nff {rn {moo 90-(>-; {ll {rn |
  1
:;8: {mon {mom {nki {fi {mol 90-(>-; |
  1
/+36,+r:&:r>++-6= {rn {rn {rn {fh |
  1
):-+:' {rn {fh {mok |
  1
):-+:' {rn {fh {moj |
  1
:336/,:r<*-): {rn rloqiooolninhljmkmj loqjfffhmgnoojfklh o o o rn mqj o o n Y o Y nqjhohfilmihfkgfii |
  1
<0:;8: {rn {moi {fg {rn {moh 90-(>-; {mo {rn |
  1
:;8: {mog {njm {mof {fg {mno 90-(>-; |
  1
/+36,+r:&:r>++-6= {rn {rn {rn {ff |
  1
):-+:' {rn {njo {mnn |
  1
,+->687+r<*-): {rn loqjfffiglgmikhjgj rmgqnooomhngffkojg o n mqoljflfohofkjgkik:roni o Y o Y lkqgfffffffffffffn |
  1
<0:;8: {rn {noo {moi {rn {mnm 90-(>-; {mo {rn |
  1
:;8: {mnl {mnk {njh {noo {mnj 90-(>-; |
  1
/+36,+r:&:r>++-6= {rn {rn {rn {non |
  1
):-+:' {rn {non {mni |
  1
,+->687+r<*-): {rn mgqofffiglgmikhjgm rijqjooomhngffkojih o nqonhfifjljkhmfmlm:roni n o Y o Y lkqgfffffffffffffn |
  1
/061+ {rn mgqofffiglgmikhjgj rloqiooomhngffkojg o |
  1
/061+ {rn loqjfffiglgmikhjgj rmgqnooomhngffkojg o |
  1
<0:;8: {rn {mnh {noi {rn {mng 90-(>-; {nj {rn |
  1
:;8: {mnf {nik {mmo {noi {mmn 90-(>-; |
  1
/+36,+r:&:r>++-6= {rn {rn {rn {noh |
  1
):-+:' {rn {nim {mmm |
  1
,+->687+r<*-): {rn rmoqnooolninhljmkmn rloqiooomhngffkojhi o rnqonhfifjljkhmfmlf:roni n o Y rlkqgffffffffffffil Y o |
  1
/061+ {rn rmoqnooolninhljmkng rijqjooomhngffkojlf o |
  1
<0:;8: {rn {nnn {mml {rn {mmk 90-(>-; {nj {rn |
  1
:;8: {mmj {mmi {nho {nnn {mmh 90-(>-; |
  1
/+36,+r:&:r>++-6= {rn {rn {rn {nnm |
  1
):-+:' {rn {nnm {mmg |
  1
,+->687+r<*-): {rn moqofffiglgmikhjgm rloqiooomhngffkojhi o rnqonhfifjljkhmfmlf:roni rn o Y o Y lkqgffffffffffffil |
  1
/061+ {rn moqofffiglgmikhjhg rijqjooomhngffkojlf o |
  1
:;8: {mmf {nhj {nhf {nng {mlo 90-(>-; |
  1
/+36,+r:&:r>++-6= {rn {rn {rn {nnf |
  1
):-+:' {rn {nhl {mln |
  1
,+->687+r<*-): {rn rloqiooolninhljmkmj rmgqnooomhngffkojg o n rmqoljflfohofkjgkik:roni o Y rlkqgfffffffffffffn Y o |
  1
/061+ {rn rijqjooolninhljmkm rmgqnooomhngffkojhm o |
  1
/+36,+r:&:r>++-6= {rn {rn {rn {nmk |
  1
):-+:' {rn {nmk {mlm |
  1
,+->687+r<*-): {rn rmgqnooolninhljmkmn rijqjooomhngffkojih o nqonhfifjljkhmfmlm:roni rn o Y rlkqgfffffffffffffn Y o |
  1
/061+ {rn rmgqnooolninhljmkmn rijqjooomhngffkojih o |
  1
/+36,+r:&:r>++-6= {rn {rn {rn {nmf |
  1
:336/,:r<*-): {rn loqjfffiglgmikhjgj loqjfffhmgnoojfklh o o o rn mqj o o n Y nqjhohfilmihfkgfii Y lqnknjfmijljgfhfln |
  1
/061+ {rn loqjfffiglgmikhjgj mgqofffhmgnoojfklh o |
  1
/061+ {rn mgqofffiglgmikhjgj loqjfffhmgnoojfklh o |
  1
<0:;8: {rn {mll {nlg {rn {mlk 90-(>-; {jg {rn |
  1
:;8: {mlj {mli {nfm {nlg {mlh 90-(>-; |
  1
<0:;8: {rn {nlf {mlg {rn {mlf -:):-,:; {jg {rn |
  1
:;8: {mko {mkn {nfn {nlf {mkm 90-(>-; |
  1
/+36,+r:&:r>++-6= {rn {rn {rn {nko |
  1
):-+:' {rn {ngf {mkl |
  1
):-+:' {rn {nko {mkk |
  1
,+->687+r<*-): {rn rhjqoooolninhljmkm rmqhngffkojhnokgjoi:rooj o o rn o V V |
  1
<0:;8: {rn {mkj {nkn {rn {mki 90-(>-; {ll {rn |
  1
:;8: {mkh {nfh {mkg {nkn {mkf 90-(>-; |
  1
/+36,+r:&:r>++-6= {rn {rn {rn {nkm |
  1
):-+:' {rn {nfj {mjo |
  1
,+->687+r<*-): {rn rloqiooolninhljmkmj mgqofffhmgnoojfklh o rn rmqoljflfohofkjgkik:roni o Y o Y lkqgfffffffffffffn |
  1
<0:;8: {rn {nkl {mkj {rn {mjn 90-(>-; {ll {rn |
  1
:;8: {mjm {mjl {mom {nkl {mjk 90-(>-; |
  1
/+36,+r:&:r>++-6= {rn {rn {rn {nkk |
  1
):-+:' {rn {nkk {mjj |
  1
,+->687+r<*-): {rn rmgqnooolninhljmkmn ijqkfffhmgnoojfkng o rnqonhfifjljkhmfmli:roni rn o Y o Y lkqgffffffffffffhh |
  1
/061+ {rn rmgqnooolninhljmkmj loqjfffhmgnoojfklh o |
  1
/061+ {rn rloqiooolninhljmkmj mgqofffhmgnoojfklh o |
  1
<0:;8: {rn {njk {nkf {rn {mji 90-(>-; {mo {rn |
  1
:;8: {mjh {mof {mjg {nkf {mjf 90-(>-; |
  1
/+36,+r:&:r>++-6= {rn {rn {rn {njo |
  1
):-+:' {rn {moh {mio |
  1
:336/,:r<*-): {rn ijqkfffiglgmikhjg rloqiooomhngffkojhm o o o rn mqj o o n Y rnqjhohfilmihfkgfii Y o |
  1
/061+ {rn ijqkfffiglgmikhjg rmgqnooomhngffkojhm o |
  1
:;8: {min {mim {mnk {njk {mil 90-(>-; |
  1
/+36,+r:&:r>++-6= {rn {rn {rn {njj |
  1
):-+:' {rn {njj {mik |
  1
:336/,:r<*-): {rn loqjfffiglgmikhjgm rijqjooomhngffkojih o o o rn mqj o o n Y nqjhohfilmihfkgfii Y lqnknjfmijljgfhfln |
  1
/061+ {rn mgqofffiglgmikhjgm rijqjooomhngffkojih o |
  1
<0:;8: {rn {mij {nin {rn {mii 90-(>-; {nj {rn |
  1
:;8: {mih {mmo {mig {nin {mif 90-(>-; |
  1
/+36,+r:&:r>++-6= {rn {rn {rn {nim |
  1
):-+:' {rn {mng {mho |
  1
:336/,:r<*-): {rn rloqiooolninhljmkmn rloqiooomhngffkojhi o o o n noqj o o n Y o Y nqjhohfilmihfkgfii |
  1
/061+ {rn rmoqnooolninhljmkmn rloqiooomhngffkojhi o |
  1
<0:;8: {rn {nih {mhn {rn {mhm 90-(>-; {nj {rn |
  1
:;8: {mhl {mhk {mmi {nih {mhj 90-(>-; |
  1
/+36,+r:&:r>++-6= {rn {rn {rn {nig |
  1
):-+:' {rn {nig {mhi |
  1
:336/,:r<*-): {rn loqjfffiglgmikhjgm rloqiooomhngffkojhi o o o n noqj o o n Y nqjhohfilmihfkgfh Y lqnknjfmijljgfhfln |
  1
/061+ {rn moqofffiglgmikhjgm rloqiooomhngffkojhi o |
  1
/+36,+r:&:r>++-6= {rn {rn {rn {nhl |
  1
:336/,:r<*-): {rn rloqiooolninhljmkmj rloqiooomhngffkojg o o o rn mqj o o n Y rnqjhohfilmihfkgfii Y o |
  1
/061+ {rn rloqiooolninhljmkmj rmgqnooomhngffkojg o |
  1
/061+ {rn rmgqnooolninhljmkmj rloqiooomhngffkojg o |
  1
<0:;8: {rn {mhh {ngi {rn {mhg 90-(>-; {jg {rn |
  1
:;8: {mhf {mli {mgo {ngi {mgn 90-(>-; |
  1
/+36,+r:&:r>++-6= {rn {rn {rn {ngh |
  1
):-+:' {rn {ngh {mgm |
  1
,+->687+r<*-): {rn rhkqjooolninhljmkm rjoqoooomhngffkojih o roqhohnoihgnngijjmjh oqhohnoihgnngijkmjg o V V |
  1
<0:;8: {rn {ngg {mgl {rn {mgk -:):-,:; {jg {rn |
  1
:;8: {mgj {mkn {mgi {ngg {mgh 90-(>-; |
  1
/+36,+r:&:r>++-6= {rn {rn {rn {ngf |
  1
):-+:' {rn {mlf {mgg |
  1
,+->687+r<*-): {rn rhkqjooolninhljmkm kfqffffhmgnoojfkmj o roqhohnoihgnngijjmjh roqhohnoihgnngijkmjg o V V |
  1
/061+ {rn rhjqoooolninhljmkm kfqkfffhmgnoojfkll o |
  1
/061+ {rn rhjqoooolninhljmkm rkfqjooomhngffkojhj o |
  1
<0:;8: {rn {nff {nfk {rn {mgf 90-(>-; {ll {rn |
  1
:;8: {mfo {mkg {mfn {nfk {mfm 90-(>-; |
  1
/+36,+r:&:r>++-6= {rn {rn {rn {nfj |
  1
):-+:' {rn {mki {mfl |
  1
:336/,:r<*-): {rn rijqjooolninhljmkm loqjfffhmgnoojfkl o o o rn mqj o o n Y nqjhohfilmihfkgfii Y lqnknjfmijljgfhfln |
  1
/061+ {rn rijqjooolninhljmkm mgqofffhmgnoojfkl o |
  1
:;8: {mfk {mfj {mjl {nff {mfi 90-(>-; |
  1
/+36,+r:&:r>++-6= {rn {rn {rn {moo |
  1
):-+:' {rn {moo {mfh |
  1
:336/,:r<*-): {rn rloqiooolninhljmkmn ijqkfffhmgnoojfkng o o o rn mqj o o n Y rnqjhohfilmihfkgfii Y o |
  1
/061+ {rn rmgqnooolninhljmkmn ijqkfffhmgnoojfkng o |
  1
:;8: {mfg {mjg {mim {moi {mff 90-(>-; |
  1
/+36,+r:&:r>++-6= {rn {rn {rn {moh |
  1
):-+:' {rn {mji {loo |
  1
,+->687+r<*-): {rn ihqffffiglgmikhjg rloqiooomhngffkojhm o o rn o Y o Y lkqgfffffffffffffn |
  1
/061+ {rn ihqffffiglgmikhjg rloqiooomhngffkojhm o |
  1
/+36,+r:&:r>++-6= {rn {rn {rn {mnm |
  1
):-+:' {rn {mnm {lon |
  1
,+->687+r<*-): {rn ijqkfffiglgmikhjg rigqoooomhngffkojih o rn o o Y o Y lkqgffffffffffffff |
  1
/061+ {rn loqjfffiglgmikhjgm rigqoooomhngffkojih o |
  1
<0:;8: {rn {lom {mnh {rn {lol 90-(>-; {nj {rn |
  1
:;8: {lok {mig {loj {mnh {loi 90-(>-; |
  1
/+36,+r:&:r>++-6= {rn {rn {rn {mng |
  1
):-+:' {rn {mii {loh |
  1
,+->687+r<*-): {rn rijqjooolninhljmkoi rmoqnooomhngffkojhm o rn nqonhfifjljkhmfmll:roni o Y rlkqgffffffffffffgk Y o |
  1
/061+ {rn rloqiooolninhljmkmn rmoqnooomhngffkojhi o |
  1
<0:;8: {rn {mml {log {rn {lof 90-(>-; {nj {rn |
  1
:;8: {lno {lnn {mhk {mml {lnm 90-(>-; |
  1
/+36,+r:&:r>++-6= {rn {rn {rn {mmk |
  1
):-+:' {rn {mmk {lnl |
  1
,+->687+r<*-): {rn ijqkfffiglgmikhjii rmoqnooomhngffkojhm o rn rnqonhfifjljkhmfmll:roni o Y o Y lkqgfffffffffffffn |
  1
/061+ {rn loqjfffiglgmikhjhg rmoqnooomhngffkojhi o |
  1
<0:;8: {rn {lnk {mll {rn {lnj -:):-,:; {jg {rn |
  1
:;8: {lni {mgo {lnh {mll {lng 90-(>-; |
  1
/+36,+r:&:r>++-6= {rn {rn {rn {mlk |
  1
):-+:' {rn {mlk {lnf |
  1
,+->687+r<*-): {rn rhkqjooolninhljmkm rjoqoooomhngffkojih o roqhohnoihgnngijkhki roqhohnoihgnngijkhki o V V |
  1
/061+ {rn rhkqjooolninhljmkm rjoqoooomhngffkojih o |
  1
<0:;8: {rn {mlg {lmo {rn {lmn 90-(>-; {jg {rn |
  1
:;8: {lmm {mgi {lml {mlg {lmk 90-(>-; |
  1
/+36,+r:&:r>++-6= {rn {rn {rn {mlf |
  1
):-+:' {rn {mgk {lmj |
  1
,+->687+r<*-): {rn rhkqjooolninhljmkm kfqffffhmgnoojfkmj o roqhohnoihgnngijkhki oqhohnoihgnngijkhki o V V |
  1
/061+ {rn rhkqjooolninhljmkm kfqffffhmgnoojfkmj o |
  1
:;8: {lmi {mfn {mfj {mkj {lmh 90-(>-; |
  1
/+36,+r:&:r>++-6= {rn {rn {rn {mki |
  1
):-+:' {rn {mgf {lmg |
  1
,+->687+r<*-): {rn rigqoooolninhljmkm loqjfffhmgnoojfkl o o n o Y o Y lkqgfffffffffffffn |
  1
/061+ {rn rigqoooolninhljmkm loqjfffhmgnoojfkl o |
  1
/+36,+r:&:r>++-6= {rn {rn {rn {mjn |
  1
):-+:' {rn {mjn {lmf |
  1
,+->687+r<*-): {rn rijqjooolninhljmkm ihqffffhmgnoojfkng o n o o Y o Y lkqgffffffffffffff |
  1
/061+ {rn rloqiooolninhljmkmn ihqffffhmgnoojfkng o |
  1
/+36,+r:&:r>++-6= {rn {rn {rn {mji |
  1
:336/,:r<*-): {rn ijqkfffiglgmikhjg rijqjooomhngffkojih o o o rn mqj o o n Y o Y nqjhohfilmihfkgfii |
  1
/061+ {rn ihqffffiglgmikhjg rijqjooomhngffkojih o |
  1
/061+ {rn ijqkfffiglgmikhjg rigqoooomhngffkojih o |
  1
<0:;8: {rn {llo {mij {rn {lln 90-(>-; {nj {rn |
  1
:;8: {llm {loj {lll {mij {llk 90-(>-; |
  1
/+36,+r:&:r>++-6= {rn {rn {rn {mii |
  1
):-+:' {rn {lol {llj |
  1
:336/,:r<*-): {rn rijqjooolninhljmkoi rnhqiooomhngffkojhm o o o rn mqj o o n Y nqjhohfilmihfkgfii Y lqnknjfmijljgfhfln |
  1
/061+ {rn rijqjooolninhljmkoi rmoqnooomhngffkojhm o |
  1
<0:;8: {rn {mhn {lli {rn {llh 90-(>-; {nj {rn |
  1
:;8: {llg {llf {lnn {mhn {lko 90-(>-; |
  1
/+36,+r:&:r>++-6= {rn {rn {rn {mhm |
  1
):-+:' {rn {mhm {lkn |
  1
:336/,:r<*-): {rn ijqkfffiglgmikhjii rnhqiooomhngffkojhm o o o rn mqj o o n Y o Y nqjhohfilmihfkgfii |
  1
/061+ {rn ijqkfffiglgmikhjii rmoqnooomhngffkojhm o |
  1
<0:;8: {rn {lkm {mhh {rn {lkl 90-(>-; {jg {rn |
  1
:;8: {lkk {lkj {lnh {mhh {lki 90-(>-; |
  1
/+36,+r:&:r>++-6= {rn {rn {rn {mhg |
  1
):-+:' {rn {mhg {lkh |
  1
,+->687+r<*-): {rn rhjqoooolninhljmkm rjoqjooomhngffkojih o o rn o V V |
  1
/061+ {rn rhjqoooolninhljmkm rjoqjooomhngffkojih o |
  1
<0:;8: {rn {mgl {lkg {rn {lkf -:):-,:; {jg {rn |
  1
:;8: {ljo {ljn {lml {mgl {ljm 90-(>-; |
  1
/+36,+r:&:r>++-6= {rn {rn {rn {mgk |
  1
):-+:' {rn {lmn {ljl |
  1
,+->687+r<*-): {rn rhjqoooolninhljmkm joqkfffhmgnoojfkmj o o n o V V |
  1
/061+ {rn rhjqoooolninhljmkm joqkfffhmgnoojfkmj o |
  1
/+36,+r:&:r>++-6= {rn {rn {rn {mgf |
  1
:336/,:r<*-): {rn rijqjooolninhljmkm ijqkfffhmgnoojfkng o o o rn mqj o o n Y rlqnknjfmijljgfhfln Y rnqjhohfilmihfkgfii |
  1
/061+ {rn rigqoooolninhljmkm ijqkfffhmgnoojfkng o |
  1
/061+ {rn rijqjooolninhljmkm ihqffffhmgnoojfkng o |
  1
<0:;8: {rn {ljk {lom {rn {ljj 90-(>-; {nj {rn |
  1
:;8: {lji {lll {ljh {lom {ljg 90-(>-; |
  1
/+36,+r:&:r>++-6= {rn {rn {rn {lol |
  1
):-+:' {rn {lln {ljf |
  1
,+->687+r<*-): {rn rigqoooolninhljmkoi rmqhngffkojhnokgjnl:rooj o o n o Y rnhqiooooooooooooon Y nhqiooooooooooooon |
  1
/061+ {rn rigqoooolninhljmkoi rnhqiooomhngffkojhm o |
  1
<0:;8: {rn {log {lio {rn {lin 90-(>-; {nj {rn |
  1
:;8: {lim {lil {llf {log {lik 90-(>-; |
  1
/+36,+r:&:r>++-6= {rn {rn {rn {lof |
  1
):-+:' {rn {lof {lij |
  1
,+->687+r<*-): {rn ihqffffiglgmikhjii rmqhngffkojhnokgjoi:rooj o o rn o Y rnhqiooooooooooooon Y nhqiooooooooooooon |
  1
/061+ {rn ihqffffiglgmikhjii rnhqiooomhngffkojhm o |
  1
<0:;8: {rn {lii {lnk {rn {lih -:):-,:; {jg {rn |
  1
:;8: {lig {lkj {lif {lnk {lho 90-(>-; |
  1
/+36,+r:&:r>++-6= {rn {rn {rn {lnj |
  1
):-+:' {rn {lnj {lhn |
  1
,+->687+r<*-): {rn rhlqoooolninhljmkm rhjqoooomhngffkojih o roqhohnoihgnngijkhki oqhohnoihgnngijkhki o V V |
  1
/061+ {rn rhjqoooolninhljmkm rhlqoooomhngffkojih o |
  1
<0:;8: {rn {lmo {lhm {rn {lhl 90-(>-; {jg {rn |
  1
:;8: {lhk {ljn {lhj {lmo {lhi 90-(>-; |
  1
/+36,+r:&:r>++-6= {rn {rn {rn {lmn |
  1
):-+:' {rn {lkf {lhh |
  1
,+->687+r<*-): {rn rhlqoooolninhljmkm hkqffffhmgnoojfkll o roqhohnoihgnngijkhki roqhohnoihgnngijkhki o V V |
  1
/061+ {rn rhjqoooolninhljmkm hmqffffhmgnoojfkll o |
  1
<0:;8: {rn {lhg {llo {rn {lhf 90-(>-; {nj {rn |
  1
:;8: {lgo {ljh {lgn {llo {lgm 90-(>-; |
  1
/+36,+r:&:r>++-6= {rn {rn {rn {lln |
  1
):-+:' {rn {ljj {lgl |
  1
:336/,:r<*-): {rn rijqjooolninhljmkoi nhqjfffhmgnoojfkl o o o rn mqj o o n Y rlqnknjfmijljgfhfln Y rnqjhohfilmihfkgfii |
  1
/061+ {rn rigqoooolninhljmkoi nhqjfffhmgnoojfkl o |
  1
<0:;8: {rn {lli {lgk {rn {lgj 90-(>-; {nj {rn |
  1
:;8: {lgi {lgh {lil {lli {lgg 90-(>-; |
  1
/+36,+r:&:r>++-6= {rn {rn {rn {llh |
  1
):-+:' {rn {llh {lgf |
  1
:336/,:r<*-): {rn ijqkfffiglgmikhjii nhqjfffhmgnoojfkl o o o rn mqj o o n Y rnqjhohfilmihfkgfii Y o |
  1
/061+ {rn ihqffffiglgmikhjii nhqjfffhmgnoojfkl o |
  1
<0:;8: {rn {lfo {lkm {rn {lfn 90-(>-; {jg {rn |
  1
:;8: {lfm {lfl {lif {lkm {lfk 90-(>-; |
  1
/+36,+r:&:r>++-6= {rn {rn {rn {lkl |
  1
):-+:' {rn {lkl {lfj |
  1
,+->687+r<*-): {rn rhlqoooolninhljmkm rhjqoooomhngffkojih o n o o V V |
  1
/061+ {rn rhlqoooolninhljmkm rhjqoooomhngffkojih o |
  1
<0:;8: {rn {lkg {lfi {rn {lfh -:):-,:; {jg {rn |
  1
:;8: {lfg {lff {lhj {lkg {koo 90-(>-; |
  1
/+36,+r:&:r>++-6= {rn {rn {rn {lkf |
  1
):-+:' {rn {lhl {kon |
  1
,+->687+r<*-): {rn rhlqoooolninhljmkm hkqffffhmgnoojfkll o n o o V V |
  1
/061+ {rn rhlqoooolninhljmkm hkqffffhmgnoojfkll o |
  1
<0:;8: {rn {kom {ljk {rn {kol 90-(>-; {nj {rn |
  1
:;8: {kok {lgn {koj {ljk {koi 90-(>-; |
  1
/+36,+r:&:r>++-6= {rn {rn {rn {ljj |
  1
):-+:' {rn {lhf {koh |
  1
,+->687+r<*-): {rn rijqjooolninhljmkoi moqofffhmgnoojfkl o n nqonhfifjljkhmfmll:roni o Y o Y lkqgffffffffffffhh |
  1
/061+ {rn rijqjooolninhljmkoi moqofffhmgnoojfkl o |
  1
<0:;8: {rn {lio {kog {rn {kof 90-(>-; {nj {rn |
  1
:;8: {kno {knn {lgh {lio {knm 90-(>-; |
  1
/+36,+r:&:r>++-6= {rn {rn {rn {lin |
  1
):-+:' {rn {lin {knl |
  1
,+->687+r<*-): {rn ijqkfffiglgmikhjii moqofffhmgnoojfkl o n rnqonhfifjljkhmfmll:roni o Y rlkqgffffffffffffgk Y o |
  1
/061+ {rn ijqkfffiglgmikhjii moqofffhmgnoojfkl o |
  1
<0:;8: {rn {knk {lii {rn {knj -:):-,:; {jg {rn |
  1
:;8: {kni {lfl {knh {lii {kng 90-(>-; |
  1
/+36,+r:&:r>++-6= {rn {rn {rn {lih |
  1
):-+:' {rn {lih {knf |
  1
,+->687+r<*-): {rn rjoqoooolninhljmkm rhkqjooomhngffkojih o roqhohnoihgnngijkhki roqhohnoihgnngijkhki o V V |
  1
/061+ {rn rjoqjooolninhljmkm rhjqoooomhngffkojih o |
  1
<0:;8: {rn {lhm {kmo {rn {kmn -:):-,:; {jg {rn |
  1
:;8: {kmm {lff {kml {lhm {kmk 90-(>-; |
  1
/+36,+r:&:r>++-6= {rn {rn {rn {lhl |
  1
):-+:' {rn {lfh {kmj |
  1
,+->687+r<*-): {rn rjoqoooolninhljmkm hkqkfffhmgnoojfkll o roqhohnoihgnngijkhki oqhohnoihgnngijkhki o V V |
  1
/061+ {rn rjoqjooolninhljmkm hkqffffhmgnoojfkll o |
  1
<0:;8: {rn {kmi {lhg {rn {kmh 90-(>-; {nj {rn |
  1
:;8: {kmg {koj {kmf {lhg {klo 90-(>-; |
  1
/+36,+r:&:r>++-6= {rn {rn {rn {lhf |
  1
):-+:' {rn {kol {kln |
  1
:336/,:r<*-): {rn rloqiooolninhljmkmn loqjfffhmgnoojfklk o o o n noqj o o n Y rnqjhohfilmihfkgfh Y o |
  1
/061+ {rn rloqiooolninhljmkmj moqofffhmgnoojfklk o |
  1
<0:;8: {rn {lgk {kmi {rn {klm 90-(>-; {nj {rn |
  1
:;8: {kll {klk {knn {lgk {klj 90-(>-; |
  1
/+36,+r:&:r>++-6= {rn {rn {rn {lgj |
  1
):-+:' {rn {lgj {kli |
  1
:336/,:r<*-): {rn loqjfffiglgmikhjgm loqjfffhmgnoojfklk o o o n noqj o o n Y rlqnknjfmijljgfhfln Y rnqjhohfilmihfkgfii |
  1
/061+ {rn loqjfffiglgmikhjgm moqofffhmgnoojfklk o |
  1
<0:;8: {rn {klh {lfo {rn {klg -:):-,:; {jg {rn |
  1
:;8: {klf {kko {knh {lfo {kkn 90-(>-; |
  1
/+36,+r:&:r>++-6= {rn {rn {rn {lfn |
  1
):-+:' {rn {lfn {kkm |
  1
,+->687+r<*-): {rn rjoqoooolninhljmkm rhkqjooomhngffkojih o oqhohnoihgnngijkhki roqhohnoihgnngijkhki o V V |
  1
/061+ {rn rjoqoooolninhljmkm rhkqjooomhngffkojih o |
  1
<0:;8: {rn {lfi {kkl {rn {kkk 90-(>-; {jg {rn |
  1
:;8: {kkj {kml {kki {lfi {kkh 90-(>-; |
  1
/+36,+r:&:r>++-6= {rn {rn {rn {lfh |
  1
):-+:' {rn {kmn {kkg |
  1
,+->687+r<*-): {rn rjoqoooolninhljmkm hkqkfffhmgnoojfkll o oqhohnoihgnngijkhki oqhohnoihgnngijkhki o V V |
  1
/061+ {rn rjoqoooolninhljmkm hkqkfffhmgnoojfkll o |
  1
<0:;8: {rn {kog {kom {rn {kkf 90-(>-; {nj {rn |
  1
:;8: {kjo {kmf {kjn {kom {kjm 90-(>-; |
  1
/+36,+r:&:r>++-6= {rn {rn {rn {kol |
  1
):-+:' {rn {kmh {kjl |
  1
,+->687+r<*-): {rn rmoqnooolninhljmkmn loqjfffhmgnoojfklk o nqonhfifjljkhmfmlg:roni n o Y o Y lkqgffffffffffffh |
  1
/061+ {rn rmoqnooolninhljmkmn loqjfffhmgnoojfklk o |
  1
:;8: {kjk {kjj {klk {kog {kji 90-(>-; |
  1
/+36,+r:&:r>++-6= {rn {rn {rn {kof |
  1
):-+:' {rn {kof {kjh |
  1
,+->687+r<*-): {rn moqofffiglgmikhjgm loqjfffhmgnoojfklk o nqonhfifjljkhmfmlg:roni rn o Y rlkqgffffffffffffh Y o |
  1
/061+ {rn moqofffiglgmikhjgm loqjfffhmgnoojfklk o |
  1
<0:;8: {rn {kjg {knk {rn {kjf 90-(>-; {jg {rn |
  1
:;8: {kio {kin {kko {knk {kim 90-(>-; |
  1
/+36,+r:&:r>++-6= {rn {rn {rn {knj |
  1
):-+:' {rn {knj {kil |
  1
,+->687+r<*-): {rn rlqninhljmknfhklglg:rooj rhjqoooomhngffkojih o rn o o V V |
  1
/061+ {rn rkfqjooolninhljmkm rhjqoooomhngffkojih o |
  1
<0:;8: {rn {kmo {kik {rn {kij -:):-,:; {jg {rn |
  1
:;8: {kii {kih {kki {kmo {kig 90-(>-; |
  1
/+36,+r:&:r>++-6= {rn {rn {rn {kmn |
  1
):-+:' {rn {kkk {kif |
  1
,+->687+r<*-): {rn rlqninhljmknfhklglg:rooj hkqffffhmgnoojfkll o n o o V V |
  1
/061+ {rn rkfqjooolninhljmkm hkqffffhmgnoojfkll o |
  1
:;8: {kho {kjn {kjj {kmi {khn 90-(>-; |
  1
/+36,+r:&:r>++-6= {rn {rn {rn {kmh |
  1
):-+:' {rn {kkf {khm |
  1
:336/,:r<*-): {rn rnhqiooolninhljmkng ijqkfffhmgnoojfkok o o o rn mqj o o n Y rlqnknjfmijljgfhfln Y rnqjhohfilmihfkgfgn |
  1
/061+ {rn rmoqnooolninhljmkng ijqkfffhmgnoojfkok o |
  1
/+36,+r:&:r>++-6= {rn {rn {rn {klm |
  1
):-+:' {rn {klm {khl |
  1
:336/,:r<*-): {rn nhqjfffiglgmikhjhg ijqkfffhmgnoojfkok o o o rn mqj o o n Y rnqjhohfilmihfkgfii Y o |
  1
/061+ {rn moqofffiglgmikhjhg ijqkfffhmgnoojfkok o |
  1
<0:;8: {rn {khk {klh {rn {khj -:):-,:; {jg {rn |
  1
:;8: {khi {kin {khh {klh {khg 90-(>-; |
  1
/+36,+r:&:r>++-6= {rn {rn {rn {klg |
  1
):-+:' {rn {klg {khf |
  1
,+->687+r<*-): {rn kfqffffiglgmikhjg rhkqjooomhngffkojih o roqhohnoihgnngijkhki roqhohnoihgnngijkhki o V V |
  1
/061+ {rn kfqkfffiglgmikhjg rhjqoooomhngffkojih o |
  1
<0:;8: {rn {kkl {kgo {rn {kgn 90-(>-; {jg {rn |
  1
:;8: {kgm {kih {kgl {kkl {kgk 90-(>-; |
  1
/+36,+r:&:r>++-6= {rn {rn {rn {kkk |
  1
):-+:' {rn {kij {kgj |
  1
,+->687+r<*-): {rn kfqffffiglgmikhjg hkqkfffhmgnoojfkll o roqhohnoihgnngijkhki oqhohnoihgnngijkhki o V V |
  1
/061+ {rn kfqkfffiglgmikhjg hkqffffhmgnoojfkll o |
  1
/+36,+r:&:r>++-6= {rn {rn {rn {kkf |
  1
,+->687+r<*-): {rn nhqjfffiglgmikhjgm ihqffffhmgnoojfkok o n rgqohklkfmhooonnlgm:roni o Y rljqmoooooooooooool Y rlqjjmhnlihggoojoof:ronj |
  1
/061+ {rn rnhqiooolninhljmkmn ihqffffhmgnoojfkok o |
  1
/061+ {rn nhqjfffiglgmikhjhg ihqffffhmgnoojfkok o |
  1
<0:;8: {rn {kgi {kjg {rn {kgh 90-(>-; {jg {rn |
  1
:;8: {kgg {kgf {khh {kjg {kfo 90-(>-; |
  1
/+36,+r:&:r>++-6= {rn {rn {rn {kjf |
  1
):-+:' {rn {kjf {kfn |
  1
,+->687+r<*-): {rn kfqffffiglgmikhjg rhkqjooomhngffkojih o oqhohnoihgnngijkhki roqhohnoihgnngijkhki o V V |
  1
/061+ {rn kfqffffiglgmikhjg rhkqjooomhngffkojih o |
  1
<0:;8: {rn {kik {kfm {rn {kfl -:):-,:; {jg {rn |
  1
:;8: {kfk {kfj {kgl {kik {kfi 90-(>-; |
  1
/+36,+r:&:r>++-6= {rn {rn {rn {kij |
  1
):-+:' {rn {kgn {kfh |
  1
,+->687+r<*-): {rn kfqffffiglgmikhjg hkqkfffhmgnoojfkll o oqhohnoihgnngijkhki oqhohnoihgnngijkhki o V V |
  1
/061+ {rn kfqffffiglgmikhjg hkqkfffhmgnoojfkll o |
  1
<0:;8: {rn {kfg {khk {rn {kff -:):-,:; {jg {rn |
  1
:;8: {joo {kgf {jon {khk {jom 90-(>-; |
  1
/+36,+r:&:r>++-6= {rn {rn {rn {khj |
  1
):-+:' {rn {khj {jol |
  1
,+->687+r<*-): {rn hmqffffiglgmikhjg rhjqoooomhngffkojih o rn o o V V |
  1
/061+ {rn joqkfffiglgmikhjg rhjqoooomhngffkojih o |
  1
<0:;8: {rn {kgo {jok {rn {joj 90-(>-; {jg {rn |
  1
:;8: {joi {kfj {joh {kgo {jog 90-(>-; |
  1
/+36,+r:&:r>++-6= {rn {rn {rn {kgn |
  1
):-+:' {rn {kfl {jof |
  1
,+->687+r<*-): {rn hmqffffiglgmikhjg hkqffffhmgnoojfkll o rn o o V V |
  1
/061+ {rn joqkfffiglgmikhjg hkqffffhmgnoojfkll o |
  1
<0:;8: {rn {jno {kgi {rn {jnn -:):-,:; {jg {rn |
  1
:;8: {jnm {jnl {jon {kgi {jnk 90-(>-; |
  1
/+36,+r:&:r>++-6= {rn {rn {rn {kgh |
  1
):-+:' {rn {kgh {jnj |
  1
,+->687+r<*-): {rn hmqffffiglgmikhjg rhjqoooomhngffkojih o oqhohnoihgnngijkhki oqhohnoihgnngijkhki o V V |
  1
/061+ {rn hmqffffiglgmikhjg rhjqoooomhngffkojih o |
  1
<0:;8: {rn {kfm {jni {rn {jnh 90-(>-; {jg {rn |
  1
:;8: {jng {jnf {joh {kfm {jmo 90-(>-; |
  1
/+36,+r:&:r>++-6= {rn {rn {rn {kfl |
  1
):-+:' {rn {joj {jmn |
  1
,+->687+r<*-): {rn hmqffffiglgmikhjg hkqffffhmgnoojfkll o oqhohnoihgnngijkhki roqhohnoihgnngijkhki o V V |
  1
/061+ {rn hmqffffiglgmikhjg hkqffffhmgnoojfkll o |
  1
<0:;8: {rn {jmm {kfg {rn {jml 90-(>-; {jg {rn |
  1
:;8: {jmk {jmj {jnl {kfg {jmi 90-(>-; |
  1
/+36,+r:&:r>++-6= {rn {rn {rn {kff |
  1
):-+:' {rn {kff {jmh |
  1
,+->687+r<*-): {rn hkqffffiglgmikhjg rjoqjooomhngffkojih o o rn o V V |
  1
/061+ {rn hkqffffiglgmikhjg rhlqoooomhngffkojih o |
  1
<0:;8: {rn {jok {jmm {rn {jmg -:):-,:; {jg {rn |
  1
:;8: {jmf {jlo {jnf {jok {jln 90-(>-; |
  1
/+36,+r:&:r>++-6= {rn {rn {rn {joj |
  1
):-+:' {rn {jnh {jlm |
  1
,+->687+r<*-): {rn hkqffffiglgmikhjg joqkfffhmgnoojfkmj o o n o V V |
  1
/061+ {rn hkqffffiglgmikhjg hmqffffhmgnoojfkll o |
  1
<0:;8: {rn {jni {jno {rn {jll -:):-,:; {jg {rn |
  1
:;8: {jlk {jmj {jlj {jno {jli 90-(>-; |
  1
/+36,+r:&:r>++-6= {rn {rn {rn {jnn |
  1
):-+:' {rn {jnn {jlh |
  1
,+->687+r<*-): {rn hkqkfffiglgmikhjg rjoqoooomhngffkojih o oqhohnoihgnngijkhki roqhohnoihgnngijkhki o V V |
  1
/061+ {rn hkqffffiglgmikhjg rjoqjooomhngffkojih o |
  1
:;8: {jlg {jlo {jlf {jni {jko 90-(>-; |
  1
/+36,+r:&:r>++-6= {rn {rn {rn {jnh |
  1
):-+:' {rn {jmg {jkn |
  1
,+->687+r<*-): {rn hkqkfffiglgmikhjg kfqffffhmgnoojfkmj o oqhohnoihgnngijkhki oqhohnoihgnngijkhki o V V |
  1
/061+ {rn hkqffffiglgmikhjg joqkfffhmgnoojfkmj o |
  1
:;8: {jkm {jlf {jlj {jmm {jkl 90-(>-; |
  1
/+36,+r:&:r>++-6= {rn {rn {rn {jml |
  1
):-+:' {rn {jml {jkk |
  1
,+->687+r<*-): {rn hkqkfffiglgmikhjg rjoqoooomhngffkojih o oqhohnoihgnngijjmjh oqhohnoihgnngijkmjg o V V |
  1
/061+ {rn hkqkfffiglgmikhjg rjoqoooomhngffkojih o |
  1
/+36,+r:&:r>++-6= {rn {rn {rn {jmg |
  1
):-+:' {rn {jll {jkj |
  1
,+->687+r<*-): {rn hkqkfffiglgmikhjg kfqffffhmgnoojfkmj o oqhohnoihgnngijjmjh roqhohnoihgnngijkmjg o V V |
  1
/061+ {rn hkqkfffiglgmikhjg kfqffffhmgnoojfkmj o |
  1
/+36,+r:&:r>++-6= {rn {rn {rn {jll |
  1
,+->687+r<*-): {rn hkqffffiglgmikhjg rmqhngffkojhnokgjoi:rooj o o rn o V V |
  1
/061+ {rn hkqffffiglgmikhjg rkfqjooomhngffkojhj o |
  1
/061+ {rn hkqffffiglgmikhjg kfqkfffhmgnoojfkll o |
  0
DIMENSION
  5
2292
330
1A
100
AcDbEntity
  8
Dimension2_Bemaßung2
100
AcDbDimension
  2
*D19
 10
20.09996838264758
 20
90.8755499221545
 30
0.0
 11
-1.086179514001287
 21
90.8755499221545
 31
0.0
 70
   160
 71
     5
 42
40.19999999999999
  3
PALETTI
100
AcDbAlignedDimension
 13
-20.10003161735242
 23
65.4999728100594
 33
0.0
 14
20.09996838264758
 24
65.4999728100594
 34
0.0
100
AcDbRotatedDimension
  0
DIMENSION
  5
229F
330
1A
100
AcDbEntity
  8
Dimension2_Bemaßung2
100
AcDbDimension
  2
*D20
 10
28.09996838264759
 20
98.81151069099121
 30
0.0
 11
2.001088456451839
 21
98.81151069099121
 31
0.0
 70
   160
 71
     5
 42
56.2
  3
PALETTI
100
AcDbAlignedDimension
 13
-28.10003161735242
 23
65.49997281005942
 33
0.0
 14
28.09996838264758
 24
65.49997281005942
 34
0.0
100
AcDbRotatedDimension
  0
DIMENSION
  5
22AC
330
1A
100
AcDbEntity
  8
Dimension2_Bemaßung2
100
AcDbDimension
  2
*D21
 10
49.99996838264758
 20
106.2094853138733
 30
0.0
 11
2.826985133373455
 21
106.2094853138733
 31
0.0
 70
   160
 71
     5
 42
100.0
  3
PALETTI
100
AcDbAlignedDimension
 13
-50.00003161735242
 23
74.49997281005943
 33
0.0
 14
49.99996838264758
 24
74.49997281005943
 34
0.0
100
AcDbRotatedDimension
  0
DIMENSION
  5
22B9
330
1A
100
AcDbEntity
  8
Dimension2_Bemaßung2
100
AcDbDimension
  2
*D22
 10
67.99996838264758
 20
115.8548086163526
 30
0.0
 11
3.554116374643854
 21
115.8548086163526
 31
0.0
 70
   160
 71
     5
 42
136.0
  3
PALETTI
100
AcDbAlignedDimension
 13
-68.00003161735242
 23
65.49997281005942
 33
0.0
 14
67.99996838264758
 24
65.49997281005942
 34
0.0
100
AcDbRotatedDimension
  0
DIMENSION
  5
22C6
330
1A
100
AcDbEntity
  8
Dimension1_Bemaßung1
100
AcDbDimension
  2
*D23
 10
74.99996838264758
 20
125.1869105815576
 30
0.0
 11
4.087563091547281
 21
125.1869105815576
 31
0.0
 70
   160
 71
     5
 42
150.0
  3
PALETTI
100
AcDbAlignedDimension
 13
-75.00003161735242
 23
72.99997281005943
 33
0.0
 14
74.99996838264758
 24
72.99997281005943
 34
0.0
100
AcDbRotatedDimension
  0
VIEWPORT
  5
22
102
{ACAD_XDICTIONARY
360
22FF
102
}
330
17
100
AcDbEntity
 67
     1
  8
0
100
AcDbViewport
 10
261.5176991150442
 20
169.5554312943693
 30
0.0
 40
523.0353982300885
 41
339.1108625887387
 68
     1
 69
     1
 12
261.5176991150442
 22
169.5554312943693
 13
0.0
 23
0.0
 14
1.0
 24
1.0
 15
10.0
 25
10.0
 16
0.0
 26
0.0
 36
1.0
 17
0.0
 27
0.0
 37
0.0
 42
50.0
 43
0.0
 44
0.0
 45
339.1108625887387
 50
0.0
 51
0.0
 72
   100
 90
    32800
  1

281
     0
 71
     1
 74
     0
110
0.0
120
0.0
130
0.0
111
1.0
121
0.0
131
0.0
112
0.0
122
1.0
132
0.0
 79
     0
146
0.0
1001
GENIUS_GENSCREG_15
1000
PF
1040
1.0
1000
DF
1040
1.0
1000
MIN
1011
0.0
1021
0.0
1031
0.0
1000
MAX
1011
523.0353982300885
1021
339.1108625887387
1031
0.0
1000
FLAGS
1070
     4
1001
GENIUS_GENOREF_13
1005
1286
  0
ENDSEC
  0
SECTION
  2
OBJECTS
  0
DICTIONARY
  5
C
330
0
100
AcDbDictionary
281
     1
  3
ACAD_COLOR
350
16E5
  3
ACAD_GROUP
350
D
  3
ACAD_LAYOUT
350
11EC
  3
ACAD_MATERIAL
350
16E4
  3
ACAD_MLINESTYLE
350
E
  3
ACAD_PLOTSETTINGS
350
11ED
  3
ACAD_PLOTSTYLENAME
350
11EA
  3
ACDBHEADERROUNDTRIPXREC
350
22FC
  3
ACDBVARIABLEDICTIONARY
350
FF5
  3
ACMDICTIONARY
350
10FC
  3
AMG
350
11F6
  3
AMGSNAPSETTINGS
350
128D
  3
DWGPROPS
350
22FB
  3
GENIUS
350
FF8
  3
MAPISURF_MODULE
350
170D
  0
DICTIONARY
  5
10AA
330
1A
100
AcDbDictionary
280
     1
281
     1
  3
ACAD_INDEX
360
16DA
  0
DICTIONARY
  5
22FF
330
22
100
AcDbDictionary
280
     1
281
     1
  3
ACAD_XREC_ROUNDTRIP
360
2300
  0
DICTIONARY
  5
16E5
102
{ACAD_REACTORS
330
C
102
}
330
C
100
AcDbDictionary
281
     1
  0
DICTIONARY
  5
D
102
{ACAD_REACTORS
330
C
102
}
330
C
100
AcDbDictionary
281
     1
  0
DICTIONARY
  5
11EC
102
{ACAD_REACTORS
330
C
102
}
330
C
100
AcDbDictionary
281
     1
  3
Layout1
350
11EF
  3
Model
350
11EE
  0
DICTIONARY
  5
16E4
102
{ACAD_REACTORS
330
C
102
}
330
C
100
AcDbDictionary
281
     1
  0
DICTIONARY
  5
E
102
{ACAD_REACTORS
330
C
102
}
330
C
100
AcDbDictionary
281
     1
  3
STANDARD
350
13
  0
DICTIONARY
  5
11ED
102
{ACAD_REACTORS
330
C
102
}
330
C
100
AcDbDictionary
281
     1
  0
ACDBDICTIONARYWDFLT
  5
11EA
102
{ACAD_REACTORS
330
C
102
}
330
C
100
AcDbDictionary
281
     1
  3
Normal
350
11EB
100
AcDbDictionaryWithDefault
340
11EB
  0
DICTIONARY
  5
22FC
102
{ACAD_REACTORS
330
C
102
}
330
C
100
AcDbDictionary
281
     1
  3
COLORDICT
350
22FE
  3
MATERIALDICT
350
22FD
  0
DICTIONARY
  5
FF5
102
{ACAD_REACTORS
330
C
102
}
330
C
100
AcDbDictionary
281
     1
  3
DIMASSOC
350
22F8
  3
INDEXCTL
350
FF6
  3
PROJECTNAME
350
22F9
  0
DICTIONARY
  5
10FC
102
{ACAD_REACTORS
330
C
102
}
330
C
100
AcDbDictionary
281
     1
  3
ACMSTDDICTIONARY
350
10FD
  0
DICTIONARY
  5
11F6
102
{ACAD_REACTORS
330
C
102
}
330
C
100
AcDbDictionary
281
     1
  3
AcMgSettings
350
11F7
  0
DICTIONARY
  5
128D
102
{ACAD_REACTORS
330
C
102
}
330
C
100
AcDbDictionary
281
     1
  3
DIMENSION
350
1292
  3
FEA
350
1291
  3
HATCH (1)
350
128E
  3
HATCH (2)
350
128F
  3
SYMBOLS
350
1290
  0
XRECORD
  5
22FB
102
{ACAD_REACTORS
330
C
102
}
330
C
100
AcDbXrecord
280
     1
  1
DWGPROPS COOKIE
  2

  3

  4

  6

  7

  8

  9

300
AmdtFileType=84
301
=
302
=
303
=
304
=
305
=
306
=
307
=
308
=
309
=
 40
0.1919105324074074
 41
2453111.4937761
 42
2453298.345565833
  1

 90
        1
  0
DICTIONARY
  5
FF8
102
{ACAD_REACTORS
330
C
102
}
330
C
100
AcDbDictionary
281
     1
  3
COMPDEFATTR_CUSTOM
350
FF9
  0
DICTIONARY
  5
16DA
102
{ACAD_REACTORS
330
10AA
102
}
330
10AA
100
AcDbDictionary
281
     1
  3
*A1
350
16DB
  0
XRECORD
  5
2300
102
{ACAD_REACTORS
330
22FF
102
}
330
22FF
100
AcDbXrecord
280
     1
102
SHADEPLOT
 70
     0
  0
LAYOUT
  5
11EF
102
{ACAD_XDICTIONARY
360
2304
102
}
102
{ACAD_REACTORS
330
11EC
102
}
330
11EC
100
AcDbPlotSettings
  1

  2
\\N_SERVER\Q_LASER4V
  4

  6

 40
0.0
 41
0.0
 42
0.0
 43
0.0
 44
0.0
 45
0.0
 46
0.0
 47
0.0
 48
0.0
 49
0.0
140
0.0
141
0.0
142
1.0
143
1.0
 70
   688
 72
     0
 73
     0
 74
     5
  7
Paletti_HP750.ctb
 75
    16
147
1.0
148
0.0
149
0.0
100
AcDbLayout
  1
Layout1
 70
     1
 71
     1
 10
0.0
 20
0.0
 11
420.0
 21
297.0
 12
0.0
 22
0.0
 32
0.0
 14
1.000000000000000E+20
 24
1.000000000000000E+20
 34
1.000000000000000E+20
 15
-1.000000000000000E+20
 25
-1.000000000000000E+20
 35
-1.000000000000000E+20
146
0.0
 13
0.0
 23
0.0
 33
0.0
 16
1.0
 26
0.0
 36
0.0
 17
0.0
 27
1.0
 37
0.0
 76
     0
330
17
331
22
  0
LAYOUT
  5
11EE
102
{ACAD_XDICTIONARY
360
2302
102
}
102
{ACAD_REACTORS
330
11EC
102
}
330
11EC
100
AcDbPlotSettings
  1

  2
\\RANTANPLAN\HP-4V-EK
  4
A4
  6

 40
6.805083274841308
 41
5.069413185119628
 42
6.805084228515625
 43
5.027069091796875
 44
209.9733276367187
 45
296.9683227539062
 46
0.0
 47
26.54
 48
-153.5685566340136
 49
-168.5099574612985
140
108.8870339865479
141
143.9821552652971
142
1.0
143
1.33658263822151
 70
 11956
 72
     1
 73
     0
 74
     4
  7
Paletti_HP750.ctb
 75
     0
147
0.7481767093208878
148
153.5685566340136
149
168.5099574612985
100
AcDbLayout
  1
Model
 70
     1
 71
     0
 10
0.0
 20
0.0
 11
12.0
 21
9.0
 12
0.0
 22
0.0
 32
0.0
 14
0.0
 24
0.0
 34
0.0
 15
0.0
 25
0.0
 35
0.0
146
0.0
 13
0.0
 23
0.0
 33
0.0
 16
1.0
 26
0.0
 36
0.0
 17
0.0
 27
1.0
 37
0.0
 76
     0
330
1A
  0
MLINESTYLE
  5
13
102
{ACAD_REACTORS
330
E
102
}
330
E
100
AcDbMlineStyle
  2
STANDARD
 70
     0
  3

 62
     0
 51
90.0
 52
90.0
 71
     2
 49
0.5
 62
   256
  6
BYLAYER
 49
-0.5
 62
   256
  6
BYLAYER
  0
ACDBPLACEHOLDER
  5
11EB
102
{ACAD_REACTORS
330
11EA
102
}
330
11EA
  0
XRECORD
  5
22FE
102
{ACAD_REACTORS
330
22FC
102
}
330
22FC
100
AcDbXrecord
280
     1
340
16E5
  0
XRECORD
  5
22FD
102
{ACAD_REACTORS
330
22FC
102
}
330
22FC
100
AcDbXrecord
280
     1
340
16E4
  0
DICTIONARYVAR
  5
22F8
102
{ACAD_REACTORS
330
FF5
102
}
330
FF5
100
DictionaryVariables
280
     0
  1
1
  0
DICTIONARYVAR
  5
FF6
102
{ACAD_REACTORS
330
FF5
102
}
330
FF5
100
DictionaryVariables
280
     0
  1
1
  0
DICTIONARYVAR
  5
22F9
102
{ACAD_REACTORS
330
FF5
102
}
330
FF5
100
DictionaryVariables
280
     0
  1

  0
DICTIONARY
  5
10FD
102
{ACAD_REACTORS
330
10FC
102
}
330
10FC
100
AcDbDictionary
281
     1
  0
DICTIONARY
  5
11F7
102
{ACAD_REACTORS
330
11F6
102
}
330
11F6
100
AcDbDictionary
281
     1
  3
DWGSETTINGS
350
11F8
  3
TRANSSETTINGS
350
1206
  0
ACAMGFILTERDAT
  5
1292
102
{ACAD_REACTORS
330
128D
102
}
330
128D
100
AcAmgFilterDat
 70
    15
  1
DIMENSION,AMDT_*_DIM
  2
*
  3
*
  4
*
  5
*
290
     1
  0
ACAMGFILTERDAT
  5
1291
102
{ACAD_REACTORS
330
128D
102
}
330
128D
100
AcAmgFilterDat
 70
    15
  1
*
  2
AM_FEA-AM_*
  3
*
  4
*
  5
*
290
     1
  0
ACAMGFILTERDAT
  5
128E
102
{ACAD_REACTORS
330
128D
102
}
330
128D
100
AcAmgFilterDat
 70
    15
  1
HATCH
  2
*
  3
*
  4
*
  5
*
290
     1
  0
ACAMGFILTERDAT
  5
128F
102
{ACAD_REACTORS
330
128D
102
}
330
128D
100
AcAmgFilterDat
 70
    15
  1
LINE
  2
8,8N,*-8,*-8N,AM_8,AM_8N,*-AM_8,*-AM_8N
  3
*
  4
*
  5
INSERT,STDPART2D
290
     1
  0
ACAMGFILTERDAT
  5
1290
102
{ACAD_REACTORS
330
128D
102
}
330
128D
100
AcAmgFilterDat
 70
    15
  1
ACMFCFRAME,ACMDATUMTARGET,ACMDATUMID,ACMWELDSYM,ACMSURFSYM,ACMFEATID,ACMPARTREF,ACMBALLOON,AMDTEDGESYM
  2
*
  3
*
  4
*
  5
*
290
     1
  0
DICTIONARY
  5
FF9
102
{ACAD_REACTORS
330
FF8
102
}
330
FF8
100
AcDbDictionary
281
     1
  3
COMPDEFATTR_XRECORD
350
11E7
  0
LAYER_INDEX
  5
16DB
102
{ACAD_REACTORS
330
16DA
102
}
330
16DA
100
AcDbIndex
 40
2453298.345565833
100
AcDbLayerIndex
  8
0
360
16DC
 90
        2
  8
Dimension2_Bemaßung2
360
16DD
 90
       10
  8
Center of gravity_Schwerpunkt
360
16DE
 90
        4
  8
Defpoints
360
16DF
 90
        0
  8
Dimension1_Bemaßung1
360
16E0
 90
        2
  8
KLIN
360
1AC2
 90
        0
  0
DICTIONARY
  5
2304
330
11EF
100
AcDbDictionary
280
     1
281
     1
  3
ACAD_XREC_ROUNDTRIP
360
2305
  0
DICTIONARY
  5
2302
330
11EE
100
AcDbDictionary
280
     1
281
     1
  3
ACAD_XREC_ROUNDTRIP
360
2303
  0
XRECORD
  5
11E7
102
{ACAD_REACTORS
330
FF9
102
}
330
FF9
100
AcDbXrecord
280
     1
  1
2_0
 90
        0
  0
IDBUFFER
  5
16DC
330
0
100
AcDbIdBuffer
330
1286
330
224C
  0
IDBUFFER
  5
16DD
330
0
100
AcDbIdBuffer
330
213C
330
212F
330
2122
330
20F7
330
2106
330
2115
330
2292
330
229F
330
22AC
330
22B9
  0
IDBUFFER
  5
16DE
330
0
100
AcDbIdBuffer
330
17DD
330
17DE
330
17E7
330
17E8
  0
IDBUFFER
  5
16DF
330
0
100
AcDbIdBuffer
  0
IDBUFFER
  5
16E0
330
0
100
AcDbIdBuffer
330
2152
330
22C6
  0
IDBUFFER
  5
1AC2
330
0
100
AcDbIdBuffer
  0
XRECORD
  5
2305
102
{ACAD_REACTORS
330
2304
102
}
330
2304
100
AcDbXrecord
280
     1
102
SHADEPLOT
 70
     0
102
SHADEPLOTRESLEVEL
 70
     2
102
SHADEPLOTCUSTOMDPI
 70
   300
  0
XRECORD
  5
2303
102
{ACAD_REACTORS
330
2302
102
}
330
2302
100
AcDbXrecord
280
     1
102
SHADEPLOT
 70
     0
102
SHADEPLOTRESLEVEL
 70
     2
102
SHADEPLOTCUSTOMDPI
 70
   300
  0
ENDSEC
  0
EOF
